#VERSION:0.83;
#TITLE:ヒミツダイヤル;
#SUBTITLE:;
#ARTIST:ここなつ;
#TITLETRANSLIT:Himitsu dial;
#SUBTITLETRANSLIT:;
#ARTISTTRANSLIT:Coconatsu;
#GENRE:Hina Bitter;
#ORIGIN:;
#CREDIT:SAIKIO;
#BANNER:Himitsu dial-banner.png;
#BACKGROUND:Himitsu dial-bg.png;
#PREVIEWVID:;
#JACKET:Himitsu dial-jacket.png;
#CDIMAGE:;
#DISCIMAGE:;
#LYRICSPATH:;
#CDTITLE:HinaBitter.png;
#MUSIC:Himitsu dial.ogg;
#OFFSET:0.010000;
#SAMPLESTART:70.703972;
#SAMPLELENGTH:17.140045;
#SELECTABLE:YES;
#BPMS:0.000=112.000;
#STOPS:;
#DELAYS:;
#WARPS:;
#TIMESIGNATURES:0.000=4=4;
#TICKCOUNTS:0.000=4;
#COMBOS:0.000=1;
#SPEEDS:0.000=1.000=0.000=0;
#SCROLLS:0.000=1.000;
#FAKES:;
#LABELS:0.000=Song Start;
#BGCHANGES:;
#KEYSOUNDS:;
#ATTACKS:
;

//---------------dance-single - ----------------
#NOTEDATA:;
#CHARTNAME:;
#STEPSTYPE:dance-single;
#DESCRIPTION:;
#CHARTSTYLE:;
#DIFFICULTY:Beginner;
#METER:2;
#RADARVALUES:0.118779,0.155897,0.000000,0.000000,0.000000,98.000000,98.000000,0.000000,0.000000,0.000000,0.000000,0.000000,0.000000,0.000000,0.118779,0.155897,0.000000,0.000000,0.000000,98.000000,98.000000,0.000000,0.000000,0.000000,0.000000,0.000000,0.000000,0.000000;
#CREDIT:;
#NOTES:
0000
0000
0000
0000
,
0000
0000
0000
0000
,
0000
0000
0000
0000
,
0000
0000
0000
0000
,
0000
0000
0000
0000
,
0010
0000
0000
0000
,
0010
0000
0000
0000
,
0100
0000
0000
0000
,
0100
0000
0000
0000
,
0001
0000
0001
0000
,
1000
0000
0000
0000
,
1000
0000
1000
0000
,
0001
0000
0000
0000
,
0010
0000
0010
0000
,
0100
0000
0000
0000
,
0100
0000
0100
0000
,
0010
0000
0000
0000
,
1000
0000
0100
0000
,
1000
0000
0000
0000
,
0001
0000
0010
0000
,
0001
0001
0001
0000
,
0100
0000
1000
0000
,
0010
0000
0010
0000
,
0001
0000
0010
0000
,
0100
0100
0100
0000
,
0001
0000
1000
0000
,
0010
0010
0010
0000
,
0001
0000
0100
0000
,
0001
0001
0001
0000
,
0010
0000
0100
0000
,
1000
1000
1000
0000
,
0010
0000
1000
0000
,
0100
0100
0100
0000
,
0010
0000
1000
0000
,
0001
0000
0100
0000
,
0001
0000
1000
0000
,
0010
0000
0100
0000
,
0001
0000
0100
0000
,
1000
0000
0010
0000
,
0001
0000
1000
0000
,
0100
0000
0010
0000
,
1000
1000
1000
0000
,
0100
0000
0010
0000
,
0001
0001
0001
0000
,
0010
0000
1000
0000
,
0001
0001
1000
0000
,
1000
1000
0001
0000
,
0100
0100
0010
0000
,
0010
0010
0100
0000
,
1000
0000
1000
0000
,
0100
0000
0000
0000
,
0001
0000
0001
0000
,
0010
0000
0010
0000
;

//---------------dance-single - ----------------
#NOTEDATA:;
#CHARTNAME:;
#STEPSTYPE:dance-single;
#DESCRIPTION:;
#CHARTSTYLE:;
#DIFFICULTY:Easy;
#METER:4;
#RADARVALUES:0.187865,0.200439,0.008484,0.000000,0.000000,155.000000,154.000000,1.000000,0.000000,0.000000,0.000000,0.000000,0.000000,0.000000,0.187865,0.200439,0.008484,0.000000,0.000000,155.000000,154.000000,1.000000,0.000000,0.000000,0.000000,0.000000,0.000000,0.000000;
#CREDIT:;
#NOTES:
0000
0000
0000
0000
,
0000
0000
0000
0000
,
0000
0000
0000
0000
,
0000
0000
0000
0000
,
0000
0000
0000
0000
,
0010
0000
0010
0000
,
0100
0000
0000
0000
,
0001
0000
0001
0000
,
1000
0000
0000
0000
,
1000
0100
0010
0000
,
0001
0010
0100
0000
,
1000
0001
0100
0000
,
0001
1000
0010
0000
,
1000
0010
0100
0000
,
0001
0100
1000
0000
,
0010
0100
0010
0000
,
0001
1000
0100
0000
,
1000
1000
0001
1000
,
0010
0010
0100
0010
,
0001
0001
0100
0001
,
0100
0010
1000
0000
,
0100
0100
0010
1000
,
0010
0010
0001
0100
,
1000
1000
0001
0100
,
0010
1000
0100
0000
,
0010
0010
0100
0000
,
0001
0001
1000
0000
,
1000
0100
0001
0000
,
0001
0010
1000
0000
,
0010
1000
0100
0000
,
0100
0001
0010
0000
,
0001
1000
0001
0000
,
0100
0010
0100
0000
,
1000
1000
0100
0010
,
0001
0000
0010
0100
,
0001
0001
0100
0010
,
1000
0000
0100
1000
,
0010
0010
1000
0100
,
0010
0000
0001
0100
,
0010
0010
0001
0100
,
1000
0000
0010
1000
,
0001
0001
1000
0001
,
0100
0100
0010
0000
,
1000
1000
0010
0001
,
0100
0100
0010
0000
,
1000
0001
0100
0100
,
0010
1000
0100
0000
,
0001
0100
1000
0010
,
0100
0010
0110
0000
,
0001
0001
0100
1000
,
0010
0000
1000
0100
,
0010
0010
0001
0100
,
0010
1000
0100
0000
;

//---------------dance-single - ----------------
#NOTEDATA:;
#CHARTNAME:;
#STEPSTYPE:dance-single;
#DESCRIPTION:;
#CHARTSTYLE:;
#DIFFICULTY:Medium;
#METER:6;
#RADARVALUES:0.258162,0.334066,0.246042,0.059389,0.000000,213.000000,184.000000,29.000000,7.000000,0.000000,0.000000,0.000000,0.000000,0.000000,0.258162,0.334066,0.246042,0.059389,0.000000,213.000000,184.000000,29.000000,7.000000,0.000000,0.000000,0.000000,0.000000,0.000000;
#CREDIT:;
#NOTES:
0000
0000
0000
0000
,
0000
0000
0000
0000
,
0000
0000
0000
0000
,
0000
0000
0000
0000
,
0000
0000
0000
0000
,
0010
1000
0100
0010
,
0001
0000
0010
1000
,
0001
0010
0100
1000
,
0100
0000
0001
1000
,
0010
0010
1000
0100
,
0010
0000
0001
0001
0001
0000
0000
0000
,
0100
0100
1000
0100
,
0001
0000
0010
0010
0010
0000
0000
0000
,
0100
1000
0100
0001
,
0010
0000
1000
1000
1000
0000
0000
0000
,
0001
0100
1000
0010
,
0001
0000
0100
0100
0100
0000
0000
0000
,
0101
1000
0100
0010
,
1100
0010
0100
0001
,
0011
0100
1000
0010
,
0200
0310
0010
0000
,
0001
0011
0100
1100
,
0010
1000
0100
1001
,
0100
0001
0010
0100
,
0002
0013
1000
0000
,
1000
1000
0100
0010
,
0001
0001
0100
0000
,
0010
1000
0100
0100
,
0010
0001
0100
0000
,
0002
1003
2000
3001
,
1001
1000
1001
0000
,
0020
0130
0200
0310
,
0110
0010
0110
0000
,
1000
1000
0001
0000
0100
0000
0010
0000
,
0001
0000
0010
0001
,
0100
0100
0010
0000
1000
0000
0010
0000
,
0100
0000
0001
0100
,
0010
0010
0001
0000
1000
0000
0100
0000
,
0010
0000
0001
1000
,
0001
0001
0100
0000
0001
0000
1000
0000
,
0100
0000
0010
1000
,
1100
0101
0011
1100
,
0001
0100
0110
0001
,
1100
1010
0011
0110
,
0101
0010
1000
0001
,
0011
0110
1100
0110
,
0011
0010
1000
0001
,
0110
1001
1100
0011
,
0020
0130
0100
0000
,
1000
1000
1000
0000
0010
0000
0100
0000
,
0001
0000
0010
0001
,
0100
0100
0100
0000
0010
0000
1000
0000
,
0100
0000
0010
0100
0010
0000
0000
0000
;

//---------------dance-single - ----------------
#NOTEDATA:;
#CHARTNAME:;
#STEPSTYPE:dance-single;
#DESCRIPTION:;
#CHARTSTYLE:;
#DIFFICULTY:Hard;
#METER:10;
#RADARVALUES:0.361185,0.400879,0.271495,0.101811,0.016968,298.000000,266.000000,32.000000,12.000000,0.000000,0.000000,0.000000,0.000000,0.000000,0.361185,0.400879,0.271495,0.101811,0.016968,298.000000,266.000000,32.000000,12.000000,0.000000,0.000000,0.000000,0.000000,0.000000;
#CREDIT:;
#NOTES:
0000
0000
0000
0000
,
0000
0000
0000
0000
,
0000
0000
0000
0000
,
0000
0000
0000
0000
,
0000
0000
0000
0000
,
0010
0001
0010
0000
0100
0100
0010
0000
,
1100
0000
0010
0100
,
1000
0100
1000
0000
0001
0001
0100
0000
,
0011
0000
0000
0000
0010
0100
0001
0000
,
1000
1000
0100
0000
0010
0010
0001
0000
,
0100
0010
1000
1000
1000
0000
0010
0000
,
0001
0100
0001
0000
1000
0010
1000
0000
,
0001
0010
0100
1000
0010
0000
0100
0000
,
0001
0100
1000
0000
0100
0010
0001
0000
,
0100
0100
0010
1000
0100
0000
0010
0000
,
0001
0100
0010
0000
1000
0100
0010
0000
,
0002
0103
0010
1000
,
0100
1000
0010
1000
0100
1000
0010
0000
,
0100
0001
0010
0001
0100
0010
0100
0000
,
0001
0010
1000
0000
1000
0100
0001
0000
,
0020
0230
0310
0100
,
0001
1000
0100
1000
1000
0010
0100
0000
,
0010
0001
0100
0001
0010
0010
0001
0000
,
0010
0100
1000
0000
0100
0010
0001
0000
,
0200
0320
0130
0010
,
1100
0010
0101
1000
,
0100
0001
0100
0000
0011
0000
0100
0000
,
1001
0001
1100
0010
,
1000
0100
0010
0000
0110
0000
0001
0000
,
0001
0100
1000
0000
1000
0010
0001
0000
,
1010
1100
0101
0010
,
1000
0010
0001
0000
0001
0100
1000
0000
,
0020
0130
0100
0000
,
0010
0010
1000
0100
0010
0001
0200
0000
,
0310
0000
0000
0000
0001
0000
1000
0001
0100
0000
0001
0000
1000
0000
0100
0000
,
1000
1000
0001
0010
0100
1000
0020
0000
,
0130
0000
0000
0000
0001
0000
1000
0010
0100
0000
1000
0000
0100
0000
0010
0000
,
0001
0001
1000
0010
0100
0001
0200
0000
,
0310
0000
0000
0000
0001
0000
0100
0001
0010
0000
0001
0000
1000
0000
0100
0000
,
0100
0001
0010
1000
0100
0001
0020
0000
,
0130
0000
0000
0000
0001
0000
0010
1000
0100
0000
0010
0000
1000
0000
0000
0000
,
1010
1100
1001
0011
,
1010
0000
0101
0000
0001
0010
1000
0000
,
1100
0011
0110
1001
,
1100
0000
0110
0000
1000
0100
0010
0000
,
0011
1010
1100
0101
,
0011
0000
0110
0000
1000
0100
0001
0000
,
0101
1001
1010
0010
,
0200
0310
0100
0000
,
0010
0010
1000
0100
0010
0001
0020
0000
,
0130
0000
0001
0000
0100
0010
1000
0000
,
0001
0001
0100
0010
1000
0100
0010
0000
,
0001
0000
0100
0010
0100
0000
0000
0000
;

//---------------dance-single - ----------------
#NOTEDATA:;
#CHARTNAME:;
#STEPSTYPE:dance-single;
#DESCRIPTION:;
#CHARTSTYLE:;
#DIFFICULTY:Challenge;
#METER:12;
#RADARVALUES:0.447239,0.534505,0.390274,0.101811,0.173926,369.000000,323.000000,46.000000,12.000000,68.000000,0.000000,0.000000,0.000000,0.000000,0.447239,0.534505,0.390274,0.101811,0.173926,369.000000,323.000000,46.000000,12.000000,68.000000,0.000000,0.000000,0.000000,0.000000;
#CREDIT:;
#NOTES:
0000
0000
0000
0000
,
0000
0000
0000
0000
,
0000
0000
0000
0000
,
0000
0000
0000
0000
,
0000
0000
0000
0000
,
0010
0100
1000
0001
0100
0100
0010
0000
,
0110
0000
0000
0000
0000
0000
0000
0001
0100
0000
0010
0000
1000
0000
1000
0000
,
0010
0001
0100
1000
0010
0010
0100
0000
,
0110
0000
0000
0000
0000
0000
0000
1000
0100
0000
0010
0000
0010
0000
0100
0001
,
1000
0100
1000
0000
0010
0000
0100
0001
0010
0001
0100
0000
0010
0000
1000
0001
,
1000
0001
0010
0000
0001
0000
0001
0000
0001
0000
0000
0000
0110
0000
1000
0010
,
0100
0000
0001
0000
0100
0000
0010
0001
0100
0000
0001
0000
0100
0000
0010
0100
,
1000
0000
1000
0001
1000
0010
0100
0000
0001
0000
0000
0000
0110
0000
1000
0100
,
1000
0010
1000
0000
0010
0000
0100
0001
0100
0010
0100
0000
0001
0000
0100
0010
,
0100
0000
1000
0000
0100
0000
0010
0000
0001
0000
0000
0000
0110
0000
0001
0100
,
0001
0000
1000
0000
0010
0000
1000
0100
1000
0000
0001
0000
0010
0000
0001
0000
,
0100
0000
0010
0010
0100
0000
0020
0000
,
1030
0000
1000
0100
0010
0000
0001
0000
0100
0000
0100
0000
0010
0000
0000
0000
,
0001
0010
0001
0100
0010
0000
1000
0000
1000
0000
0100
0000
0010
0000
0000
0000
,
0001
0100
0010
0000
1000
0000
0000
0100
0010
0000
0001
0000
0100
0000
0000
0000
,
0210
0000
0000
0000
0320
0000
0000
0000
0130
0000
0100
0000
0001
0000
0100
0010
,
0100
0001
1000
0000
0100
0000
0010
0001
0100
0000
1000
0000
0001
0000
0000
0010
,
1000
0000
1000
0100
0010
0000
0001
0000
0100
0000
0101
0000
0011
0000
0000
0000
,
0001
1000
0100
0000
0010
0000
0001
0000
0010
0000
0010
0000
0100
0000
0000
0000
,
2000
0000
3002
0000
0103
0100
0010
0000
,
1010
1100
0011
1010
,
0100
0010
0001
0000
0100
0000
0010
0000
,
0011
1010
1100
0101
,
0010
1000
0100
0000
1000
0000
0010
0000
,
1001
0000
0101
0000
0001
0010
0100
0000
,
0011
1010
1100
0001
,
0101
0010
1100
0001
,
0200
0310
0110
0000
,
0010
0010
1000
0010
0001
1000
0200
0000
,
0310
0000
0000
0000
0001
0000
0000
0100
0010
0000
1000
0001
1000
0000
0010
0000
,
0100
0100
0001
0100
1000
0001
0020
0000
,
0130
0000
0000
0000
0001
0000
0000
0010
0100
0000
0001
1000
0001
0000
0010
0000
,
1001
1000
0100
0010
0001
0100
0020
0000
,
0130
0000
0000
0000
0001
0000
0000
1000
0010
0000
0100
0010
0100
0000
0001
0000
,
0110
0100
0001
0010
0100
1000
0200
0000
,
0310
0000
0000
0000
0001
0000
0000
0001
0010
0000
1000
0100
1000
0000
0010
0000
,
1010
MMMM
1001
MMMM
1100
MMMM
0011
MMMM
,
0110
MMMM
1100
MMMM
0010
0100
1000
0000
,
0101
MMMM
0110
MMMM
1001
MMMM
1100
MMMM
,
0101
MMMM
0011
MMMM
0100
0010
0001
0000
,
1001
MMMM
0110
MMMM
1100
MMMM
1001
MMMM
,
0101
MMMM
1010
0000
0001
0100
0010
0000
,
1000
0010
0001
0000
0001
0100
1000
0000
,
0210
0310
0110
0001
,
0010
1000
0100
0010
0010
0001
0020
0000
,
0130
0000
0000
0000
0001
0000
0000
0100
0010
0000
1000
0001
0100
0000
1000
0000
,
0010
0001
0010
0100
1000
0001
0100
0000
,
0001
1000
0100
0010
0100
0000
0000
0000
;

//---------------dance-double - ----------------
#NOTEDATA:;
#CHARTNAME:;
#STEPSTYPE:dance-double;
#DESCRIPTION:;
#CHARTSTYLE:;
#DIFFICULTY:Easy;
#METER:5;
#RADARVALUES:0.230286,0.289524,0.203621,0.059389,0.000000,190.000000,166.000000,24.000000,7.000000,0.000000,0.000000,0.000000,0.000000,0.000000,0.230286,0.289524,0.203621,0.059389,0.000000,190.000000,166.000000,24.000000,7.000000,0.000000,0.000000,0.000000,0.000000,0.000000;
#CREDIT:;
#NOTES:
00000000
00000000
00000000
00000000
,
00000000
00000000
00000000
00000000
,
00000000
00000000
00000000
00000000
,
00000000
00000000
00000000
00000000
,
00000000
00000000
00000000
00000000
,
00000010
00001000
00010000
01000000
,
10000000
00000000
00100000
00000000
,
00010000
00001000
00000100
00000001
,
00000010
00000000
00000100
00000000
,
00001000
00011000
00010000
00011000
,
00100000
01000000
01000000
00000000
,
10000000
00100000
00010000
00001000
,
00000100
00000010
00000110
00000000
,
00000001
00000100
00001000
00000100
,
00010000
00001000
00001000
00000000
,
00010000
00110000
01000000
11000000
,
00100000
00010000
00001000
00000000
,
00000200
00001300
00000010
00000100
,
00000002
00000103
00000010
00001000
,
00020000
00031000
00200000
01300000
,
00100000
00100000
02000000
03000000
,
00100000
00110000
00010000
01010000
,
00001000
00011000
00000100
00001100
,
00000010
00000100
00000001
00000100
,
00000020
00000130
00000200
00000300
,
00001000
00001000
00010000
00000000
,
00100000
00100000
00010000
00000000
,
01000000
10000000
00100000
00000000
,
00010000
00001000
00000100
00000000
,
00000001
00000010
00000100
00001000
,
00010000
01000000
10000000
00000000
,
00100000
00010000
00001000
00000100
,
00000001
00000010
00000010
00000000
,
00000010
00001000
00000100
00010000
,
00011000
00000000
00010000
01000000
,
10000000
00100000
00010000
00001000
,
00011000
00000000
00001000
00000100
,
00000010
00000001
00000100
00000010
,
00001010
00000000
00001000
00010000
,
00100000
00010000
01000000
10000000
,
11000000
00000000
00100000
00010000
,
00011000
00001000
00011000
00100000
,
00010000
00001000
00000100
00000000
,
00000011
00000100
00001100
00000100
,
00000110
00000010
00001010
00000000
,
00001000
00011000
00010000
00110000
,
00100000
01100000
01010000
00000000
,
10000000
01000000
00100000
00010000
,
00001000
00000010
00000010
00000000
,
00001000
00000100
00000001
00000010
,
00000100
00000000
00001000
00010000
,
01000000
10000000
00100000
00010000
,
00001000
00010000
00011000
00000000
;

//---------------dance-double - ----------------
#NOTEDATA:;
#CHARTNAME:;
#STEPSTYPE:dance-double;
#DESCRIPTION:;
#CHARTSTYLE:;
#DIFFICULTY:Medium;
#METER:8;
#RADARVALUES:0.265435,0.334066,0.271495,0.067874,0.000000,219.000000,187.000000,32.000000,8.000000,0.000000,0.000000,0.000000,0.000000,0.000000,0.265435,0.334066,0.271495,0.067874,0.000000,219.000000,187.000000,32.000000,8.000000,0.000000,0.000000,0.000000,0.000000,0.000000;
#CREDIT:;
#NOTES:
00000000
00000000
00000000
00000000
,
00000000
00000000
00000000
00000000
,
00000000
00000000
00000000
00000000
,
00000000
00000000
00000000
00000000
,
00000000
00000000
00000000
00000000
,
00001000
00010000
01000000
00100000
,
01100000
00000000
00010000
00001000
,
00000100
00000001
00000010
00000100
,
00000110
00000000
00001000
00010000
,
01000000
10000000
00100000
00010000
,
00001000
00000000
00010000
00010000
00010000
00000000
00000000
00000000
,
00001000
00000100
00000001
00000010
,
00000100
00000000
00001000
00001000
00001000
00000000
00000000
00000000
,
00010000
01000000
10000000
00010000
,
00100000
00000000
01000000
01000000
01000000
00000000
00000000
00000000
,
00010000
00001000
00000100
00000001
,
00000100
00000000
00000010
00000010
00000010
00000000
00000000
00000000
,
00000110
00000000
00001100
00000000
00001000
00010000
00001000
00000000
,
00110000
00000000
01010000
00000000
10000000
00010000
10000000
00000000
,
00100000
00100000
00010000
00000000
00001000
00000000
00010000
00000000
,
00000200
00001300
00000010
00000100
,
00000101
00001000
00001100
00001000
,
00010000
00001000
00010000
00000000
00100000
00000000
00010000
00000000
,
01000000
01000000
10000000
00100000
,
00020000
00031000
00000200
00000300
,
00001010
00001000
00001100
00000010
,
00001000
00000100
00000001
00000000
,
00000011
00000100
00001100
00010000
,
00100000
00010000
01000000
00000000
,
10100000
01000000
01010000
00010000
,
00001000
00000100
00000010
00000000
,
00000110
00001000
00001100
00010000
,
01000000
00100000
00100000
00000000
,
00010000
00001000
00000100
00000000
00001000
00000000
00000010
00000000
,
00000200
00000300
00000001
00000100
,
00000010
00000100
00001000
00000000
00010000
00000000
00100000
00000000
,
02000000
03000000
00010000
10000000
,
00100000
00010000
00001000
00000000
00000100
00000000
00001000
00000000
,
00000020
00000030
00000001
00000100
,
00001000
00010000
01000000
00000000
00010000
00000000
10000000
00000000
,
00200000
00300000
00010000
00100000
,
00011000
00001000
00011000
00000100
,
00001010
00001100
00001010
00000100
,
00000011
00000100
00000110
00000100
,
00001100
00011000
00011000
00100000
,
01010000
10000000
00110000
00010000
,
00011000
00110000
01010000
00010000
,
00002000
00013000
00000100
00000001
,
00000100
00000010
00000010
00000000
,
00000001
00000100
00001000
00010000
,
01000000
00000000
00100000
00010000
,
00001000
00000100
00000010
00000100
,
00001000
00000000
00010000
00001000
00011000
00000000
00000000
00000000
;

//---------------dance-double - ----------------
#NOTEDATA:;
#CHARTNAME:;
#STEPSTYPE:dance-double;
#DESCRIPTION:;
#CHARTSTYLE:;
#DIFFICULTY:Hard;
#METER:11;
#RADARVALUES:0.347853,0.378608,0.364821,0.084842,0.000000,287.000000,244.000000,43.000000,10.000000,0.000000,0.000000,0.000000,0.000000,0.000000,0.347853,0.378608,0.364821,0.084842,0.000000,287.000000,244.000000,43.000000,10.000000,0.000000,0.000000,0.000000,0.000000,0.000000;
#CREDIT:;
#NOTES:
00000000
00000000
00000000
00000000
,
00000000
00000000
00000000
00000000
,
00000000
00000000
00000000
00000000
,
00000000
00000000
00000000
00000000
,
00000000
00000000
00000000
00000000
,
00001000
00010000
00100000
01000000
10000000
00100000
00010000
00000000
,
00110000
00000000
00010000
00001000
,
00010000
00001000
00000100
00000010
00000001
00000100
00000010
00000000
,
00000011
00000000
00000100
00001000
,
00010000
00010000
00001000
00000000
00100000
00100000
00010000
00000000
,
10000000
00010000
00100000
00100000
00100000
00000000
00010000
00000000
,
00001000
00000100
00000001
00000000
00000010
00000100
00001000
00000000
,
00001000
00010000
00001000
00001000
00001000
00000000
00000100
00000000
,
00000010
00000001
00000100
00000000
00000010
00001000
00000100
00000000
,
00010000
00001000
01000000
01000000
01000000
00000000
00100000
00000000
,
01000000
10000000
00100000
00000000
00010000
00001000
00000100
00000000
,
00000010
00000000
00000010
00000001
00000001
00000000
00000010
00000000
,
00000200
00001300
00011000
00011000
,
00100000
00010000
01000000
00000000
10000000
00100000
00010000
00000000
,
00001000
00010000
00000100
00000000
00001000
00000010
00000100
00000000
,
00000002
00000203
00000310
00001000
,
00000100
00001000
00000100
00000000
00010000
00001000
00010000
00000000
,
00100000
00010000
01000000
10000000
00100000
00010000
00001000
00000000
,
00010000
00001000
00000100
00000000
00000010
00000001
00000100
00000000
,
00000020
00000130
00002000
00003000
,
00001000
00001100
00010000
00011000
,
01100000
01010000
10010000
00000000
,
00010000
00011000
00001000
00001100
,
00001010
00001100
00000011
00000100
,
00000020
00001030
00000200
00010300
,
00011000
00101000
00010000
01000000
,
20000000
30010000
00020000
10030000
,
00100000
01000000
01000000
00000000
,
00010000
00001000
00000100
00000010
00001000
00010000
00001000
00000000
,
00110000
00000000
00010000
00000000
01000000
10000000
00100000
00000000
,
00001000
00010000
00100000
01000000
10000000
01000000
00010000
00000000
,
00011000
00000000
00000100
00000000
00000010
00000001
00000100
00000000
,
00000010
00001000
00000100
00001000
00010000
00100000
00010000
00000000
,
00101000
00000000
00010000
00000000
00010000
01000000
10000000
00000000
,
00100000
00010000
00001000
00000100
00001000
00000010
00000100
00000000
,
00000110
00000000
00000001
00000000
00000010
00000100
00001000
00000000
,
00001100
00011000
00101000
01010000
,
10010000
00000000
00110000
00000000
00010000
00001000
00000100
00000000
,
00001010
00000011
00000110
00001100
,
00011000
00000000
00101000
00000000
00010000
01000000
10000000
00000000
,
00110000
00011000
00001100
00000110
,
00000011
00000000
00000110
00000000
00000100
00001000
00010000
00000000
,
00011000
00110000
01010000
01100000
,
20000000
30010000
10000000
00000000
,
00100000
00010000
00001000
00000100
00000010
00000001
00000100
00000000
,
00000010
00000000
00001000
00000000
00000100
00001000
00010000
00000000
,
00010000
01000000
10000000
00100000
00010000
01000000
00100000
00000000
,
00010000
00010000
00001000
00000000
00011000
00000000
00000000
00000000
;

//---------------dance-double - ----------------
#NOTEDATA:;
#CHARTNAME:;
#STEPSTYPE:dance-double;
#DESCRIPTION:;
#CHARTSTYLE:;
#DIFFICULTY:Challenge;
#METER:12;
#RADARVALUES:0.426635,0.467692,0.458147,0.178168,0.093326,352.000000,298.000000,54.000000,21.000000,88.000000,0.000000,0.000000,0.000000,0.000000,0.426635,0.467692,0.458147,0.178168,0.093326,352.000000,298.000000,54.000000,21.000000,88.000000,0.000000,0.000000,0.000000,0.000000;
#CREDIT:;
#NOTES:
// measure 0
00000000
00000000
00000000
00000000
,  // measure 1
00000000
00000000
00000000
00000000
,  // measure 2
00000000
00000000
00000000
00000000
,  // measure 3
00000000
00000000
00000000
00000000
,  // measure 4
00000000
00000000
00000000
00000000
,  // measure 5
00000001
00000100
00001000
00010000
00100000
01000000
10000000
00000000
,  // measure 6
00110000
00000000
00000000
00000000
00000000
00000000
00000000
00010000
00001000
00000000
00000100
00001000
00000100
00000000
00000010
00000000
,  // measure 7
00001000
00000100
00000001
00000010
00000100
00001000
00010000
00000000
,  // measure 8
00001100
00000000
00000000
00000000
00000000
00000000
00000000
00001000
00010000
00000000
00100000
00010000
00100000
00000000
00010000
00000000
,  // measure 9
10000000
00000000
10000000
00000000
00100000
00000000
00010000
00000000
00001000
00000000
00001000
00000000
00010000
00000000
00001000
00010000
,  // measure 10
00000100
00001000
00001010
00001000
00001100
00000000
00000010
00000001
,  // measure 11
00000001
00000000
00000100
00000000
00000010
00000000
00000010
00001000
00000010
00000000
00001000
00000000
00000100
00000000
00001000
00000000
,  // measure 12
00010000
00000000
00100000
00000000
00010000
10000000
01000000
00000000
00100000
00000000
00000000
00000000
00110000
00000000
00010000
00001000
,  // measure 13
00010000
00000000
00000100
00000000
00010000
00000000
00001000
00000010
00001000
00000000
00000010
00000000
00001000
00000000
00000100
00000000
,  // measure 14
00000010
00000000
00000001
00000000
00000110
00000000
00001000
00000000
00001100
00000000
00000000
00000000
00001000
00000000
00010000
00001000
,  // measure 15
00010000
00000000
01000000
00000000
00100000
00000000
10000000
00100000
10000000
00000000
01000000
00000000
00010000
00000000
00001000
00000000
,  // measure 16
00011000
00000000
00000100
00001000
00011000
00000000
00200000
00000000
,  // measure 17
00310000
10000000
00100000
00010000
00001000
00011000
00011000
00000000
,  // measure 18
00001000
00000010
00000100
00000001
00000101
00000010
00001100
00000000
,  // measure 19
00001000
00010000
00001000
00000000
00010000
00100000
00010000
00000000
,  // measure 20
20000000
00000000
00000000
00000000
30020000
00000000
00000000
00000000
00032000
00000000
00000000
00000000
00003100
00000000
00001000
00000010
,  // measure 21
00001000
00000000
00000100
00000000
00001000
00000000
00000010
00000001
00000010
00000000
00001000
00000000
00000100
00000000
00000000
00000000
,  // measure 22
00000010
00000001
00000100
00000010
00001010
00000100
00011000
00000000
,  // measure 23
00001000
00010000
01000000
10000000
00100000
00010000
00001000
00000000
,  // measure 24
00020000
00030200
00000320
00000130
,  // measure 25
00002000
00003200
00000302
00000023
,  // measure 26
00002030
00000000
00003200
00000000
00000310
00001000
00000100
00000000
,  // measure 27
00020000
00230000
20300000
32000000
,  // measure 28
03020000
02030000
03100000
00001000
,  // measure 29
00011000
00010100
00011000
00001010
,  // measure 30
00000110
00000000
00000011
00000000
00001000
00001000
00000100
00000000
,  // measure 31
00011000
00110000
01010000
10010000
,  // measure 32
20000000
30010000
10000000
00010000
,  // measure 33
00100000
00010000
00001000
00000100
00000010
00000001
00000100
00000000
,  // measure 34
00001010
00000000
00000000
00000000
00000100
00000000
00000000
00000010
00001000
00000000
00000100
00001000
00000010
00000000
00001000
00000000
,  // measure 35
00000100
00001000
00010000
00100000
01000000
10000000
00100000
00000000
,  // measure 36
00110000
00000000
00000000
00000000
10000000
00000000
00000000
00100000
01000000
00000000
10000000
00010000
00100000
00000000
00100000
00000000
,  // measure 37
00010000
00001000
00000100
00000010
00000100
00000001
00001010
00000000
,  // measure 38
00001100
00000000
00000000
00000000
00000001
00000000
00000000
00000100
00000001
00000000
00000010
00001000
00000100
00000000
00001000
00000000
,  // measure 39
00000100
00000100
00001000
00010000
01000000
10000000
00110000
00000000
,  // measure 40
01010000
00000000
00000000
00000000
00100000
00000000
00000000
01000000
00010000
00000000
00010000
10000000
01000000
00000000
00010000
00000000
,  // measure 41
00011000
0000MMMM
00001010
0000MMMM
00000110
0000MMMM
00010100
0000MMMM
,  // measure 42
00001100
0000MMMM
00001001
0000MMMM
00000100
00001000
00010000
00000000
,  // measure 43
00011000
MMMM0000
00101000
MMMM0000
01010000
MMMM0000
01100000
MMMM0000
,  // measure 44
10010000
MMMM0000
00110000
MMMM0000
00010000
00001000
00000100
00000000
,  // measure 45
00011000
0000MMMM
00001100
0000MMMM
00000110
0000MMMM
00000011
0000MMMM
,  // measure 46
00001100
0000MMMM
00011000
0000MMMM
00000100
00001000
00010000
00000000
,  // measure 47
00011000
MMMM0000
00110000
MMMM0000
10010000
MMMM0000
11000000
MMMM0000
,  // measure 48
20000000
30010000
10000000
00000000
,  // measure 49
00100000
00010000
00001000
00000100
00000010
00000100
00001000
00000000
,  // measure 50
00010000
00000000
00000000
00000000
00001000
00000000
00000000
00000100
00001000
00000000
00000010
00000000
00000100
00000000
00000000
00000000
,  // measure 51
00000001
00000010
00000100
00001000
00000100
00010000
00001000
00000000
,  // measure 52
00010000
01000000
00100000
00010000
00011000
00000000
00000000
00000000
;
