#TITLE:ハート・エレキ;
#SUBTITLE:;
#ARTIST:AKB48;
#TITLETRANSLIT:Heart Ereki;
#SUBTITLETRANSLIT:;
#ARTISTTRANSLIT:AKB48;
#GENRE:J-POP;
#CREDIT:SAIKIO;
#BANNER:Heart Ereki-banner.png;
#BACKGROUND:bg.png;
#LYRICSPATH:;
#CDTITLE:Saikio Simfiles.png;
#MUSIC:Heart Ereki.ogg;
#OFFSET:-0.086000;
#SAMPLESTART:15.815007;
#SAMPLELENGTH:12.000000;
#SELECTABLE:YES;
#BPMS:0.000000=156.009995
;
#STOPS:
;
#BGCHANGES:0.000=Heart Ereki.avi=1.000=0=0=0=StretchNoLoop====,
99999=-nosongbg-=1.000=0=0=0 // don't automatically add -songbackground-
;
#KEYSOUNDS:;
#ATTACKS:;

//---------------dance-single - ----------------
#NOTES:
     dance-single:
     :
     Beginner:
     4:
     0.152873,0.218911,0.036900,0.029520,0.000000,145.000000,140.000000,5.000000,4.000000,0.000000,0.000000,0.152873,0.218911,0.036900,0.029520,0.000000,145.000000,140.000000,5.000000,4.000000,0.000000,0.000000:
0000
0000
0000
0000
,
0000
0000
0000
0000
,
0000
0000
0000
0000
,
0000
0000
0000
0000
,
0000
0000
0000
0000
,
0000
0000
0000
0000
,
0000
0000
0000
0000
,
0000
0000
0000
0000
,
0000
0000
0000
0000
,
0000
0000
0000
0000
,
0000
0010
0010
0000
,
0000
1000
1000
0000
,
0000
0010
0010
0000
,
0000
0100
0100
0000
,
0000
0010
0000
0010
,
0000
0001
0000
0001
,
0000
0010
0000
0000
,
0000
1000
0000
0000
,
0000
0010
0010
0000
,
0000
0001
0100
0000
,
0000
1000
1000
0000
,
0000
0100
1000
0000
,
0000
0001
0001
0000
,
0000
1000
0000
1000
,
0000
0002
0000
0000
,
0000
0000
0000
0003
,
0000
1000
0000
0000
,
0000
0001
0000
0000
,
0000
1000
0000
0000
,
0000
0010
0000
0000
,
0000
0100
0000
0000
,
0000
0100
0000
0000
,
0000
1000
1000
1000
,
0000
0001
0001
0001
,
0000
0000
0010
0000
,
0100
0000
0000
0010
,
0000
1000
0001
0000
,
0000
1000
0000
0001
,
1000
1000
0000
0100
,
0001
0001
0000
0010
,
0000
0100
0000
0001
,
0000
0100
0000
0000
,
0000
2000
0000
0000
,
3000
0000
0000
0000
,
0000
0002
0000
0000
,
0003
0000
0000
0010
,
0000
0100
0100
0100
,
0000
0000
1000
0010
,
1000
0000
0000
0100
,
0001
0000
0000
0000
,
0100
0000
0001
0000
,
1001
0000
0010
0000
,
0110
0000
0010
0000
,
0100
0000
1000
0000
,
0100
0000
1000
0000
,
0001
0000
0000
0010
,
0000
0100
0010
0000
,
0010
0001
0010
0000
,
1000
0000
0100
0000
,
0110
0000
1000
0000
,
1001
0000
1000
0000
,
0010
0000
1000
0000
,
0010
0000
0001
0001
,
0010
0000
1000
0000
,
0000
0100
0000
0100
,
0010
0000
1000
0001
,
1000
0001
0000
0000
,
0000
0100
0100
0010
,
0010
0110
0000
0000
,
0000
0100
0000
1000
,
0000
0100
0001
0001
,
1000
0000
0001
0000
,
0000
1000
1000
0100
,
0000
0010
0000
0100
,
0000
0001
0001
0010
,
0000
0100
0000
0001
,
0000
1000
0000
1000
,
0000
0002
0000
0000
,
0000
0000
0000
0003
,
0000
0100
0000
0000
,
1000
1000
1000
0000
,
0000
0001
0100
0000
,
1000
0000
0010
0000
,
0000
0100
1000
0000
,
0001
0000
0000
0100
;

//---------------dance-single - ----------------
#NOTES:
     dance-single:
     :
     Easy:
     6:
     0.257248,0.354151,0.162362,0.236162,0.000000,244.000000,222.000000,22.000000,32.000000,0.000000,0.000000,0.257248,0.354151,0.162362,0.236162,0.000000,244.000000,222.000000,22.000000,32.000000,0.000000,0.000000:
0000
0000
0000
0000
,
0000
0000
0000
0000
,
0000
0000
0000
0000
,
0000
0000
0000
0000
,
0000
0000
0000
0000
,
0000
0000
0000
0000
,
0000
0000
0000
0000
,
0000
0000
0000
0000
,
0000
0001
0001
1000
,
1000
0000
0100
0001
,
0100
0010
1000
0200
,
0300
2000
3100
0000
,
0000
0010
1000
2000
,
3000
0200
0301
0000
,
0000
0020
0030
0002
,
0003
0010
0000
0001
,
0000
0010
1000
0100
,
1000
0010
1000
0000
,
0000
0010
0001
0020
,
0030
0200
0301
0000
,
0000
0010
0100
0002
,
0003
2000
3001
0000
,
0000
0010
1000
0200
,
0300
1000
0000
0100
,
0000
0002
0000
0000
,
0000
0000
0000
0000
,
0003
1001
0000
0000
,
0000
0110
0000
0000
,
0000
1000
0100
0001
,
0000
0001
0010
1000
,
0000
1000
1000
0010
,
0000
0100
0100
0001
,
0000
1000
0100
0001
,
0010
0100
1000
0100
,
0000
0010
0010
1000
,
1000
0001
0000
1000
,
0000
0001
0001
0100
,
0100
0010
0000
0100
,
0000
0001
0100
1000
,
0000
1000
0100
0001
,
0000
0010
0100
0001
,
0100
0000
0000
0010
,
1000
2000
0000
3010
,
0100
0001
0000
0010
,
0001
0002
0000
0013
,
0100
1000
0000
1000
,
0000
2000
3010
0001
,
0100
0002
0103
0010
,
1000
1001
0000
0010
,
0100
0020
0100
0100
,
0100
0030
0001
0010
,
1010
0000
0100
0001
,
0011
0000
0100
1000
,
1001
0000
1000
0010
,
0110
0000
0010
0100
,
0002
0003
0000
0100
,
0000
1001
0100
1001
,
0010
0100
0100
0010
,
0010
0001
0010
1000
,
0101
0000
0100
0001
,
0110
0000
1000
0010
,
1100
0000
0010
0100
,
1001
0000
0010
0001
,
0200
0300
0000
1001
,
0000
0011
0011
1000
,
0100
0001
0001
1000
,
1000
0002
0000
0103
,
0010
2000
3200
0320
,
0031
0101
0000
0000
,
0000
1000
0100
0001
,
0100
0010
1000
0010
,
0001
0020
0031
2000
,
3010
0100
0001
1000
,
0010
0200
0301
0002
,
0013
0100
0001
0010
,
0100
2000
3001
0020
,
0031
0100
1100
0001
,
1100
0002
0010
0100
,
0010
0000
1000
0003
,
0000
0001
0100
0010
,
1000
0000
0200
0000
,
0300
0000
0010
1000
,
0000
0100
0010
0010
,
0000
0000
0000
0101
0000
0000
1010
0000
,
0000
0101
0000
0000
0000
0000
0200
0000
,
0000
0000
0000
0000
,
0000
0000
0000
0000
,
0000
0300
0000
0000
;

//---------------dance-single - ----------------
#NOTES:
     dance-single:
     :
     Medium:
     10:
     0.381655,0.482934,0.376384,0.221402,0.000000,362.000000,311.000000,51.000000,30.000000,0.000000,0.000000,0.381655,0.482934,0.376384,0.221402,0.000000,362.000000,311.000000,51.000000,30.000000,0.000000,0.000000:
0000
0000
0000
0000
,
0000
0000
0000
0000
,
0000
0000
0000
0000
,
0000
0000
0000
0000
,
0000
0000
0000
0000
,
0000
0000
0000
0000
,
0000
0000
0000
0000
,
0000
0000
0000
0000
,
0000
0001
1000
1000
,
0001
0000
0000
0010
0100
0010
0100
0000
,
0001
1010
0001
1010
,
0001
0000
0100
0001
0100
0000
1000
0010
,
1000
0011
1000
0011
,
1000
0000
0010
0001
0010
0000
1000
0100
,
1000
0110
0001
0110
,
1000
0200
0300
0020
,
0030
0002
1000
1000
,
0010
1000
0013
0000
,
0000
1010
0001
1100
,
0001
0000
0100
0010
0100
0000
1000
0010
,
1000
0101
1000
0110
,
1000
0000
0010
0001
0010
0000
0001
1000
,
0001
0010
0101
1100
,
0000
1010
0000
1100
,
0000
0102
0010
0010
,
0010
1000
0010
0003
,
0000
0000
1001
0000
0000
0110
0000
0000
,
0000
0000
0110
0000
0000
1001
0000
0000
,
0000
0000
0100
0000
0100
0010
0001
0000
,
0100
0000
0010
0000
0010
1000
0100
0000
,
0010
2000
3000
0001
,
0100
0020
0000
0000
0030
0000
0100
0000
,
0001
0000
1000
1000
0100
0000
0010
0000
,
0001
0000
0100
0100
0010
0100
0000
0001
,
0100
0010
2000
3100
,
0001
0100
0020
0031
,
0100
0000
0010
0000
1000
0200
0000
0300
,
0000
0000
1000
0000
1000
0001
0000
0000
,
0100
0000
0100
0001
0100
0000
0010
0000
,
1000
0000
0100
1000
0100
0000
1000
0000
,
0010
0000
0100
0000
0100
0002
0000
0003
,
0100
0020
0000
0030
0000
0000
1000
0000
,
0100
0000
2010
0000
3000
0001
0100
0000
,
0000
0000
1002
0000
0003
0100
0010
0000
,
0000
0000
2100
0000
3000
0010
0100
0000
,
0001
0000
0102
0000
0003
1000
0010
0000
,
1000
0000
0001
0001
0100
0100
1000
1000
,
0100
0000
0001
0100
0010
0000
1000
0000
,
0100
1010
0000
0101
,
1000
0200
0000
0000
1000
0000
1000
0000
,
1000
0000
1300
0000
0010
0100
0001
0000
,
0000
1010
0000
0000
0100
0010
0001
0000
,
0000
1100
0000
0000
0010
1000
0001
0000
,
0000
0110
0000
0000
0001
1000
0100
0000
,
0000
1001
0000
0000
0010
0100
0100
0010
,
0000
0001
0000
0000
0100
0000
1010
0000
,
0001
0000
0100
0000
0100
0010
0000
1000
,
0000
0000
0001
1000
0100
1000
0001
0000
,
1000
0000
0020
0000
0030
0000
0100
0010
,
0000
0101
0000
0000
1000
0100
0010
0000
,
0000
0011
0000
0000
0100
0001
0010
0000
,
0000
0110
0000
0000
1000
0010
0100
0000
,
0000
1001
0000
0000
0010
0001
0001
0010
,
0000
0100
0000
0000
0010
0000
1001
0000
,
0100
0000
1001
0000
0100
1000
0000
0010
,
0000
0000
1000
0001
1000
0001
0100
0000
,
0001
0000
0010
0000
0100
0010
0000
1000
,
0000
0000
0100
0010
0100
1000
0100
0010
,
0100
0000
0002
0000
0000
0000
0000
0003
,
0000
0000
0100
0100
0010
0010
1000
0100
,
1000
0000
0010
1000
0100
0000
0010
0001
,
0100
1020
0130
1020
,
1030
0000
0100
1000
0010
0000
1100
0000
,
1001
0021
0130
0102
,
1003
0000
1000
0010
0001
0000
1100
0000
,
0110
0001
0101
1100
,
0000
2020
3030
2200
,
3300
0102
0100
0100
,
0100
1000
0100
0003
,
0000
0000
1000
0000
0010
0100
0001
0000
,
0100
0100
0000
0010
1000
0002
0000
0000
,
0000
0003
0000
0100
0000
0100
0010
0000
,
1000
0000
0010
0000
0100
0020
0000
0000
,
0000
0030
0000
0110
0000
0000
1001
0000
,
0000
0100
0000
0000
0000
0000
0200
0000
,
0000
0000
0000
0000
,
0000
0000
0000
0000
,
0000
0300
0000
0000
;

//---------------dance-single - ----------------
#NOTES:
     dance-single:
     :
     Hard:
     12:
     0.500791,0.611716,0.501845,0.346863,0.011070,475.000000,407.000000,68.000000,47.000000,0.000000,0.000000,0.500791,0.611716,0.501845,0.346863,0.011070,475.000000,407.000000,68.000000,47.000000,0.000000,0.000000:
0000
0000
0000
0000
,
0000
0000
0000
0000
,
0000
0000
0000
0000
,
0000
0000
0000
0000
,
0000
0000
0000
0000
,
0000
0000
0000
0000
,
0000
0000
0000
0000
,
0000
0000
0000
0000
,
0000
2000
3100
0002
,
0103
0000
0010
0010
1000
0100
0001
0100
,
0001
1001
1100
1001
,
1100
0000
0001
0010
0001
0100
0010
0100
,
1000
0011
1001
0011
,
1001
0000
1000
0010
0100
0010
0001
0100
,
0001
1010
0110
0220
,
0330
2000
3001
0002
,
0013
0000
1000
0010
0100
0010
0001
0100
,
0001
1000
0010
0100
0010
0100
0020
0000
,
0030
1001
1100
1001
,
0101
0000
0010
0001
0010
0100
1000
0100
,
0010
0011
1001
1010
,
1001
0000
0010
0100
1000
0100
0001
0010
,
0001
1010
1001
2002
,
3003
2100
3001
2010
,
3100
0000
0102
0010
0010
1000
1000
0000
,
0100
0010
0103
0010
1000
0200
0000
0000
,
0300
0000
1001
0000
0000
0110
0000
0000
,
0001
0000
1001
0000
0000
0110
0000
0000
,
0010
0000
1000
0001
0100
0000
0010
0000
,
0100
0000
0001
1000
0100
0000
0010
0000
,
0001
0200
0000
0300
0000
0010
1000
0100
,
1000
0002
0000
0000
0003
0100
0010
0000
,
1000
0000
0001
0001
0100
1000
0100
0001
,
1000
0010
1000
1000
0100
1000
0000
0010
,
1000
0001
0200
0000
0010
0300
0001
1000
,
0000
0020
0000
0030
1000
0000
1100
0000
,
0001
0000
1100
0000
0001
0100
0000
0000
,
0010
0000
0100
0000
0100
0002
0000
0000
,
0103
0000
0100
0010
1000
0100
1000
0000
,
0001
0000
0100
0010
0001
0010
1000
0000
,
0010
0000
1000
1000
0001
2000
0000
3000
,
0010
2000
0000
3000
0001
0000
0100
0000
,
0010
0000
2000
0010
3100
0010
0001
0000
,
0100
0000
0002
0010
0103
0010
1000
0000
,
0010
0000
0200
0010
0301
0010
1000
0000
,
0001
0000
0020
0100
1030
0100
0001
0000
,
0011
0000
0100
0100
0002
1000
0103
0100
,
2000
0001
3100
0002
0100
0103
2000
0010
,
3100
0202
0303
1001
,
0100
0020
0000
1000
1000
1000
0100
0100
,
0031
0100
0010
0000
0100
0001
0100
1000
,
0000
1100
0000
0001
0010
0001
0100
0010
,
0000
1100
0000
1000
0010
1000
0001
0100
,
0000
1010
0000
0001
0100
0001
0010
0100
,
0000
1010
0000
1000
0010
0100
0010
1000
,
0000
1001
0000
0010
1000
0000
1010
0000
,
0010
0000
0001
0000
0100
1000
0000
0010
,
0000
0100
2000
0100
0001
0100
0100
0001
,
0001
3100
0002
0000
0013
0100
0010
1000
,
0000
0101
0000
0010
0001
0100
0001
0010
,
0000
0101
0000
0010
1000
0010
0100
1000
,
0000
0011
0000
0100
0001
0100
0010
1000
,
0000
0011
0000
0010
1000
0001
0100
0020
,
0000
0031
0000
0000
0001
0000
1000
0000
,
0001
0000
1001
0000
0100
0010
0000
1000
,
0000
0010
0200
0001
0001
1000
1000
0001
,
0010
1300
0020
0000
0000
0130
0000
0001
,
0000
1000
0100
0001
0100
1000
0010
0001
,
0010
0100
2020
0000
0000
0000
0000
0000
,
3030
0000
1001
0100
1000
1000
0001
0100
,
1000
0100
0100
1000
0010
0001
0010
0010
,
0100
0010
1001
0000
1100
0000
0101
0000
,
0011
0000
1000
0100
0001
0010
0100
1000
,
0100
0011
1001
1100
,
1010
0000
0001
0010
1000
0100
0010
0001
,
0010
0011
1001
2002
,
3003
2100
3010
2010
,
3001
0000
0102
0010
0010
1000
0100
0000
,
0100
0013
0100
0001
0100
0020
0000
0000
,
0000
0030
0100
0001
1000
0010
0100
0100
,
0001
1000
0000
0010
1000
0002
0000
0000
,
0000
0000
0000
0000
0003
0000
1100
0000
0000
1100
0000
0000
1001
0000
0000
0011
,
0000
0000
0100
0000
0010
0000
0000
0010
0000
0000
0200
0000
0000
0000
0000
0000
,
0000
0300
0000
1010
0000
0001
0110
0000
,
0001
0101
0000
0000
0000
0000
0200
0000
,
0000
0000
0000
0000
,
0000
0000
0000
0000
,
0000
0300
0000
0000
;

//---------------dance-double - ----------------
#NOTES:
     dance-double:
     :
     Easy:
     5:
     0.238271,0.289760,0.132841,0.199262,0.000000,226.000000,208.000000,18.000000,27.000000,0.000000,0.000000,0.238271,0.289760,0.132841,0.199262,0.000000,226.000000,208.000000,18.000000,27.000000,0.000000,0.000000:
00000000
00000000
00000000
00000000
,
00000000
00000000
00000000
00000000
,
00000000
00000000
00000000
00000000
,
00000000
00000000
00000000
00000000
,
00000000
00000000
00000000
00000000
,
00000000
00000000
00000000
00000000
,
00000000
00000000
00000000
00000000
,
00000000
00000000
00000000
00000000
,
00000000
00001000
00001000
00010000
,
00010000
00000000
00001000
00010000
,
00001000
00100000
00100000
00010000
,
00000000
00200000
00310000
00000000
,
00000000
00000010
00000010
00001000
,
00000000
00000200
00000301
00000000
,
00000000
00000001
00000100
00001000
,
00000000
00011000
00000000
00110000
,
00000000
00010000
00001000
00010000
,
00100000
00010000
00200000
00300000
,
00000000
00010000
00100000
00020000
,
00030000
00001000
00010000
00000000
,
00000000
00000010
00000001
00000200
,
00000300
00000010
00001000
00000000
,
00000000
00010000
00100000
00020000
,
00030000
11000000
00000000
01010000
,
00000000
00021000
00000000
00001000
,
00000000
00001000
00001000
00030000
,
00000000
00001000
00000100
00000000
,
00000000
00010000
01000000
00000000
,
00000000
00010000
01000000
10000000
,
00000000
00100000
00010000
00001000
,
00000000
00000100
00000010
00000001
,
00000000
00000001
00000100
00001000
,
00000000
00010000
00010000
00001000
,
00001000
00100000
00010000
01000000
,
00100000
00000000
10000000
01000000
,
00010000
00000000
00001000
00010000
,
00001000
00000200
00000300
00000002
,
00000003
00000001
00000000
00000100
,
00000000
00010000
00100000
00010000
,
00000000
00001000
00010000
00001000
,
00000000
00000100
00000010
00000001
,
00000200
00000000
00000300
00000000
,
00001000
00020000
00000000
00031000
,
00000000
00200000
00000000
01300000
,
00000000
02000000
00000000
13000000
,
00000000
20000000
00000000
30010000
,
00010000
00001000
00100000
00010000
,
00001000
00000010
00000001
00000100
,
00001000
00010000
00000000
00000010
,
00000200
00000000
00000000
00001000
,
00001300
00000100
00000000
00010000
,
01010000
00000000
00001000
00000000
,
00001100
00000000
00010000
01000000
,
10010000
00000000
00001000
00000000
,
00001001
00000000
00000010
00001000
,
00011000
00000000
00000000
00100000
,
00000000
10000000
00010000
01000000
,
00000000
00100000
00100000
00010000
,
00010000
00001000
00000000
00000100
,
00001010
00000000
00010000
00000000
,
00110000
00000000
00001000
00000100
,
00001001
00000000
00010000
00000000
,
10010000
00000000
00010000
00000000
,
00000100
00000010
00000000
00011000
,
00000000
00100000
00010000
01000000
,
00000000
10000000
10000000
00010000
,
00010000
02000000
03000000
00010000
,
00000000
10000000
01000000
00100000
,
00010000
00002000
00000000
00003000
,
00000000
00001000
00000100
00010000
,
00100000
00010000
10000000
00100000
,
00010000
00000010
00000010
00001000
,
00001000
00002000
00003001
00000100
,
00000000
00010000
00010000
00100000
,
00100000
20000000
30010000
01000000
,
00000000
00001000
00010000
00100000
,
00000000
02002000
03003000
00022000
,
00033000
00010200
00010000
00010000
,
00000000
00100000
00010000
00000300
,
00000000
00010000
00001000
00000100
,
00000010
00000000
00020000
00030000
,
00000000
00000000
00010000
01000000
,
00000000
00100000
02000000
03000000
,
00000000
00000000
00000000
00010000
00000000
00000000
00001000
00000000
,
00000000
00000010
00000000
00000000
00000000
00000000
00000200
00000000
,
00000000
00000000
00000000
00000000
,
00000000
00000000
00000000
00000000
,
00000000
00000300
00000000
00000000
;

//---------------dance-double - ----------------
#NOTES:
     dance-double:
     :
     Medium:
     9:
     0.322615,0.450738,0.346863,0.221402,0.000000,306.000000,259.000000,47.000000,30.000000,0.000000,0.000000,0.322615,0.450738,0.346863,0.221402,0.000000,306.000000,259.000000,47.000000,30.000000,0.000000,0.000000:
00000000
00000000
00000000
00000000
,
00000000
00000000
00000000
00000000
,
00000000
00000000
00000000
00000000
,
00000000
00000000
00000000
00000000
,
00000000
00000000
00000000
00000000
,
00000000
00000000
00000000
00000000
,
00000000
00000000
00000000
00000000
,
00000000
00000000
00000000
00000000
,
00000000
00000001
00000001
00001000
,
00001000
00000000
00000000
00010000
00001000
00010000
00100000
00000000
,
00010000
01000000
00110000
00100000
,
00010000
00002000
00003100
00000000
,
00000000
00000100
00001010
00000010
,
00001000
00020000
01030000
00000000
,
00000000
00100000
00010000
00011000
,
00000000
00002000
00003100
00000010
,
00000100
00000002
00000100
00000100
,
00000010
00000103
00000010
00000000
,
00000000
00010000
00100000
00110000
,
00010000
00001000
00000020
00000130
,
00000000
00000001
00000010
00000011
,
00000100
00001000
00020000
00130000
,
00000000
00010000
01000000
00110000
,
00000000
01010000
00000000
00011000
,
00000000
00010200
00010000
00010000
,
00010000
00001000
00000000
00010300
,
00000000
00000000
00010000
00000000
00000000
01010000
00000000
00000000
,
00000000
00000000
00001000
00000000
00000000
00001100
00000000
00000000
,
00000000
00000010
00001000
00000001
,
00001000
00000010
00001000
00010000
,
10000000
00020000
00030000
01000000
,
00100000
20000000
30000000
00010000
,
00100000
00000000
00010000
00010000
00001000
00000000
00010000
00000000
,
00000100
00000000
00000010
00000010
00000100
00000000
00001000
00000000
,
00000010
00010000
00200000
00310000
,
01000000
00010000
10000000
10000000
,
01000000
00000000
00100000
00000000
00010000
00002000
00000000
00003000
,
00000000
00000000
00001000
00000000
00000200
00000000
00000000
00000300
,
00000000
00000010
00001000
00000100
,
00000010
00000001
00000010
00000100
,
00000010
00000000
00010000
00000000
00010000
00001000
00000000
00000000
,
00100000
00020000
00000000
00000000
00030000
00000000
01000000
00000000
,
00100000
00000000
20000000
00000000
30000000
01000000
00100000
00000000
,
00010000
00001000
00000000
00000100
,
00000010
00000000
00000002
00000000
00000003
00000100
00000010
00000000
,
00001000
00010000
00000000
00100000
,
00010000
00000000
01000000
01000000
00010000
00000000
00100000
00000000
,
00001000
00000000
00010000
00010000
00001000
00000000
00000100
00000000
,
00000010
00000101
00000000
00000010
,
00001000
00020000
00000000
00000000
00000000
00000000
00000000
00000000
,
00000000
00030000
00000000
00000000
00110000
00000000
00011000
00000000
,
00001100
00000000
00001100
00000011
,
00001001
00000000
00010100
00011000
,
00110000
00000000
00110000
11000000
,
10010000
00000000
00100000
00010010
,
00000100
00000000
00010000
01100000
,
00000000
00011000
00000100
00000010
,
00000100
00000002
00000100
00000100
,
00000100
00000013
00000001
00000101
,
00011000
00000000
00010100
00110000
,
01100000
00000000
10010000
00110000
,
00010100
00000000
00011000
00000011
,
00001001
00000000
00001000
01010000
,
00100000
00000000
00000000
00011000
,
00000000
00000100
00001000
00010000
,
00100000
00000000
10000000
00010000
10000000
00000000
00100000
00000000
,
00010000
02000000
00000000
03000000
,
00000000
00000000
00010000
00010000
00001000
00000000
00000100
00000000
,
00000010
00022000
00000000
00000000
,
00033000
00000000
00100000
00010000
00100000
00000000
01000000
00000000
,
00001000
00000000
00010000
00001000
00010000
00000000
00000100
00000000
,
00000010
00000002
00000013
00002000
,
00003001
00000000
00010000
00001000
00010000
00000000
01000000
00000000
,
00100000
20000000
30100000
00020000
,
10030000
00000000
00001000
00010000
00001000
00000000
00000100
00000000
,
00000010
00002000
00103000
00020000
,
00030100
00101000
00000000
01010000
,
00000000
02001000
00010000
00010000
,
00001000
00000000
00010000
00000000
00002000
03000000
00000000
00000000
,
00003000
00010000
00100000
00010000
,
01000000
01000000
00000000
00000000
00010000
00200000
00000000
00000000
,
00300000
00000000
00000000
00001000
00010000
00000000
00000100
00000000
,
00000010
00000000
00001000
00001000
00000000
00100000
00000000
00000000
,
00000000
00000000
00000000
00110000
00000000
00000000
00011000
00000000
,
00000000
01010000
00000000
00000000
00000000
00000000
00000200
00000000
,
00000000
00000000
00000000
00000000
,
00000000
00000000
00000000
00000000
,
00000000
00000300
00000000
00000000
;

//---------------dance-double - ----------------
#NOTES:
     dance-double:
     :
     Hard:
     12:
     0.438587,0.547325,0.442804,0.236162,0.011070,416.000000,356.000000,60.000000,32.000000,0.000000,0.000000,0.438587,0.547325,0.442804,0.236162,0.011070,416.000000,356.000000,60.000000,32.000000,0.000000,0.000000:
// measure 0
00000000
00000000
00000000
00000000
,  // measure 1
00000000
00000000
00000000
00000000
,  // measure 2
00000000
00000000
00000000
00000000
,  // measure 3
00000000
00000000
00000000
00000000
,  // measure 4
00000000
00000000
00000000
00000000
,  // measure 5
00000000
00000000
00000000
00000000
,  // measure 6
00000000
00000000
00000000
00000000
,  // measure 7
00000000
00000000
00000000
00000000
,  // measure 8
00000000
00002000
00013000
00200000
,  // measure 9
00301000
00000000
00000000
00100000
00010000
01000000
00100000
00000000
,  // measure 10
01000000
00110000
01010000
00011000
,  // measure 11
00001100
00000000
00001000
00000010
00000100
00000001
00000010
00000100
,  // measure 12
00000010
00001010
00001100
00011000
,  // measure 13
00110000
00000000
00010000
01000000
00100000
10000000
01000000
00100000
,  // measure 14
00010000
00110000
01010000
00022000
,  // measure 15
00033000
00202000
00303000
00020020
,  // measure 16
00030030
00000000
00010000
00001000
00000100
00000010
00001000
00000000
,  // measure 17
00000001
00000100
00001000
00000100
00000010
00000020
00000000
00000000
,  // measure 18
00000030
00011000
00110000
01001000
,  // measure 19
00001100
00000000
00010000
00001000
00000100
00000010
00000001
00000100
,  // measure 20
00000010
00011000
00001100
00101000
,  // measure 21
00110000
00000000
00001000
00010000
00100000
01000000
10000000
00100000
,  // measure 22
01000000
00100000
00010000
00020000
,  // measure 23
00030000
02020000
03030000
00202000
,  // measure 24
00303000
01002000
00010000
00100000
,  // measure 25
00010000
00000000
01000000
01000000
00000000
00100000
00003000
00000000
,  // measure 26
00000000
00000000
00110000
00000000
00000000
00110000
00000000
00000000
,  // measure 27
00000000
00000000
11000000
00000000
00000000
11000000
00000000
00000000
,  // measure 28
00010000
00000000
00100000
00000000
00010000
00001000
00010000
00000000
,  // measure 29
00001000
00000000
00000100
00000000
00000010
00000001
00000100
00000000
,  // measure 30
00000010
00000000
00000100
00000000
00001000
00010000
00100000
00000000
,  // measure 31
00100000
00000000
00010000
00000000
01000000
00100000
10000000
00000000
,  // measure 32
00010000
00000000
10000000
01000000
00100000
00000000
00100000
00010000
,  // measure 33
00001000
00000000
00010000
00001000
00010000
00000100
00000000
00001000
,  // measure 34
00001000
00000100
00000010
00000000
00000001
00000000
00000100
00000010
,  // measure 35
00000000
00001000
00000000
00000000
00010000
00000000
00100000
00000000
,  // measure 36
00010000
00000000
01000000
00000000
01000000
00010000
00000000
00000000
,  // measure 37
00100000
00000000
00010000
00000000
00010000
00001000
00000000
00000000
,  // measure 38
00001000
00000000
00000100
00001000
00010000
00000000
00100000
00000000
,  // measure 39
00010000
00000000
00100000
00010000
00001000
00000000
00000100
00000000
,  // measure 40
00000010
00000000
00000001
00000000
00000100
00000010
00000000
00001000
,  // measure 41
00000100
00000020
00000000
00000000
00000030
00000000
00000100
00000000
,  // measure 42
00000010
00000000
00000002
00000000
00000003
00000100
00000010
00000000
,  // measure 43
00001000
00011000
00000000
00100000
,  // measure 44
00010000
00000000
02000000
00000000
03000000
00100000
10000000
00000000
,  // measure 45
01000000
00011000
00000000
00100000
,  // measure 46
00010000
00000000
10000000
01000000
01000000
00100000
00010000
00100000
,  // measure 47
00010000
00001000
00001000
00000100
00001000
00000010
00000001
00000100
,  // measure 48
00001000
00001000
00000000
00011000
,  // measure 49
00100000
00020000
00000000
00000000
00000000
00000000
00000000
00000000
,  // measure 50
00030000
00000000
00001000
00000000
00100000
00010000
01000000
00100000
,  // measure 51
00000000
00110000
00000000
00010000
00001000
00000100
00001000
00000010
,  // measure 52
00000000
00001010
00000000
00010000
00001000
00000100
00000010
00000001
,  // measure 53
00000000
00000101
00000000
00000010
00000100
00001000
00010000
00100000
,  // measure 54
00000000
00110000
00000000
00010000
10000000
01000000
10000000
00100000
,  // measure 55
00000000
01010000
00000000
00000000
00100000
00000000
10010000
00000000
,  // measure 56
00010000
00000000
00011000
00000000
00001000
00010000
00000000
00000100
,  // measure 57
00000000
00001000
00000010
00000010
00001000
00000001
00000100
00010000
,  // measure 58
00100000
01000000
00020000
00000000
00000000
00030000
01000000
00010000
,  // measure 59
00000000
01010000
00000000
00100000
00010000
00001000
00000100
00001000
,  // measure 60
00000000
00001100
00000000
00000010
00000001
00000100
00000010
00001000
,  // measure 61
00000000
00001010
00000000
00001000
00010000
00100000
01000000
00010000
,  // measure 62
00000000
00110000
00000000
01000000
00100000
00010000
00000100
00001000
,  // measure 63
00000000
00011000
00000000
00000000
00100000
00000000
10010000
00000000
,  // measure 64
00100000
00000000
00010000
00000000
10000000
00010000
00000000
10000000
,  // measure 65
00000000
00100000
00100000
00010000
00001000
00000100
00000010
00000001
,  // measure 66
00000100
00000010
00002000
00000000
00000000
00000000
00000000
00000000
,  // measure 67
00003000
00000000
00010000
00010000
00001000
00100000
00010000
01000000
,  // measure 68
00100000
00010000
02000000
00000000
00000000
00000000
00000000
00000000
,  // measure 69
00000000
03000000
10000000
00010000
00100000
00010000
01000000
00100000
,  // measure 70
00010000
10000000
00100000
00010000
00001000
00010000
00000100
00000010
,  // measure 71
00000001
00000110
00001010
00001100
,  // measure 72
00010100
00000000
00010000
00001000
00100000
00010000
10000000
01000000
,  // measure 73
00010000
01010000
00110000
00101000
,  // measure 74
00001100
00000000
00010000
00000100
00000010
00000001
00001000
00000100
,  // measure 75
00000010
00000011
00001100
00022000
,  // measure 76
00033000
00020200
00030300
02002000
,  // measure 77
03003000
00020000
00001000
00000100
,  // measure 78
00001000
00000000
00000010
00000010
00000000
00000100
00030000
00000000
,  // measure 79
00000000
00000000
00010000
00100000
00010000
00000000
01000000
00000000
,  // measure 80
10000000
01000000
00000000
00010000
00100000
00002000
00000000
00000000
,  // measure 81
00000000
00000000
00003000
00000000
00000000
00000000
00100000
00000000
00000000
00001000
00000000
00000000
00010000
00000000
00000000
00000100
,  // measure 82
00000000
00000000
00100000
00000000
00010000
00000000
00000000
01000000
00000000
00000000
00200000
00000000
00000000
00000000
00000000
00000000
,  // measure 83
00000000
00300000
00000000
00101000
00000000
00000000
00011000
00000000
,  // measure 84
00000000
00010100
00000000
00000000
00000000
00000000
00000200
00000000
,  // measure 85
00000000
00000000
00000000
00000000
,  // measure 86
00000000
00000000
00000000
00000000
,  // measure 87
00000000
00000300
00000000
00000000
;
