#VERSION:0.83;
#TITLE:Heart Attack;
#SUBTITLE:;
#ARTIST:LOONA/Chuu;
#TITLETRANSLIT:Heart Attack;
#SUBTITLETRANSLIT:;
#ARTISTTRANSLIT:LOONA/Chuu;
#GENRE:K-POP;
#ORIGIN:;
#CREDIT:SAIKIO;
#BANNER:Heart Attack-banner.png;
#BACKGROUND:bg.png;
#PREVIEWVID:;
#JACKET:Heart Attack-jacket.png;
#CDIMAGE:;
#DISCIMAGE:;
#LYRICSPATH:;
#CDTITLE:Saikio Simfiles.png;
#MUSIC:Heart Attack.ogg;
#OFFSET:0.100000;
#SAMPLESTART:44.395000;
#SAMPLELENGTH:17.360001;
#SELECTABLE:YES;
#DISPLAYBPM:99.000000;
#BPMS:0.000=99.000;
#STOPS:;
#DELAYS:;
#WARPS:;
#TIMESIGNATURES:0.000=4=4;
#TICKCOUNTS:0.000=4;
#COMBOS:0.000=1;
#SPEEDS:0.000=1.000=0.000=0;
#SCROLLS:0.000=1.000;
#FAKES:;
#LABELS:0.000=Song Start;
#BGCHANGES:0.000=Heart Attack.avi=1.000=0=0=0=StretchNoLoop====,
99999=-nosongbg-=1.000=0=0=0 // don't automatically add -songbackground-
;
#KEYSOUNDS:;
#ATTACKS:
;

//---------------dance-single - ----------------
#NOTEDATA:;
#CHARTNAME:;
#STEPSTYPE:dance-single;
#DESCRIPTION:;
#CHARTSTYLE:;
#DIFFICULTY:Beginner;
#METER:2;
#RADARVALUES:0.129048,0.159369,0.007344,0.000000,0.000000,123.000000,122.000000,1.000000,0.000000,0.000000,0.000000,0.000000,0.000000,0.000000,0.129048,0.159369,0.007344,0.000000,0.000000,123.000000,122.000000,1.000000,0.000000,0.000000,0.000000,0.000000,0.000000,0.000000;
#CREDIT:;
#DISPLAYBPM:99.000000;
#NOTES:
0000
0000
0000
0000
,
0000
0000
0000
0000
,
0000
0000
0001
0001
,
0000
0001
0001
0000
,
0000
0000
0010
0010
,
0000
0010
0010
0000
,
0100
0000
0000
0000
,
0000
0010
0000
1000
,
0000
0010
0010
0010
,
0000
0100
0100
0100
,
0000
0001
0000
1000
,
0000
0001
0000
0100
,
0000
0001
0001
0001
,
0000
1000
1000
1000
,
0000
0001
0000
0100
,
0000
1000
0000
0100
,
0000
0010
0000
0010
,
0000
0100
0000
0000
,
0000
0010
0010
1000
,
0000
0100
0100
0001
,
0000
0001
0001
0100
,
0000
1000
1000
0010
,
0000
0001
0100
0001
,
0000
0010
1000
0010
,
0000
0001
1000
0001
,
0100
0100
0000
0000
,
0000
0000
0001
0000
,
0010
0000
0100
0000
,
1000
0000
0100
0000
,
0100
0000
1000
0001
,
1000
0000
0010
0000
,
1000
0000
0100
0000
,
0010
0000
0001
0000
,
0010
0000
0010
0000
,
0000
1000
0000
0000
,
0000
0001
0000
0000
,
0000
0100
0000
0000
,
0000
0010
0000
0000
,
0000
0000
0000
0000
,
0000
0000
0100
1000
,
0100
0000
0010
0001
,
0010
0000
1000
0100
,
0001
0000
0001
0010
,
1000
0000
1000
0100
,
1000
1000
0100
0000
,
0010
0001
0001
0100
,
0001
0010
0000
0100
,
0000
0000
1000
0001
,
1000
0000
0010
0100
,
0010
0000
1000
0100
,
0001
0000
0001
0010
,
1000
0000
0001
0000
,
0001
0000
0010
0100
,
0000
0001
0001
1000
,
1000
1001
0000
0000
;

//---------------dance-single - ----------------
#NOTEDATA:;
#CHARTNAME:;
#STEPSTYPE:dance-single;
#DESCRIPTION:;
#CHARTSTYLE:;
#DIFFICULTY:Easy;
#METER:5;
#RADARVALUES:0.174162,0.240155,0.029377,0.110163,0.000000,166.000000,162.000000,4.000000,15.000000,0.000000,0.000000,0.000000,0.000000,0.000000,0.174162,0.240155,0.029377,0.110163,0.000000,166.000000,162.000000,4.000000,15.000000,0.000000,0.000000,0.000000,0.000000,0.000000;
#CREDIT:;
#DISPLAYBPM:99.000000;
#NOTES:
0000
0000
0000
0000
,
0000
0000
0000
0000
,
0000
0000
0001
0001
,
0000
0001
0001
0200
,
0300
1000
0010
0010
,
0000
0010
0010
0200
,
0300
0010
0000
0000
,
0000
0001
0000
0100
,
0000
1000
1000
0100
,
1000
0010
0010
0001
,
0010
0000
0010
0100
,
0001
0100
0100
0010
,
0000
1000
1000
0001
,
1000
0010
0010
0100
,
0010
2000
3000
0200
,
0300
0010
0100
0001
,
0000
0001
0100
1000
,
0000
0200
0000
0300
,
0010
0000
0001
0100
,
1000
0010
1000
0100
,
0001
0010
0001
0100
,
1000
0010
1000
0100
,
0001
0010
0010
0100
,
0100
0001
1000
0001
,
0010
2000
3100
0010
,
0001
0200
0300
0000
,
0000
0010
0010
1000
,
0000
0001
0001
0100
,
0000
0010
0010
0001
,
0100
0000
0100
1000
,
0100
0010
0010
1000
,
0001
1000
1000
0001
,
0100
0001
0001
0100
,
0010
2000
3000
0100
,
0000
0002
0000
0000
,
0003
0020
0000
0000
,
0030
2000
0000
0000
,
3000
0200
0000
0000
,
0300
0000
0000
0000
,
0000
0000
0001
0100
,
1000
0010
0001
0100
,
1000
0010
0100
1000
,
0100
0010
0001
1000
,
0100
0010
0010
0100
,
0100
0001
0100
0010
,
1000
0001
0001
1000
,
1000
0020
0030
0200
,
0300
0000
0100
1000
,
0001
0110
0010
0100
,
0001
1001
0100
1000
,
0010
0011
0100
0010
,
1000
1100
0010
0010
,
0100
0001
0100
0010
,
0100
1000
1000
0001
,
0001
0200
0300
0000
;

//---------------dance-single - ----------------
#NOTEDATA:;
#CHARTNAME:;
#STEPSTYPE:dance-single;
#DESCRIPTION:;
#CHARTSTYLE:;
#DIFFICULTY:Medium;
#METER:9;
#RADARVALUES:0.282227,0.323144,0.161572,0.139540,0.003672,269.000000,247.000000,22.000000,19.000000,0.000000,0.000000,0.000000,0.000000,0.000000,0.282227,0.323144,0.161572,0.139540,0.003672,269.000000,247.000000,22.000000,19.000000,0.000000,0.000000,0.000000,0.000000,0.000000;
#CREDIT:;
#DISPLAYBPM:99.000000;
#NOTES:
0000
0000
0000
0000
,
0000
0000
0000
0000
,
0000
0000
0000
0000
0001
0000
0001
1000
,
0001
0000
0001
0000
0001
1000
0001
0000
,
1000
0000
0100
0000
0010
0000
0010
0100
,
0010
0010
0010
0200
,
0300
1001
0000
0000
,
0000
0000
0100
0000
0100
0001
0100
0000
,
0010
0000
1000
1000
0010
0000
0100
0100
,
0001
0000
1000
0001
1000
0001
1000
0000
,
0010
0000
0001
0000
0001
0000
0001
1000
,
0010
0000
0100
0000
0001
0010
0001
0000
,
0010
0000
1010
0000
0100
0000
0001
0100
,
0000
0010
1000
0100
1000
0000
0010
0000
,
0100
0002
0103
2000
,
3100
0002
1003
0010
,
0100
0000
0001
0100
0010
0000
1000
0000
,
0010
0010
0200
0000
0000
0000
0300
0000
,
0010
0000
0000
0100
0100
0010
0100
0000
,
0001
0000
1000
0001
0100
0001
1010
0000
,
1010
0000
0001
1000
0100
1000
0010
0000
,
0100
0000
0001
0010
0001
0100
0010
0000
,
0100
0000
0100
0000
1000
1000
0010
0000
,
0100
0000
0001
0100
1000
0000
0010
0000
,
0100
0000
1000
1000
0100
0100
0001
0001
,
0100
0000
0020
0000
0000
0030
0000
0000
,
0000
0000
1000
0000
1000
0000
0001
0100
,
0010
0000
0001
0000
0001
0000
0010
0100
,
1000
0000
0100
0010
0100
0000
0001
0000
,
1000
0000
0010
0000
1000
0100
1000
0001
,
1000
0000
0020
0000
0130
0000
0001
1000
,
0100
0000
2000
0000
3001
0000
0010
1000
,
0001
0000
0010
0000
0100
0000
0010
1000
,
0001
0000
1010
1010
0000
0000
0101
0101
,
0000
2000
0000
3020
,
0000
0032
0000
0203
,
0000
2300
0000
3200
,
0000
0302
0000
0023
,
0000
0030
0000
0000
,
0000
0000
1000
0010
0010
0001
0010
0000
,
1000
0000
0100
0001
0010
0010
1100
0000
,
0101
0000
0010
1000
0100
1000
0100
0000
,
0010
0000
0100
0001
1000
0001
0100
0000
,
0011
0000
1010
0000
0001
0100
1000
0000
,
0010
0000
1000
0000
1000
0010
0001
0000
,
0100
0000
1010
1010
0100
0001
0001
0100
,
0010
0000
0020
0000
0000
0130
0200
0000
,
0300
0000
0000
0100
1000
0100
0010
0000
,
1001
0000
0001
0100
1000
0010
0100
0000
,
0110
0000
0001
0100
1000
0100
0010
0000
,
1100
0000
0010
0001
0010
1000
0100
0000
,
1001
0000
0001
0010
0100
0000
0010
1000
,
0100
0000
0001
1000
0010
0000
0100
0000
,
0010
0000
0101
0101
1000
0010
0100
0010
,
0000
0000
0000
0000
0101
0000
1100
0000
0000
0000
0000
0200
0000
0000
0000
0000
,
0300
0000
0000
0000
;

//---------------dance-single - ----------------
#NOTEDATA:;
#CHARTNAME:;
#STEPSTYPE:dance-single;
#DESCRIPTION:;
#CHARTSTYLE:;
#DIFFICULTY:Hard;
#METER:12;
#RADARVALUES:0.393439,0.403931,0.227670,0.110163,0.235014,375.000000,344.000000,31.000000,15.000000,0.000000,0.000000,0.000000,0.000000,0.000000,0.393439,0.403931,0.227670,0.110163,0.235014,375.000000,344.000000,31.000000,15.000000,0.000000,0.000000,0.000000,0.000000,0.000000;
#CREDIT:;
#DISPLAYBPM:99.000000;
#NOTES:
0000
0000
0000
0000
,
0000
0000
0000
0000
,
0000
0000
0000
0000
0001
0000
0000
0000
0001
0000
0100
0000
0001
0000
0100
0001
,
0000
0000
0100
0000
0001
0000
0100
0000
0010
0000
0001
0100
0000
0000
0000
0000
,
0000
0000
0100
0000
0100
0000
0000
0000
0010
0000
0001
0000
0010
0000
0001
0100
,
0000
0000
0010
0000
0001
0000
0010
0000
0001
0000
0010
1000
0010
1000
0010
0000
,
0000
1001
0000
0000
,
1000
0000
1000
1000
0001
0000
0100
0001
,
0010
0000
0000
0000
1100
0000
0001
0000
0100
0000
0001
0000
0100
0000
0100
0010
,
0000
0000
1000
0000
0011
0000
1000
0000
0010
0000
1000
0000
0010
0100
0000
0001
,
0000
0000
0010
1000
0100
0001
0010
0001
,
0100
1000
1000
0010
0100
0100
0010
1000
,
0001
0000
0100
0000
1010
0000
0100
0000
1100
0000
0010
0000
0001
0000
1000
0001
,
0000
0000
0100
0000
0010
0000
0010
0000
1000
0000
0100
0000
0001
0000
1000
0010
,
0000
0000
1000
0000
1000
0100
0000
1000
0010
0000
0100
0000
0001
0100
0000
0001
,
0100
0000
0010
0000
1000
0000
0001
0000
1000
0100
1000
0010
0000
0000
0000
0000
,
1000
0000
0000
0000
0001
0000
0001
0000
1000
0000
1000
0000
0010
0100
0000
0001
,
0000
0100
0000
0020
0000
0000
0000
0000
0000
0000
0000
0000
0030
0000
0000
0000
,
1001
0000
0000
0000
0000
0000
1000
0000
1000
0000
0100
0000
0001
0000
0100
0010
,
0000
1000
0000
0101
0000
0000
0001
0000
0100
0000
0010
0000
0011
0000
0000
1100
,
0000
0001
0000
0100
0000
0000
0010
0000
0010
0000
1000
0000
0010
0000
0001
0100
,
0000
0010
0000
0010
0000
0000
0001
0000
0001
0000
1000
0000
0100
0000
0000
0101
,
0000
1010
0000
0100
0000
0000
0001
0000
0010
0000
0100
0000
1000
0000
0001
1000
,
0000
0000
0100
0000
0010
0000
1000
0000
0001
0000
0001
0100
0000
0000
1000
0000
,
0010
0100
0000
0000
0100
0000
0110
0000
0010
0000
1001
0000
0100
0000
0001
0000
,
1000
0000
0010
0000
0001
0000
0101
0000
0000
0000
0000
0110
0000
0000
0000
0000
,
0000
0000
0100
0010
0100
0001
0100
1000
,
0100
0000
0010
0100
0001
0100
0010
1000
,
0001
0000
0100
0100
0010
1000
0100
0010
,
1000
0000
1000
0000
0200
0310
0020
0031
,
0200
0300
0001
1000
0100
0001
0010
0100
,
0010
0000
0001
0001
0100
1000
0010
1000
,
0100
0000
1000
1000
0001
0010
0100
0001
,
0100
0000
1010
1001
0000
0000
1100
0101
,
0000
0000
0002
0000
0000
0013
2000
0000
,
0000
0000
3200
0000
0000
0310
2000
0000
,
0000
0000
3002
0000
0000
0103
2000
0000
,
0000
3020
0000
0031
,
0010
0200
0000
0000
0000
0300
0000
0000
,
0000
0000
0000
0000
0010
0000
0001
0000
1000
0000
0100
0000
0100
0000
0010
1000
,
0000
0100
0000
1010
0000
0000
0100
0000
1000
0000
0010
0000
0100
0000
0010
0001
,
0000
0100
0000
1001
0000
0000
0010
0000
0100
0000
1000
0000
0001
0000
0100
1000
,
0000
0010
0000
1001
0000
0000
0100
0000
0010
0000
0001
0000
0010
0000
0000
1000
,
0000
0100
0000
0011
0000
0000
1000
0000
1000
0000
0001
0000
0001
0000
0010
1000
,
0000
0000
1000
0100
0001
0100
0100
0010
,
0001
1000
0000
0000
0101
0000
0010
0000
1000
0000
0101
0000
0010
0000
1000
0000
,
0001
0100
0020
0000
0000
1030
0200
0000
,
0300
0000
0000
0000
0000
0000
1000
0000
1001
0000
0100
0000
0010
0000
1000
0100
,
0000
0001
0000
0100
0000
0000
0011
0000
0100
0000
1000
0000
0010
0000
0100
0001
,
0000
0010
0000
0001
0000
0000
1100
0000
0010
0000
1000
0000
0010
0000
0001
1000
,
0000
0001
0000
1000
0000
0000
1010
0000
0100
0000
1000
0000
0001
0000
0010
1000
,
0000
0001
0000
0100
0000
0000
0001
0000
0100
0000
1000
0000
0100
0000
0010
0001
,
0000
0010
1000
1000
0100
0001
0100
0000
,
0010
0000
0100
0100
0010
0010
1000
0001
,
0100
0000
0010
0000
1100
0000
0011
0000
0000
0000
0000
0020
0000
0000
0000
0000
,
0030
0000
0000
0000
;

//---------------dance-single - ----------------
#NOTEDATA:;
#CHARTNAME:;
#STEPSTYPE:dance-single;
#DESCRIPTION:;
#CHARTSTYLE:;
#DIFFICULTY:Challenge;
#METER:13;
#RADARVALUES:0.460586,0.547785,0.800517,0.176261,0.205637,439.000000,330.000000,109.000000,24.000000,156.000000,0.000000,0.000000,0.000000,0.000000,0.460586,0.547785,0.800517,0.176261,0.205637,439.000000,330.000000,109.000000,24.000000,156.000000,0.000000,0.000000,0.000000,0.000000;
#CREDIT:;
#DISPLAYBPM:99.000000;
#NOTES:
0000
0000
0000
0000
,
0000
0000
0000
0000
,
0000
0000
0000
0000
0000
0000
0000
0000
0001
0000
0001
0000
0010
0000
0100
0001
,
0000
0000
0000
0000
0001
0000
0001
0000
0010
0000
0100
0001
0000
0000
0000
1100
,
0000
0000
0010
0000
0101
0000
0000
0000
0010
0000
0100
0000
0010
0000
0001
0100
,
0000
0000
0000
0000
0010
0000
0001
0000
0100
0000
0010
1000
0010
0100
0001
0000
,
0110
2002
0000
0000
,
3003
0000
0010
0100
1000
0100
0010
0001
,
0100
0000
0000
0000
1010
0000
0000
0000
0101
0000
0000
0000
1100
0000
0000
0011
,
0000
0000
0100
0000
0010
0000
0001
0000
0100
0000
1000
0000
0010
1000
0000
0200
,
0000
0000
1300
0000
0010
0000
0000
0000
0101
0000
0000
0000
1010
0000
0000
0100
,
0000
0000
0010
0000
0101
0000
0000
0000
1100
0000
0000
0000
1010
0000
0000
1001
,
0000
0000
0010
0000
0200
0000
0000
0000
0301
0000
0000
0000
1000
0000
0100
0010
,
0000
0000
0001
0000
0100
0000
0100
0000
1000
0000
1000
0000
0010
0000
0010
0100
,
0000
0000
0001
0000
0100
0010
0000
1000
0010
0000
0100
0000
0001
1000
0000
0100
,
0001
0000
0010
0000
1000
0000
0010
0000
0001
1000
0001
0100
0000
0000
0000
0000
,
0101
0000
0000
0000
1000
0000
0100
0000
0001
0000
0100
0000
0010
1000
0000
0001
,
0000
0010
0000
0200
0000
0000
0000
0000
0000
0000
0000
0000
0000
0000
0000
0300
,
0110
0000
0000
0000
0001
0000
MMMM
0000
1100
0000
MMMM
0000
0011
0000
MMMM
0110
,
MMMM
0000
1100
0000
1001
0000
MMMM
0000
0100
0000
MMMM
0000
0011
0000
MMMM
1010
,
MMMM
0000
1001
0000
1100
0000
MMMM
0000
0010
0000
MMMM
0000
0101
0000
MMMM
0011
,
MMMM
0000
1010
0000
1100
0000
MMMM
0000
1000
0000
MMMM
0000
0011
0000
MMMM
0110
,
MMMM
0000
0110
0000
1100
0000
0010
0000
1000
0000
1000
0000
0010
0000
0010
0100
,
0000
0001
0100
0010
1000
1000
0001
0100
,
0010
0000
1001
1001
1010
1010
0101
0101
,
0010
0000
1000
0000
0110
0000
0110
0000
0000
0000
MMMM
0110
MMMM
0000
MMMM
0000
,
MMMM
MMMM
0001
0001
0100
0010
0100
0001
,
1000
0100
1000
0010
0001
0100
1000
0001
,
0100
0010
0100
0100
1000
1000
0001
0010
,
1000
0100
0010
0000
0010
0100
0101
0010
,
1010
0000
0000
0000
0202
0000
0000
0303
1010
0000
0000
0000
1100
0000
0000
0110
,
0000
0000
1001
0000
2020
0000
0000
3030
0110
0000
0000
0000
0011
0000
0000
0110
,
0000
0000
0000
0000
0000
0000
0101
0000
0000
0000
0000
0000
0022
0000
0000
0000
0000
0000
0000
0000
0033
0000
0000
0000
1100
0000
0000
0000
0000
0000
0000
0000
0000
0000
0000
0000
1001
0000
0000
0000
0000
0000
0000
0000
0000
1001
0000
0000
,
0000
0010
0101
1100
0000
0000
1010
0011
,
0000
0000
0200
0000
0000
0010
0302
0000
,
0000
0000
0023
0000
0000
0100
2030
0000
,
0000
0000
3020
0000
0000
1000
0032
0000
,
0000
0000
0203
0000
0000
0001
2300
0000
,
3010
0020
0000
0000
0030
0000
0000
0000
,
0000
0000
0000
0000
2020
0000
3030
MMMM
1100
0000
MMMM
0000
1001
0000
MMMM
0011
,
0000
MMMM
0110
0000
1001
0000
0100
0000
1000
0000
0010
0000
1010
0000
MMMM
1001
,
0000
MMMM
1100
0000
1001
0000
0010
0000
1000
0000
0100
0000
0011
0000
MMMM
0110
,
0000
MMMM
1100
0000
0010
0000
1000
0000
0001
0000
0100
0000
0011
0000
MMMM
1100
,
0000
MMMM
0011
0000
0110
0000
0100
0000
1000
0000
0100
0000
0010
0000
0010
0100
,
0000
1000
0100
0001
0010
0100
0010
1000
,
0001
1000
0101
0101
1100
1100
0010
1000
,
0100
0000
0001
0100
0010
0001
0010
1000
0010
0000
1000
0100
0001
0100
1000
0010
,
1000
0000
0001
0000
1000
0000
0100
0000
1010
0000
0001
0000
1100
0000
MMMM
1001
,
MMMM
0000
0011
0000
0101
0000
1000
0000
0100
0000
1000
0000
1010
0000
0001
1100
,
0000
0000
1001
0000
0011
0000
0100
0000
0001
0000
1000
0000
1010
MMMM
0000
0101
,
MMMM
0000
1100
0000
1001
0000
0100
0000
0010
0000
0100
0000
0011
0000
1000
0011
,
0000
0000
0010
0000
0101
0000
0100
0000
0010
0000
1000
0000
0100
0000
0100
1000
,
0000
0010
0100
0001
0100
0100
0010
1000
,
0100
1000
0011
0101
0110
1100
1001
0011
,
0110
0000
1100
0000
2002
0000
0000
0000
0000
0000
3003
0110
MMMM
0000
MMMM
0000
,
MMMM
0000
MMMM
0100
0010
0000
0000
0000
0000
0000
0000
0000
0000
0000
0000
0000
;

//---------------dance-double - ----------------
#NOTEDATA:;
#CHARTNAME:;
#STEPSTYPE:dance-double;
#DESCRIPTION:;
#CHARTSTYLE:;
#DIFFICULTY:Easy;
#METER:6;
#RADARVALUES:0.198293,0.280181,0.117507,0.124851,0.000000,189.000000,173.000000,16.000000,17.000000,0.000000,0.000000,0.000000,0.000000,0.000000,0.198293,0.280181,0.117507,0.124851,0.000000,189.000000,173.000000,16.000000,17.000000,0.000000,0.000000,0.000000,0.000000,0.000000;
#CREDIT:;
#DISPLAYBPM:99.000000;
#NOTES:
00000000
00000000
00000000
00000000
,
00000000
00000000
00000000
00000000
,
00000000
00000000
00010000
00001000
,
00000100
00010000
00001000
00000100
,
00000000
00000000
00001000
00000100
,
00000001
00001000
00000100
00000001
,
00001001
00000000
00000000
00000000
,
00000000
00001000
00010000
00100000
,
00000000
10000000
00010000
01000000
,
01000000
00100000
00010000
00001000
,
00001000
00000100
00000010
00000100
,
00000100
00000010
00001000
00000100
,
00000100
00000001
00000100
00001000
,
00010000
00100000
00010000
01000000
,
10000000
00200000
00300000
00020000
,
00030000
00002000
00003000
00000100
,
00000000
00000010
00000001
00000100
,
00000010
00000200
00000000
00000300
,
00000000
00010000
01000000
10000000
,
10000000
00100000
00010000
00011000
,
00010000
00001000
00000100
00000001
,
00000001
00000010
00000100
00001000
,
00011000
00001000
00010000
00100000
,
00000000
10000000
01000000
00100000
,
00010000
00001000
00001000
00010000
,
00010000
00002000
00003000
00000100
,
00000000
00000010
00000001
00000100
,
00001000
00010000
00100000
01000000
,
10000000
01000000
00010000
00100000
,
00010000
00000000
01000000
01010000
,
00010000
00001000
00000100
00000010
,
00000001
00000100
00000010
00001000
,
00000100
00000100
00000001
00000100
,
00001000
00011000
00000000
00110000
,
00000000
20000000
30000000
02000000
,
03000000
00020000
00030000
00002000
,
00003000
00000020
00000030
00000002
,
00000003
00000200
00000300
00010000
,
00020000
00030000
00000000
00000000
,
00000000
00000000
10000000
00010000
,
01000000
01000000
00100000
00011000
,
00000100
00001000
00000010
00000001
,
00000100
00001000
00010000
00100000
,
01100000
01000000
00010000
01000000
,
00100000
10000000
10000000
00020000
,
00030000
00001000
00010000
00001000
,
00000100
00000020
00000030
00000200
,
00000300
00000001
00000100
00011000
,
00011000
00100000
00010000
01010000
,
00110000
10000000
00010000
00110000
,
00011000
00000100
00001000
00000110
,
00000011
00000100
00010000
00010000
,
00100000
01000000
01000000
00010000
,
00001000
00000010
00000010
00000100
,
00000100
00000002
00000003
00000000
;

//---------------dance-double - ----------------
#NOTEDATA:;
#CHARTNAME:;
#STEPSTYPE:dance-double;
#DESCRIPTION:;
#CHARTSTYLE:;
#DIFFICULTY:Medium;
#METER:9;
#RADARVALUES:0.259145,0.323144,0.168916,0.095475,0.000000,247.000000,224.000000,23.000000,13.000000,0.000000,0.000000,0.000000,0.000000,0.000000,0.259145,0.323144,0.168916,0.095475,0.000000,247.000000,224.000000,23.000000,13.000000,0.000000,0.000000,0.000000,0.000000,0.000000;
#CREDIT:;
#DISPLAYBPM:99.000000;
#NOTES:
00000000
00000000
00000000
00000000
,
00000000
00000000
00000000
00000000
,
00000000
00000000
00000000
00000000
00010000
00000000
00001000
00000100
,
00000000
00000000
00010000
00000000
00001000
00000100
00000000
00000000
,
00000000
00000000
00000100
00000000
00001000
00000000
00000100
00000001
,
00000000
00000000
00001000
00000000
00000100
00000001
00000000
00000000
,
00001001
00000010
00000000
00000000
,
00000000
00010000
00100000
00010000
,
00000000
00000000
01000000
01000000
00010000
00000000
00100000
00000000
,
00001000
00000000
00010000
00001000
00010000
00000000
00000100
00000000
,
00001000
00000000
00000010
00000000
00000001
00000000
00000100
00001000
,
00000100
00001000
00001000
00010000
,
00100000
01010000
01010000
00011000
,
00010000
00000000
00001000
00100000
00010000
00000000
01000000
00000000
,
00010000
00000000
00100000
00010000
00001000
00000000
00001000
00000100
,
00000010
00000100
00001000
00000010
,
00000000
00000001
00000100
00001000
,
00010000
02000000
00000000
03000000
,
00000000
00000000
00010000
00000000
01000000
00000000
10000000
10000000
,
00100000
00000000
00010000
00000000
00001000
00000000
00000110
00001000
,
00000010
00000000
00000001
00000000
00000100
00000000
00010000
00010000
,
00001000
00000000
00100000
00000000
10000000
00000000
00010000
01000000
,
00110000
00000000
01000000
00010000
01000000
00000000
00010000
00000000
,
00001000
00000000
00010000
00001000
00010000
00000000
00000100
00000000
,
00001000
00000000
00001010
00001010
00000100
00000000
00000001
00000000
,
00000100
00000020
00000030
00000000
,
00000000
00000000
00001000
00010000
00100000
00000000
00010000
00000000
,
01000000
00000000
10000000
01000000
00010000
00000000
00100000
00000000
,
00010000
00000000
00010000
00001000
00000100
00000000
00001000
00000000
,
00000100
00000000
00000010
00000000
00000001
00000100
00000001
00000100
,
00000001
00000000
00000010
00000000
00001000
00000000
00010000
00001000
,
00010000
00000000
00100000
00000000
00010000
00000000
01000000
00100000
,
01000000
00000000
00100000
00000000
10000000
00000000
00010000
00100000
,
00010000
00000000
00010100
00010100
00000000
00000000
00001010
00001010
,
00000000
00000020
00000000
00000032
,
00000000
00000203
00000000
00002300
,
00000000
00203000
00000000
20300000
,
00000000
32000000
00000000
03020000
,
00000000
00030000
00000000
00000000
,
00000000
00000000
00100000
00000000
00010000
00000000
01000000
00100000
,
01000000
00000000
00100000
00000000
00001000
00000000
00010000
00001000
,
00010100
00000000
00001000
00000000
00001100
00000000
00000010
00000100
,
00000001
00000000
00000010
00000000
00001100
00000000
00001000
00010000
,
00101000
00000000
01000000
00000000
01000000
00000000
00010000
00100000
,
00001000
00000000
00010000
00000000
00001000
00000000
00001000
00000100
,
00000010
00000000
00001000
00010000
00000100
00010000
00000010
00001000
,
00001000
00000000
00000020
00000000
00000000
00000130
00000200
00000000
,
00000300
00000000
00000001
00000000
00000010
00000000
00000010
00000100
,
00001000
00000000
00010000
00000000
01100000
00000000
01010000
00010000
,
10000000
00000000
00100000
00000000
00101000
00000000
00010000
00001000
,
00000100
00000000
00001010
00000000
00000110
00000000
00001000
00000100
,
00000001
00000000
00001000
00000100
00010000
00000100
00010000
00000000
,
00000100
00000000
00000010
00000100
00001000
00000000
00000100
00000000
,
00000010
00000000
00000001
00000001
00000100
00000100
00000010
00000000
,
00001000
00000000
00011000
00110000
00000000
00000000
02000000
00000000
,
03000000
00000000
00000000
00000000
;

//---------------dance-double - ----------------
#NOTEDATA:;
#CHARTNAME:;
#STEPSTYPE:dance-double;
#DESCRIPTION:;
#CHARTSTYLE:;
#DIFFICULTY:Hard;
#METER:12;
#RADARVALUES:0.379800,0.444324,0.264391,0.110163,0.235014,362.000000,326.000000,36.000000,15.000000,0.000000,0.000000,0.000000,0.000000,0.000000,0.379800,0.444324,0.264391,0.110163,0.235014,362.000000,326.000000,36.000000,15.000000,0.000000,0.000000,0.000000,0.000000,0.000000;
#CREDIT:;
#DISPLAYBPM:99.000000;
#NOTES:
00000000
00000000
00000000
00000000
,
00000000
00000000
00000000
00000000
,
00000000
00000000
00000000
00000000
00000000
00000000
00000000
00000000
00010000
00000000
00000000
00000000
00001000
00000000
00010000
00000100
,
00000000
00000000
00000000
00000000
00010000
00000000
00000000
00000000
00001000
00000000
00010000
00000100
00000000
00000000
00000000
00000000
,
00001000
00000000
00000000
00000000
00000010
00000000
00000000
00000000
00000100
00000000
00000000
00000000
00000001
00000000
00000100
00000001
,
00000000
00000000
00000000
00000000
00000100
00000000
00000000
00000000
00000001
00000000
00000100
00000001
00000000
00000000
00000000
00000000
,
00000110
00001001
00000000
00000000
,
00000000
00010000
00100000
00100000
,
01000000
00000000
00000000
00000000
10000000
00000000
10000000
00000000
00010000
00000000
00100000
00000000
10000000
00000000
00010000
10000000
,
00000000
00000000
00100000
00000000
00010000
00000000
00001000
00000000
00000100
00000000
00001000
00000000
00000010
00000100
00000000
00000010
,
00000000
00000000
00000010
00000001
00000100
00001000
00000100
00000010
,
00000100
00001000
00100000
00001000
01000000
00100000
00010000
00000000
,
01000000
00000000
00000000
00000000
01100000
00000000
00000000
00000000
00110000
00000000
00000000
00000000
10000000
00000000
00100000
10000000
,
00000000
00000000
00010000
00000000
00010000
00000000
00001000
00000000
00001000
00000000
00000100
00000000
00000010
00000000
00000100
00000001
,
00000000
00000010
00000001
00000010
00000100
00001000
00000100
00010000
,
00001000
00010000
00100000
10000000
01000000
00010000
01000000
00000000
,
00010000
00000000
00000000
00000000
00001000
00000000
00010000
00000000
00000100
00000000
00001000
00000000
00000010
00000100
00000000
00000001
,
00000000
00000100
00000000
00000020
00000000
00000000
00000000
00000000
00000000
00000000
00000000
00000000
00000000
00000000
00000030
00000000
,
00000000
00000000
00000000
00000000
00001000
00000000
00010000
00000000
00010000
00000000
00100000
00000000
01000000
00000000
01000000
00010000
,
00000000
01000000
00000000
01010000
00000000
00000000
10000000
00000000
00010000
00000000
10000000
00000000
10010000
00000000
00000000
00010000
,
00000000
01000000
00000000
00010000
00000000
00000000
00100000
00000000
00100000
00000000
00001000
00000000
00000100
00000000
00000100
00000010
,
00000000
00000001
00000000
00000101
00000000
00000000
00000010
00000000
00000100
00000000
00000010
00000000
00000110
00000000
00000000
00000001
,
00000000
00001000
00000000
00000100
00000000
00000000
00000010
00000000
00001000
00000000
00010000
00000000
00100000
00000000
01000000
00100000
,
00000000
10000000
01000000
10000000
00010000
01000000
00010000
01000000
,
00100000
00000000
00010000
00010000
00001000
00001000
00000100
00000010
,
00000100
00000000
00000000
00000000
00001010
00000000
00000101
00000000
00000000
00000000
00000000
00000200
00000000
00000000
00000000
00000000
,
00000300
00000000
00000000
00000000
00000010
00000000
00000100
00000001
00000100
00000000
00001000
00000100
00001000
00000000
00010000
00000000
,
00010000
00000000
00010000
00000000
00000000
00000000
00100000
01000000
00100000
00000000
00010000
10000000
00010000
00000000
00100000
00000000
,
00100000
00000000
00100000
00000000
00000000
00000000
00010000
00001000
00010000
00000000
00000010
00001000
00000010
00000000
00000100
00000000
,
00000100
00000100
00000000
00000000
00000002
00000103
00002000
00003100
,
00000010
00000000
00000000
00000000
00000000
00000000
00000100
00001000
00010000
00000000
00100000
00001000
00010000
00000000
01000000
00000000
,
00100000
00000000
01000000
00000000
00000000
00000000
10000000
00100000
01000000
00000000
00010000
10000000
01000000
00000000
00100000
00000000
,
00010000
00001000
00000000
00000010
00000100
00000001
00000010
00000100
,
00000010
00000000
00010010
00001100
00000000
00000000
00011000
00101000
,
00000000
00020000
00000000
02030000
,
00000000
13000000
00200000
00000000
00000000
00000000
00302000
00000000
,
00000000
00003200
00000000
00000302
,
00000000
00000013
00002000
00000000
00000000
00000000
00023000
00000000
,
00000000
00030000
00000000
00000000
,
00000000
00000000
00000000
00000000
00100000
00000000
10000000
00000000
10000000
00000000
00010000
00000000
00100000
00000000
00010000
01000000
,
00000000
11000000
00000000
00100000
00000000
00000000
00010000
00000000
00010000
00000000
00001000
00000000
00000100
00000000
00001000
00000010
,
00000000
00000100
00000000
00001001
00000000
00000000
00000010
00000000
00000010
00000000
00000001
00000000
00000100
00000000
00000010
00001100
,
00000000
00000100
00000000
00001000
00000000
00000000
00010000
00000000
00010000
00000000
00100000
00000000
01100000
00000000
00000000
10010000
,
00000000
00100000
00000000
01000000
00000000
00000000
00100000
00000000
00010000
00000000
00001000
00000000
00000100
00000000
00010000
00000100
,
00000000
00000010
00001000
00000100
00001000
00000001
00000100
00000000
,
00001000
00000000
01010000
01010000
00101000
00101000
00000100
00001000
,
00000010
00000020
00000000
00000000
00000030
00000001
00000200
00000000
,
00000300
00000000
00000000
00000000
00000001
00000000
00000011
00000000
00000011
00000000
00001000
00000000
00000010
00000000
00001000
00000100
,
00000000
00010100
00000000
00001000
00000000
00000000
00100000
00000000
01100000
00000000
01100000
00000000
00010000
00000000
00000000
00100000
,
00000000
10000000
00000000
11000000
00000000
00000000
00010000
00000000
00011000
00000000
00011000
00000000
00000100
00000000
00000010
00000001
,
00000000
00000010
00000000
00000101
00000000
00000000
00000010
00000000
00001000
00000000
00000100
00000000
00001010
00000000
00000000
00010100
,
00000000
00010000
00000000
00001000
00000000
00000000
00010000
00000000
00100000
00000000
01000000
00000000
10000000
00000000
10000000
01000000
,
00000000
00100000
00010000
00100000
00001000
00010000
00001000
00000010
,
00000100
00000000
00010000
00010000
00000100
00000100
00001000
00000010
,
00000100
00000000
00000000
00000000
00001010
00000000
00011000
00000000
00000000
00000000
00000000
00200000
00000000
00000000
00000000
00000000
,
00300000
00000000
00000000
00000000
;

//---------------dance-double - ----------------
#NOTEDATA:;
#CHARTNAME:;
#STEPSTYPE:dance-double;
#DESCRIPTION:;
#CHARTSTYLE:;
#DIFFICULTY:Challenge;
#METER:13;
#RADARVALUES:0.430160,0.486920,0.602224,0.132195,0.198293,410.000000,328.000000,82.000000,18.000000,188.000000,0.000000,0.000000,0.000000,0.000000,0.430160,0.486920,0.602224,0.132195,0.198293,410.000000,328.000000,82.000000,18.000000,188.000000,0.000000,0.000000,0.000000,0.000000;
#CREDIT:;
#DISPLAYBPM:99.000000;
#NOTES:
// measure 0
00000000
00000000
00000000
00000000
,  // measure 1
00000000
00000000
00000000
00000000
,  // measure 2
00000000
00000000
00000000
00000000
00000000
00000000
00000000
00000000
00001000
00000000
00000100
00000000
00000010
00000000
00000001
00000010
,  // measure 3
00000000
00000000
00000000
00000000
00001000
00000000
00000010
00000000
00000001
00000000
00000100
00000001
00000000
00000000
00000000
00001100
,  // measure 4
00000000
00000000
00000010
00000000
00000100
00000000
00000000
00000000
00010000
00000000
00001000
00000000
00000010
00000000
00000100
00000001
,  // measure 5
00000000
00000000
00000000
00000000
00000100
00000000
00010000
00000000
00000100
00000000
00001000
00010000
00001000
00010000
00001000
00000000
,  // measure 6
00101000
00022000
00000000
00000000
,  // measure 7
00033000
00000000
00100000
00010000
00001000
00000100
00000010
00000000
,  // measure 8
00000001
00000000
00000010
00000000
00001010
00000000
00000000
00000000
00001100
00000000
00000000
00000000
00000101
00000000
00000000
00000101
,  // measure 9
00000000
00000000
00000010
00000000
00001000
00000000
00010000
00000000
00001000
00000000
00010000
00000000
00100000
00010000
00000000
01000000
,  // measure 10
00000000
00000000
00100000
00000000
01010000
00000000
00000000
00000000
00110000
00000000
00000000
00000000
00010000
00000000
00000000
01100000
,  // measure 11
00000000
11000000
00010000
00100000
00010000
01000000
10000000
00000000
,  // measure 12
00100000
00000000
00010000
00000000
00110000
00000000
00000000
00000000
00011000
00000000
00000000
00000000
00001100
00000000
00000100
00000010
,  // measure 13
00000000
00000000
00000001
00000000
00001000
00000000
00000010
00000000
00000100
00000000
00001000
00000000
00010000
00000000
00001000
00010000
,  // measure 14
00000000
00000000
00100000
00000000
00010000
00100000
00000000
00010000
00100000
00000000
00001000
00000000
00010000
00001000
00000000
00010000
,  // measure 15
00001000
00000100
00001000
00000100
00000010
00000001
00000100
00000000
,  // measure 16
00000110
00000000
00000010
00000100
00001000
00010000
00100000
00010000
,  // measure 17
01000000
00100000
20000000
00000000
00000000
00000000
00000000
00000000
,  // measure 18
30100000
00000000
00000000
00000000
00011000
00000000
MMMMMMMM
00000000
00001000
00000000
0000MMMM
00000000
00000110
00000000
00000000
00000010
,  // measure 19
0000MMMM
00000000
00000101
00000000
00001000
00000000
0000MMMM
00000000
00110000
00000000
MMMM0000
00000000
01000000
00000000
00000000
11000000
,  // measure 20
MMMM0000
00000000
10010000
00000000
01001000
00000000
0000MMMM
00000000
00001000
00000000
MMMM0000
00000000
00010100
00000000
0000MMMM
00001000
,  // measure 21
00000000
00000000
00000110
00000000
00000010
00000000
0000MMMM
00000000
00001001
00000000
0000MMMM
00000000
00001100
00000000
00000000
00000110
,  // measure 22
0000MMMM
00000000
00011000
00000000
00010000
00000000
01000000
00000000
00100000
00000000
00010000
00000000
00100000
00000000
00010000
00001000
,  // measure 23
00000000
00000100
00000010
00000100
00001000
00001000
00000010
00000100
,  // measure 24
00000001
00000000
00001100
00001100
00011000
00011000
01100000
01100000
,  // measure 25
10000000
00000000
01000000
00000000
10010000
00000000
10010000
00000000
00000000
00000000
MMMMMMMM
01100000
MMMMMMMM
00000000
MMMMMMMM
00000000
,  // measure 26
MMMMMMMM
00000000
MMMMMMMM
00000000
00010000
00000000
00001000
00000000
00010000
00000000
00001000
00000000
00001100
00000000
00000000
00000010
,  // measure 27
00000000
00000000
00001000
00000000
00000100
00000000
00000010
00000000
00000001
00000000
00001000
00000000
00001010
00000000
00000000
00001100
,  // measure 28
00000000
00000000
00000101
00000000
00000010
00000000
00001000
00000000
00010000
00000000
00100000
00000000
01010000
00000000
00000000
10000000
,  // measure 29
00000000
10000000
00010000
00000000
00100000
00100000
00010000
00010000
,  // measure 30
00001000
00000000
00000100
00000000
00001010
00000000
00000000
00000000
00000100
00000000
00001000
00000000
00001010
00000000
00000000
00000101
,  // measure 31
00000000
00000000
00000010
00000000
00001000
00000000
00000100
00000000
00010000
00000000
00100000
00000000
00110000
00000000
00000000
10010000
,  // measure 32
00000000
00100000
00010000
00001000
00010000
01000000
10000000
00100000
,  // measure 33
00010000
01000000
00100000
00100000
00000000
00000000
00010000
00010000
,  // measure 34
00000000
00000000
00000200
00000000
00000000
00000310
00002000
00000000
,  // measure 35
00000000
00000000
00003200
00000000
00000000
00000310
00000002
00000000
,  // measure 36
00000000
00000003
00002000
00000000
00000000
00103000
02000000
00000000
,  // measure 37
00000000
00000000
23000000
00000000
00000000
30100000
00020000
00000000
,  // measure 38
01000000
02030000
00000000
00000000
03000000
00000000
00000000
00000000
,  // measure 39
00000000
00000000
00000000
00000000
20200000
00000000
30300000
MMMM0000
01010000
00000000
MMMM0000
00000000
00011000
00000000
0000MMMM
00001100
,  // measure 40
00000000
0000MMMM
00000110
00000000
00001001
00000000
00000100
00000000
00010000
00000000
00000100
00000000
00011000
00000000
MMMM0000
00011000
,  // measure 41
00000000
MMMM0000
00110000
00000000
01100000
00000000
10000000
00000000
00100000
00000000
01000000
00000000
00011000
00000000
0000MMMM
00010100
,  // measure 42
00000000
0000MMMM
00001010
00000000
00000100
00000000
00001000
00000000
00000100
00000000
00000010
00000000
00001001
00000000
MMMM0000
00011000
,  // measure 43
00000000
MMMM0000
00110000
00000000
01100000
00000000
00100000
00000000
00001000
00000000
00001000
00000000
00000100
00000000
00000010
00000100
,  // measure 44
00000000
00000001
00000100
00001000
00100000
01000000
00100000
10000000
,  // measure 45
00010000
10000000
00000000
00000000
00110000
00000000
00110000
00000000
00010100
00000000
00001000
00000000
00000100
00000000
00000010
00000000
,  // measure 46
00000100
00000000
00000001
00000000
00000200
00000000
00000000
00000000
00000300
00000000
00000010
00001000
00000010
00001000
00000110
00000000
,  // measure 47
00000101
00000000
00001000
00000000
00000200
00000000
00000000
00000000
00010300
00000000
00010000
00000000
01000000
00000000
01000000
00010000
,  // measure 48
00000000
00100000
00000000
01000000
MMMM0000
00000000
00010000
00000000
01000000
00000000
00010000
00000000
00011000
00000000
0000MMMM
00010100
,  // measure 49
00000000
0000MMMM
00000110
00000000
00001100
00000000
00001000
00000000
00010000
00000000
00001000
00000000
00000010
00000000
00010000
00001000
,  // measure 50
00000000
00001000
00000000
00100000
MMMM0000
00000000
01000000
00000000
00100000
00000000
01000000
00000000
10100000
00000000
MMMM0000
01100000
,  // measure 51
00000000
MMMM0000
10010000
00000000
00011000
00000000
00001000
00000000
00000010
00000000
00000010
00000000
00000001
00000000
00000001
00000100
,  // measure 52
00000000
00001000
00000100
00000010
00001000
00010000
00000100
00001000
,  // measure 53
00100000
01000000
00000000
00000000
10100000
00000000
00010000
00000000
00101000
00000000
00001000
00000000
00000100
00000000
00001010
00000000
,  // measure 54
00000010
00000000
00000101
00000000
00022000
00000000
00000000
00000000
00000000
00000000
00033000
00000100
MMMMMMMM
00000000
MMMMMMMM
00000000
,  // measure 55
MMMMMMMM
00000000
MMMMMMMM
00010000
00000100
00000000
00000000
00000000
00000000
00000000
00000000
00000000
00000000
00000000
00000000
00000000
;
