#TITLE:はんなり京小町;
#SUBTITLE:;
#ARTIST:DJ KOMACHI feat.あず;
#TITLETRANSLIT:Hannari kyoukomachi;
#SUBTITLETRANSLIT:;
#ARTISTTRANSLIT:DJ KOMACHI feat. azu;
#GENRE:pop'n music;
#CREDIT:SAIKIO;
#BANNER:Hannari kyoukomachi-banner.png;
#BACKGROUND:Hannari kyoukomachi-bg.png;
#LYRICSPATH:;
#CDTITLE:popnmusic.png;
#MUSIC:Hannari kyoukomachi.ogg;
#OFFSET:-0.176000;
#SAMPLESTART:62.684010;
#SAMPLELENGTH:13.160027;
#SELECTABLE:YES;
#BPMS:0.000000=108.000000
;
#STOPS:
;
#BGCHANGES:;
#KEYSOUNDS:;
#ATTACKS:;

//---------------dance-single - ----------------
#NOTES:
     dance-single:
     :
     Beginner:
     2:
     0.117148,0.132716,0.000000,0.008632,0.000000,95.000000,95.000000,0.000000,1.000000,0.000000,0.000000,0.117148,0.132716,0.000000,0.008632,0.000000,95.000000,95.000000,0.000000,1.000000,0.000000,0.000000:
0000
0000
0000
0000
,
0000
0000
0000
0000
,
0000
0000
0000
0000
,
0000
0000
0000
0000
,
0000
0000
0010
0000
,
0010
0000
0100
0000
,
0000
0000
0001
0000
,
0001
0000
1000
0000
,
0010
0010
0000
0000
,
0100
0100
0000
0000
,
0001
0001
0000
0000
,
1000
1000
0000
0010
,
0000
0000
0100
0000
,
0100
0000
0010
0000
,
0010
0000
0001
0000
,
0001
0000
1000
0000
,
0100
0100
0100
0000
,
0010
0000
1000
0000
,
1000
0000
0001
0000
,
0001
0000
0100
0000
,
0010
0010
0010
0000
,
0100
0000
0001
0000
,
1000
1000
1000
0000
,
0001
0000
0100
0000
,
0001
0001
0001
0000
,
0010
0000
1000
0000
,
0100
0000
0010
0000
,
0001
0000
0100
0100
,
0100
0000
0010
0000
,
1000
0000
0100
0100
,
0000
0000
0010
0000
,
0001
0000
0010
0010
,
0000
0000
1000
0000
,
0100
0000
0001
0001
,
0000
0000
0010
0000
,
0100
0000
0001
1000
,
1000
0000
0010
0000
,
0100
0000
0010
0010
,
0000
0000
1000
0000
,
0100
0000
0001
0000
,
1000
1000
0100
0000
,
0001
0000
0010
0010
,
0000
0000
0010
0000
,
0100
0000
1000
0000
,
1000
1000
0000
0000
,
0010
0001
0000
0000
,
1000
0100
0000
0000
,
0001
1000
0000
0010
,
0000
0000
0020
0000
,
0000
0000
0000
0000
,
0000
0000
0000
0000
,
0000
0030
0000
0000
;

//---------------dance-single - ----------------
#NOTES:
     dance-single:
     :
     Easy:
     4:
     0.166473,0.265432,0.112215,0.086319,0.000000,135.000000,122.000000,13.000000,10.000000,0.000000,0.000000,0.166473,0.265432,0.112215,0.086319,0.000000,135.000000,122.000000,13.000000,10.000000,0.000000,0.000000:
0000
0000
0000
0000
,
0000
0000
0000
0000
,
0000
0000
0000
0000
,
0000
0000
0000
0000
,
0010
0010
0001
0000
,
1000
0000
0100
0010
,
0000
0000
0001
0000
,
0100
0000
0010
0000
,
1000
1000
0001
1000
,
0010
0000
1000
0001
,
0100
0000
1000
0010
,
0001
0000
0010
0002
,
0003
0000
0100
0000
,
0100
0000
0010
0000
,
0010
0000
1000
0000
,
0001
0000
0100
0000
,
1001
1000
0010
0000
,
0100
0100
0001
0000
,
0010
0010
1000
0000
,
0100
0100
1000
0000
,
0010
0110
0002
0003
,
2000
3000
0010
0100
,
0000
0010
0002
0003
,
0200
0300
0010
1000
,
0100
0000
2000
3000
,
0020
0030
0100
0100
,
0000
0000
0010
0000
,
0001
0000
0100
0100
,
0100
0000
0010
1000
,
0100
0000
0010
0001
,
0000
0010
0001
0001
,
1000
0100
1000
0000
,
1001
1001
0100
0000
,
0010
0000
0001
0100
,
0000
0010
1000
0100
,
0010
0000
0001
1001
,
1000
0110
0001
0000
,
0100
0000
0010
1000
,
0000
0100
0001
0100
,
0010
1000
0100
0000
,
0010
0110
0001
0001
,
0100
0100
0020
0030
,
0000
0100
1000
0000
,
0100
0100
0002
0003
,
0010
0100
1000
0000
,
1001
1001
0100
0000
,
0110
0110
0001
0000
,
0011
0011
0000
0100
,
0000
0000
0020
0000
,
0000
0000
0000
0000
,
0000
0000
0000
0000
,
0000
0030
0000
0000
;

//---------------dance-single - ----------------
#NOTES:
     dance-single:
     :
     Medium:
     8:
     0.271289,0.309670,0.120847,0.077687,0.000000,220.000000,206.000000,14.000000,9.000000,0.000000,0.000000,0.271289,0.309670,0.120847,0.077687,0.000000,220.000000,206.000000,14.000000,9.000000,0.000000,0.000000:
0000
0000
0000
0000
,
0000
0000
0000
0000
,
0000
0000
0000
0000
,
0000
0000
0000
0000
,
0010
0110
1000
1000
,
0001
0001
0100
0100
,
0000
0010
1000
0100
,
0010
0001
0100
0010
,
1000
0001
1000
0000
0010
0000
0100
0000
,
0001
0001
0100
0000
0010
0000
1000
0000
,
0100
0100
1000
0000
0010
0000
0100
0000
,
0010
0010
0100
0000
0001
0000
0100
0000
,
0100
0000
0000
0000
0010
1000
0100
0000
,
0010
0000
0001
0000
0010
0001
0100
0000
,
0010
0000
1000
0000
1000
0100
0001
0000
,
0010
0000
0001
0000
0100
0100
0010
0000
,
0001
0000
0100
0000
0010
0001
0100
0000
,
1000
0000
0100
0000
0001
0010
1000
0000
,
0001
0000
0100
0000
1000
0100
0010
0000
,
0001
0000
0010
0000
0100
1000
0100
0000
,
1000
1000
0010
0000
0100
0000
0001
0100
,
0001
1000
0100
0100
,
0010
0010
1000
0000
0001
0000
0100
0000
,
0010
0001
0100
0100
,
0010
1000
0100
0001
,
0100
0000
0010
0000
1000
0000
0010
0010
,
0000
0001
0101
0000
,
1000
0000
0010
0000
1000
1000
0001
0001
,
0100
0010
1000
0000
0002
0000
0013
0100
,
2000
0000
3100
0000
0010
0010
0010
0000
,
0100
0010
0001
0001
,
0100
0000
0010
0000
1000
0001
1000
0000
,
0011
0000
1010
0000
2000
0000
3100
0010
,
0002
0000
0013
0000
0100
0100
0100
0000
,
1000
0100
0001
0100
,
0100
0000
0010
0000
1000
1000
0001
0100
,
0010
0001
0001
0000
0020
0000
0130
1000
,
0200
0000
0301
0000
1000
1000
1000
0000
,
0010
0001
0100
1000
,
0010
0010
0100
0010
,
0001
1000
0010
0000
0200
0000
0310
0001
,
0020
0000
1030
0000
0001
0001
0001
0000
,
0010
0100
0011
0100
,
1100
0001
1001
1000
,
1001
0001
0100
0010
,
1010
0101
0001
0100
,
1001
0110
1000
0100
,
1100
0000
0011
0000
0100
0000
0010
0100
,
0000
0000
0020
0000
,
0000
0000
0000
0000
,
0000
0000
0000
0000
,
0000
0030
0000
0000
;

//---------------dance-single - ----------------
#NOTES:
     dance-single:
     :
     Hard:
     11:
     0.432829,0.552983,0.258958,0.198534,0.241694,351.000000,321.000000,30.000000,23.000000,0.000000,0.000000,0.432829,0.552983,0.258958,0.198534,0.241694,351.000000,321.000000,30.000000,23.000000,0.000000,0.000000:
0000
0000
0000
0000
,
0000
0000
0000
0000
,
0000
0000
0000
0000
,
0000
0000
0000
0000
,
0010
0100
0000
0000
0100
0010
0000
0000
0002
0000
0000
0000
0103
0000
0100
0000
,
0020
0000
1030
1000
0010
0010
0200
0000
,
0300
0001
0001
0010
0200
0000
0310
0100
,
0010
0001
1000
0100
0010
0010
0100
0100
,
0010
1000
0000
0000
0100
0010
0000
0000
0001
0000
0000
1000
0000
0000
0010
0000
,
0001
1000
0000
0000
1000
0001
0000
0000
0100
0000
0000
0001
0000
0000
0100
0000
,
0010
0001
0000
0000
0100
1000
0000
0000
0100
0000
0000
0010
0000
0000
0001
0000
,
1000
0010
0000
0000
0001
0100
0000
0000
0100
0000
0000
0010
0000
0000
2000
0000
,
0000
0000
3000
0000
0010
0100
0001
1000
,
0100
0000
1000
0010
0000
0000
0000
0000
0100
0000
0001
0000
1000
0000
0100
0000
,
0010
0001
0010
0001
0000
0000
0000
0000
0100
0000
0100
0000
0010
0000
0010
0000
,
1000
0000
1000
0001
0000
0000
0000
0100
0010
0000
0100
0001
0000
0000
0000
0000
,
1010
0001
1100
0001
0100
0010
1000
0100
,
0001
0100
0010
0000
1000
0000
0010
0000
0100
0000
0100
0000
1000
0000
0010
0000
,
0100
0001
1000
0000
0100
0010
0100
0000
0001
0000
0100
0000
0010
0000
1000
0000
,
0100
0000
0010
0001
0000
0000
0000
0000
0100
0000
0010
1000
0000
0000
0001
0000
,
1100
0001
0011
1000
1010
0000
0001
1000
,
0010
0100
0100
0002
0000
0010
0103
0000
,
1000
1100
0001
0101
1000
0010
0100
0100
,
0001
0000
1000
0000
0100
0000
2000
0000
0000
0000
3010
0000
0200
0000
0000
0300
,
0001
1001
0011
0100
1000
0010
0001
0100
,
1000
0100
0010
0200
0000
0301
0100
0020
,
0000
0030
0100
1000
1010
0000
0001
0100
,
1100
0000
0000
0000
0101
0000
0000
0000
1000
0100
0001
0000
0001
0100
1000
0000
,
0100
0010
0001
0000
0101
0000
0001
0000
0020
0000
0000
0000
0130
0000
0001
0000
,
2000
0000
3010
0100
1100
0010
1001
0000
,
1000
0100
1000
1000
0020
0000
0130
0100
,
0001
0000
1000
0100
1000
0000
0010
0000
0100
0000
0001
0000
1000
0000
0000
0000
,
0100
0001
0000
0000
0100
1000
0000
0000
0002
0000
0000
0000
1003
0000
0010
0000
,
0200
0000
0310
0001
0101
0100
1001
0000
,
0100
0010
0001
0001
0200
0000
0310
1000
,
0100
0000
0010
1000
0010
0000
0100
0000
1000
0001
0010
0100
1000
0010
0100
0001
,
1000
0010
1000
0000
1010
0000
0100
0000
0120
0000
0000
0000
0031
0000
0100
0000
,
2010
0000
3100
0010
0100
0011
1001
0000
,
0100
0010
1000
1000
0020
0000
0130
0001
,
0100
0000
0100
0010
1000
0000
0001
0000
0010
0000
1000
0000
0100
0000
0001
0000
,
0010
0001
0000
0000
1000
0010
0000
0000
1001
0000
0100
0000
1001
0000
0000
0000
,
0101
0010
1100
0000
0010
0010
2000
0000
,
3100
0001
1000
0100
0020
0000
0031
0100
,
0010
1000
0001
1000
0100
0000
1000
0000
0010
0010
0000
0000
0100
0100
0000
0000
,
1000
1000
0000
0000
0001
0001
0000
0000
1010
0000
0000
0001
0000
0000
1000
0000
,
0100
0010
0000
0000
0001
0100
0000
0000
1100
0000
0000
0001
0000
0000
0100
0000
,
1000
0010
0000
0000
0001
0010
0000
0000
0110
0000
0000
0001
0000
0000
1000
0000
,
0010
1000
0000
0000
0100
0010
0000
0000
0011
0000
0000
0100
0000
0000
2000
0000
,
0000
3000
0020
0000
,
0000
0000
0000
0000
,
0000
0000
0000
0000
,
0000
0030
0000
0000
;

//---------------dance-double - ----------------
#NOTES:
     dance-double:
     :
     Easy:
     5:
     0.204700,0.287551,0.164007,0.164007,0.000000,166.000000,147.000000,19.000000,19.000000,0.000000,0.000000,0.204700,0.287551,0.164007,0.164007,0.000000,166.000000,147.000000,19.000000,19.000000,0.000000,0.000000:
00000000
00000000
00000000
00000000
,
00000000
00000000
00000000
00000000
,
00000000
00000000
00000000
00000000
,
00000000
00000000
00000000
00000000
,
00001000
00011000
00200000
00300000
,
02000000
03000000
00010000
01000000
,
00000000
00010000
00001000
00000100
,
00000001
00000010
00000100
00000000
,
00000010
00000000
00001000
00010000
,
00011000
00000000
00100000
00010000
,
10010000
00000000
00100000
00010000
,
00011000
00000000
00001000
00000100
,
00000000
00000000
00000010
00000010
,
00000001
00000000
00000001
00000100
,
00001000
00000000
00010000
00100000
,
20000000
30000000
00200000
00300000
,
00010000
00011000
00000100
00000100
,
00001000
00001000
00000010
00000010
,
00000001
00000001
00000100
00000100
,
00001000
00001000
00010000
00010000
,
00110000
00100000
02000000
03000000
,
20000000
30000000
00100000
00010000
,
00001000
00001100
00000100
00000100
,
00000010
00000001
00000200
00000300
,
00000010
00000110
00001000
00001000
,
00010000
00010000
00100000
02000000
,
03000000
00100000
00010000
00000000
,
10000000
00010000
10010000
10000000
,
10010000
00010000
00002000
00003000
,
00000020
00000030
00000100
00001000
,
00000000
00000001
00000100
00001000
,
00010000
00100000
10000000
00000000
,
00100000
00110000
00002000
00003000
,
00000200
00000300
00000010
00000001
,
00000000
00000001
00000010
00001000
,
00010000
00100000
00110000
01010000
,
10100000
10010000
00200000
00300000
,
02000000
03000000
00010000
00001000
,
00000100
00001000
00001000
00000010
,
00000001
00000100
00001000
00010000
,
00011000
00010000
20000000
30010000
,
00020000
10030000
00100000
00010000
,
00000000
00001000
00000100
00000100
,
00000010
00000001
00000200
00000300
,
00020000
00030000
00100000
00100000
,
00010000
01010000
00001000
00000100
,
00001000
00001010
00000100
00000001
,
00000010
00000110
00001000
00010000
,
01000000
00000000
00200000
00000000
,
00000000
00000000
00000000
00000000
,
00000000
00000000
00000000
00000000
,
00000000
00300000
00000000
00000000
;

//---------------dance-double - ----------------
#NOTES:
     dance-double:
     :
     Medium:
     8:
     0.276222,0.353909,0.164007,0.138111,0.000000,224.000000,205.000000,19.000000,16.000000,0.000000,0.000000,0.276222,0.353909,0.164007,0.138111,0.000000,224.000000,205.000000,19.000000,16.000000,0.000000,0.000000:
00000000
00000000
00000000
00000000
,
00000000
00000000
00000000
00000000
,
00000000
00000000
00000000
00000000
,
00000000
00000000
00000000
00000000
,
00001000
00001000
00010000
00000000
00002000
00000000
00013000
00000000
,
00020000
00031000
00100000
00010000
,
00000000
00010000
01000000
10000000
,
00100000
00000000
00010000
00000000
00001000
00001000
00000100
00000000
,
00000110
00000110
00001000
00000010
,
00000010
00000010
00000010
00000000
00000001
00000000
00000100
00000000
,
00001000
00001000
00001000
00000000
00010000
00000000
00100000
00000000
,
01000000
01000000
01000000
00000000
10000000
00000000
00200000
00000000
,
00300000
00010000
00011000
00000100
,
00001000
00001000
00000010
00000001
,
00000100
00001000
00000010
00001000
,
00010000
00001000
00000000
00000000
00100000
01000000
00000000
00000000
,
01010000
11000000
00200000
00310000
,
01000000
00010000
01000000
00000000
00002000
00000000
00013000
00000000
,
00000100
00001000
00000100
00000000
00000020
00000000
00000031
00000000
,
00000100
00000100
00000010
00000000
00001000
00001000
00000100
00000000
,
00010000
00001000
00010000
00000000
00110000
00000000
00010000
00010000
,
01000000
10000000
00100000
00010000
,
00010000
01000000
10000000
00000000
00100000
00000000
00010000
00000000
,
00001000
00000010
00000010
00000001
,
00000001
00000010
00000100
00000000
00001000
00001000
00000100
00000000
,
00010000
00000000
00100000
00000000
00010000
00000000
01000000
00100000
,
00000000
10000000
00020000
00030000
,
00001000
00000000
00010000
00000000
00001000
00001000
00000100
00000000
,
00000010
00000010
00000011
00000000
00000002
00000000
00000103
00000000
,
00002000
00003100
00001100
00011000
,
00010000
00000000
00100000
00000000
00010000
00000000
00010000
01000000
,
10000000
00000000
00100000
00000000
00010000
00010000
01000000
00000000
,
00100000
00010000
00200000
00310000
,
00002000
00000000
00003100
00000000
00000010
00000010
00000001
00000000
,
00000100
00000010
00001100
00001000
,
00010000
00000000
00100000
00000000
00010000
00010000
01000000
01000000
,
00100000
00100000
10010000
00000000
00200000
00000000
00310000
00000000
,
02000000
00000000
13000000
00000000
00100000
00010000
00100000
00000000
,
00001000
00000100
00000010
00000001
,
00000100
00000100
00000010
00001000
,
00000011
00001010
00002000
00003100
,
00020000
00000000
00130000
00000000
00010000
01000000
00100000
00000000
,
00010000
00000000
00010000
00100000
10000000
00000000
01000000
00000000
,
00100000
00000000
00010000
00000000
00100000
00010000
00001000
00000000
,
00001000
00010000
00100000
00000000
00001000
00000000
00010000
00000000
,
00001100
00000000
00001010
00000000
00000100
00000010
00000001
00000000
,
00000101
00000000
00000110
00000000
00000010
00001000
00000100
00000000
,
00011000
00000000
00110000
00000000
00010000
01000000
00100000
00010000
,
00000000
00000000
00200000
00000000
,
00000000
00000000
00000000
00000000
,
00000000
00000000
00000000
00000000
,
00000000
00300000
00000000
00000000
;

//---------------dance-double - ----------------
#NOTES:
     dance-double:
     :
     Hard:
     12:
     0.421731,0.486625,0.258958,0.129479,0.211482,342.000000,312.000000,30.000000,15.000000,0.000000,0.000000,0.421731,0.486625,0.258958,0.129479,0.211482,342.000000,312.000000,30.000000,15.000000,0.000000,0.000000:
// measure 0
00000000
00000000
00000000
00000000
,  // measure 1
00000000
00000000
00000000
00000000
,  // measure 2
00000000
00000000
00000000
00000000
,  // measure 3
00000000
00000000
00000000
00000000
,  // measure 4
00010000
00001000
00000000
00000000
00001000
00010000
00000000
00000000
00000200
00000000
00000000
00000000
00000310
00000000
00000001
00000000
,  // measure 5
00000020
00000000
00000130
00001000
00000010
00000010
00000001
00000000
,  // measure 6
00000100
00001000
00010000
00001000
00100000
00000000
00010000
01000000
,  // measure 7
00100000
00010000
10000000
00100000
00010000
00010000
00001000
00001000
,  // measure 8
00000100
00000010
00000000
00000000
00000001
00000100
00000000
00000000
00001010
00000000
00000000
00000010
00000000
00000000
00001000
00000000
,  // measure 9
00000010
00001000
00000000
00000000
00001000
00000100
00000000
00000000
00010100
00000000
00000000
00001000
00000000
00000000
00100000
00000000
,  // measure 10
00010000
01000000
00000000
00000000
00100000
01000000
00000000
00000000
01010000
00000000
00000000
00100000
00000000
00000000
00010000
00000000
,  // measure 11
01000000
00010000
00000000
00000000
10000000
00010000
00000000
00000000
01100000
00000000
00000000
00100000
00000000
00000000
00002000
00000000
,  // measure 12
00000000
00000000
00013000
00000000
00001000
00000100
00000010
00000001
,  // measure 13
00000100
00000000
00000010
00001000
00000000
00000000
00000000
00000000
00000100
00000000
00001000
00000000
00010000
00000000
00100000
00000000
,  // measure 14
00010000
00000000
01000000
00010000
00000000
00000000
00000000
00000000
00100000
00000000
00010000
00000000
10000000
00000000
00100000
00000000
,  // measure 15
00010000
00000000
10000000
00010000
00000000
00000000
00000000
00100000
00010000
00000000
10000000
00010000
00000000
00000000
00000000
00000000
,  // measure 16
00010000
00010000
00000000
00000000
00001000
00001000
00000000
00000000
00000010
00000000
00001000
00000000
00000100
00000000
00001000
00000000
,  // measure 17
00000010
00000100
00000001
00000100
00000010
00001000
00010000
00100000
,  // measure 18
01000000
00100000
10000000
01000000
00100000
00010000
10000000
00100000
,  // measure 19
00010000
00000000
01000000
00010000
00000000
00000000
00000000
00000000
00100000
00000000
00010000
00001000
00000000
00000000
00000000
00000000
,  // measure 20
00001100
00001000
00011000
00100000
00110000
00000000
00001000
00000100
,  // measure 21
00000010
00001000
00000100
00000002
00000000
00000013
00000010
00000000
,  // measure 22
00000101
00000010
00001010
00001000
00000100
00001000
00010000
00100000
,  // measure 23
00010000
01000000
10000000
00200000
00000000
00310000
01000000
00000000
,  // measure 24
00110000
00010000
00011000
00000100
00001000
00000010
00001000
00000001
,  // measure 25
00000010
00000100
00001000
00000020
00000000
00001030
00000100
00002000
,  // measure 26
00000000
00003000
00010000
00001000
00110000
00000000
00100000
01000000
,  // measure 27
02000000
00000000
00000000
00000000
03100000
00000000
00000000
00000000
00100000
10000000
00100000
00000000
00010000
01000000
00010000
00000000
,  // measure 28
00001000
00000010
00001000
00000000
00000010
00000000
00001000
00000000
00001010
00000000
00000000
00000000
00000100
00000000
00000010
00000000
,  // measure 29
00000011
00000000
00000010
00000100
00001010
00000100
00001000
00000000
,  // measure 30
00001000
00010000
00100000
00010000
02000000
00000000
03010000
10000000
,  // measure 31
00100000
01000000
00100000
00001000
00010000
00001000
00010000
00000000
,  // measure 32
00001000
00000100
00000000
00000000
00000010
00000100
00000000
00000000
00000101
00000000
00000000
00000000
00000100
00000000
00000010
00000000
,  // measure 33
00001100
00000000
00000100
00001000
00010000
00100000
01010000
00000000
,  // measure 34
00010000
00100000
00010000
10000000
00200000
00000000
00310000
00001000
,  // measure 35
00010000
00001000
00010000
00000000
00000100
00000000
00001000
00000000
00010000
00001000
00100000
00000000
00010000
00001000
00000100
00000000
,  // measure 36
00001000
00000010
00000001
00000000
00000100
00000000
00001000
00000000
00011000
00000000
00000000
00000000
00000100
00000000
00001000
00000000
,  // measure 37
00011000
00000000
00100000
00010000
01000000
00100000
10010000
00000000
,  // measure 38
10000000
00010000
10000000
00100000
00020000
00000000
01030000
00100000
,  // measure 39
00001000
00001000
00000100
00010000
00001000
00000010
00001000
00000000
,  // measure 40
00010000
00001000
00000000
00000000
00100000
00010000
00000000
00000000
01010000
00000000
00000000
00000000
01000000
00000000
10000000
00000000
,  // measure 41
00110000
00000000
00100000
00010000
10000000
01000000
00101000
00000000
,  // measure 42
00010000
00001000
00010000
00000100
00002000
00000000
00003100
00001000
,  // measure 43
00000010
00001000
00000010
00000000
00000100
00000000
00000001
00000000
00000001
00000010
00000000
00000000
00000100
00001000
00000000
00000000
,  // measure 44
00001000
00010000
00000000
00000000
01000000
00100000
00000000
00000000
01010000
00000000
00000000
10000000
00000000
00000000
00100000
00000000
,  // measure 45
00100000
00010000
00000000
00000000
00001000
00000100
00000000
00000000
00000110
00000000
00000000
00000001
00000000
00000000
00000010
00000000
,  // measure 46
00000010
00000001
00000000
00000000
00000100
00000010
00000000
00000000
00011000
00000000
00000000
00100000
00000000
00000000
00100000
00000000
,  // measure 47
01000000
00010000
00000000
00000000
10000000
00100000
00000000
00000000
00110000
00000000
00000000
01010000
00000000
00000000
00220000
00000000
,  // measure 48
00000000
00330000
00200000
00000000
,  // measure 49
00000000
00000000
00000000
00000000
,  // measure 50
00000000
00000000
00000000
00000000
,  // measure 51
00000000
00300000
00000000
00000000
;
