#TITLE:Habits;
#SUBTITLE:;
#ARTIST:organic742;
#TITLETRANSLIT:Habits;
#SUBTITLETRANSLIT:;
#ARTISTTRANSLIT:organic742;
#GENRE:pop'n music;
#CREDIT:SAIKIO;
#BANNER:Habits-banner.png;
#BACKGROUND:Habits-bg.png;
#LYRICSPATH:;
#CDTITLE:popnmusic.png;
#MUSIC:Habits.ogg;
#OFFSET:-0.121000;
#SAMPLESTART:31.584063;
#SAMPLELENGTH:12.200024;
#SELECTABLE:YES;
#BPMS:0.000000=162.000000
;
#STOPS:
;
#BGCHANGES:;
#KEYSOUNDS:;
#ATTACKS:;

//---------------dance-single - ----------------
#NOTES:
     dance-single:
     :
     Beginner:
     2:
     0.146284,0.228976,0.000000,0.000000,0.000000,126.000000,126.000000,0.000000,0.000000,0.000000,0.000000,0.146284,0.228976,0.000000,0.000000,0.000000,126.000000,126.000000,0.000000,0.000000,0.000000,0.000000:
0000
0000
0000
0000
,
0000
0000
0000
0000
,
0000
0000
0000
0000
,
0000
0000
0000
0000
,
0000
0000
0000
0000
,
0000
0000
0000
0001
,
0000
0000
0000
0000
,
0000
0000
0000
1000
,
0000
0000
0000
0000
,
0000
0000
0000
0010
,
0000
0000
0000
0010
,
0000
0000
0000
0100
,
0000
0100
0000
0010
,
0000
0000
0000
0001
,
0000
0001
0000
1000
,
0000
0000
0000
0100
,
0000
0100
0000
1000
,
0000
0000
0000
0010
,
0000
0010
0000
0001
,
0000
0000
0000
1000
,
0000
0001
0000
1000
,
0000
0000
0010
0100
,
0000
0010
0010
0010
,
0000
0000
0100
0010
,
0000
0100
0100
0100
,
0000
0000
0001
1000
,
0000
1000
1000
1000
,
0000
1000
0001
0000
,
0010
0000
0010
0000
,
0000
0000
0010
0000
,
1000
0000
0100
0000
,
0000
0000
0010
0000
,
0001
0000
0100
0000
,
0000
0000
1000
0000
,
0001
0000
0100
0000
,
0000
0000
0001
0000
,
1000
0000
0010
0000
,
0000
0000
0001
0000
,
0010
0000
0100
0000
,
0000
0000
1000
0000
,
0100
0000
0010
0000
,
0000
0000
0010
0000
,
0100
0000
0001
0000
,
0000
0000
0100
0000
,
0010
0000
1000
0000
,
0000
0000
0010
0010
,
0000
0000
0100
0100
,
0000
0000
0001
1000
,
0000
0000
1000
0000
,
1000
0000
0010
0010
,
0000
0000
0001
0001
,
0000
0000
0010
0100
,
0000
0000
1000
1000
,
0000
0000
0100
0000
,
0100
0000
0010
0000
,
0010
0000
0001
0000
,
0001
0000
0100
0000
,
0100
0000
1000
0000
,
1000
0000
0010
0000
,
0010
0000
0100
0000
,
0000
0000
0100
0000
,
0000
0000
0010
0000
,
0000
0000
0001
0000
,
0000
0000
0100
0000
,
0000
0000
1000
0000
,
0000
0000
0010
0000
,
0100
0000
0010
0000
,
0000
0000
0001
0000
,
1000
0000
0001
0000
,
0000
0000
0001
1000
,
0000
0000
0100
0100
,
0100
0000
0010
1000
,
0000
0000
0010
0010
,
0010
0000
0001
0100
,
0000
0000
0100
0100
,
0100
0000
0010
0000
,
0100
0100
0010
0000
,
0000
0000
0001
0000
,
1000
0000
0001
0000
,
0000
0000
0100
0000
,
0000
0000
0010
0000
;

//---------------dance-single - ----------------
#NOTES:
     dance-single:
     :
     Easy:
     4:
     0.215944,0.294397,0.048761,0.081269,0.000000,186.000000,180.000000,6.000000,10.000000,0.000000,0.000000,0.215944,0.294397,0.048761,0.081269,0.000000,186.000000,180.000000,6.000000,10.000000,0.000000,0.000000:
0000
0000
0000
0000
,
0000
0000
0000
0000
,
0000
0000
0000
0000
,
0000
0000
0000
0000
,
0000
0000
0000
0000
,
0000
0000
0000
0020
,
0000
0000
0000
0030
,
0000
0000
0000
0100
,
0000
0100
0000
0100
,
0000
0000
0000
1000
,
0000
0000
0000
0001
,
0000
0000
0000
0001
,
0000
0001
0000
0100
,
0000
0100
0000
1000
,
0000
1000
0000
0010
,
0000
0010
0000
0100
,
0100
0100
0000
0001
,
0001
0001
0000
1000
,
1000
1000
0000
0010
,
0010
0010
0000
0100
,
0000
0100
0000
0110
,
0000
0000
1000
0100
,
0001
0000
0010
0001
,
0100
0000
0001
0100
,
1000
0000
0010
1000
,
0100
0000
1000
0100
,
0010
0000
0001
0100
,
0010
0000
0001
0100
,
1000
0100
0110
0000
,
0000
0000
0010
0010
,
0000
1000
0100
0100
,
0000
0010
0001
0000
,
0100
0000
1000
0000
,
0010
0000
0001
0001
,
0000
0100
0010
0010
,
0000
0001
0010
0000
,
1000
0000
0100
0000
,
0100
0000
0010
1000
,
0100
1000
1000
0100
,
0000
0010
0000
0001
,
0000
0100
0100
0000
,
0001
0000
0020
0030
,
0200
0300
0002
0003
,
1000
0000
0010
0010
,
1000
1000
0100
1000
,
0000
0000
0010
0000
,
0001
0000
0100
0010
,
0001
0000
0001
1000
,
0100
0000
0010
0100
,
1000
0000
0001
1000
,
0001
0001
1000
0001
,
1000
0000
0010
0100
,
0010
0010
0100
0010
,
0100
0000
1100
0000
,
0100
0000
0020
0030
,
0100
0001
0101
0000
,
0200
0300
0010
0000
,
1000
0000
1010
0000
,
2000
3000
0100
0000
,
0010
0000
0001
0001
,
0001
0001
0002
0000
,
0003
0000
0100
0000
,
0100
0000
0010
0000
,
0000
0000
1000
0000
,
1000
0000
0001
0000
,
0000
0000
0100
0000
,
1000
0000
0010
0000
,
0010
0000
0001
0000
,
0100
0000
0010
0000
,
0010
0000
1001
0000
,
1000
0000
0001
0001
,
0100
0000
1000
0100
,
0010
0000
0100
1000
,
0100
0000
1000
0100
,
0001
0000
0010
0100
,
1000
0000
0001
0001
,
1000
0001
2000
0000
,
3000
0000
0010
0100
,
0010
0010
0100
0000
,
0010
0000
0002
0000
,
0003
0000
0100
0000
;

//---------------dance-single - ----------------
#NOTES:
     dance-single:
     :
     Medium:
     8:
     0.299535,0.392530,0.048761,0.178792,0.000000,258.000000,252.000000,6.000000,22.000000,0.000000,0.000000,0.299535,0.392530,0.048761,0.178792,0.000000,258.000000,252.000000,6.000000,22.000000,0.000000,0.000000:
0000
0000
0000
0000
,
0000
0000
0000
0000
,
0000
0000
0000
0000
,
0000
0000
0000
0000
,
0000
0000
0000
0000
,
0000
0000
0000
0020
,
0000
0000
0030
0100
,
0000
0100
0000
1000
,
1000
0001
0000
0100
,
0000
0010
0000
0002
,
0000
0000
0003
0000
,
0000
0000
0100
0020
,
0000
1030
0100
0010
,
0010
0001
0100
0200
,
0001
0301
0010
1000
,
0100
0010
0001
0200
,
0300
0020
0030
0200
,
0300
0001
0001
0020
,
0030
1000
0000
2000
,
3000
0100
0010
0001
,
0100
0000
1000
0000
0010
1000
0100
0000
,
0000
0000
0000
0000
0001
0000
0010
0100
,
1000
0010
0010
0100
,
0010
0000
0001
0000
1000
0100
0001
0000
,
1000
0100
0001
0010
,
0100
0000
0001
0000
1000
0100
0010
0000
,
0001
0100
0010
0001
,
0100
0000
0010
0010
1000
0000
0100
0000
,
1000
0010
1000
0000
0020
0000
0000
0000
,
0000
0030
0000
0000
0100
0000
0100
0000
,
0010
1000
0100
0010
,
0000
0001
0200
0300
,
2000
3000
0100
0100
,
1000
0000
0010
0001
,
0001
0100
0010
1000
,
1000
0100
0002
0003
,
0020
0030
0001
0010
,
0100
0000
0000
0000
0001
0100
0001
0000
,
1000
0000
0100
0000
1000
0010
1000
0000
,
0010
0000
0100
0000
0001
0001
0100
0000
,
0010
0000
1000
0000
1000
1000
0010
0000
,
0001
0000
0100
0000
0010
0000
0000
0110
,
0000
0000
0000
0000
0001
0000
0000
1001
,
0000
0000
0010
0001
,
0100
0000
1000
0000
0000
0010
0010
0010
,
0010
0000
0001
0100
,
1000
1000
0100
0010
,
0001
0100
0010
0000
1000
0000
0001
0000
,
0100
1000
0010
0100
,
0001
0100
1000
0000
0010
0000
1000
0000
,
0100
1000
0010
0000
0001
0100
0010
0000
,
0001
0000
0100
0000
0010
0100
1000
0000
,
1000
0000
0010
0000
0100
0010
0001
0000
,
0100
0010
0002
0000
,
0100
0000
0103
0000
,
0100
0010
2000
0000
,
0010
0000
3010
0000
,
0001
0100
0020
0000
,
1000
0000
0031
0000
,
1000
0000
0100
0010
,
0100
0000
0010
0100
0020
0000
0000
0000
,
0030
0000
0100
0000
,
0100
0000
0001
0100
,
0000
0000
0010
0000
,
1000
0000
0100
0000
,
1000
0000
0010
0010
,
1000
0000
0000
0000
0001
0000
0100
0010
,
0000
0000
0000
0000
1000
0001
0000
0010
,
0000
0010
0000
0100
0020
0000
0000
0000
,
0030
0000
0110
1000
,
0100
0000
1000
1000
0001
0000
1000
0000
,
0010
0100
0110
0001
,
0100
0000
0010
0000
0001
0001
0010
0000
,
1000
0000
0001
0000
1001
0000
0010
0010
,
0100
0001
0100
0010
,
1000
0000
0001
0010
1000
0000
0100
0000
,
1000
0010
2002
0000
,
0000
3003
0000
0000
0100
0000
0100
0000
,
0010
0100
0010
0000
0100
0000
0000
0000
,
0010
0000
0200
0000
,
0000
0000
0310
0000
;

//---------------dance-single - ----------------
#NOTES:
     dance-single:
     :
     Hard:
     12:
     0.460912,0.523373,0.186919,0.178792,0.020317,397.000000,374.000000,23.000000,22.000000,0.000000,0.000000,0.460912,0.523373,0.186919,0.178792,0.020317,397.000000,374.000000,23.000000,22.000000,0.000000,0.000000:
0000
0000
0000
0000
,
0000
0000
0000
0000
,
0000
0000
0000
0000
,
0000
0000
0000
0000
,
0000
0000
0000
0000
,
0000
0000
0000
0010
,
0000
0010
0000
0000
0200
0000
0000
0000
,
0000
0300
0000
0000
0000
0000
0000
0000
0000
0000
0000
0000
0010
0000
1000
0000
,
0010
1000
0010
0000
0100
0000
0010
0000
,
0000
0101
0000
1100
,
0000
0000
0000
0010
,
0000
0010
0000
0001
,
0100
0000
0001
0100
1000
0000
0010
0000
,
1000
0000
0100
0001
0010
0000
0100
0000
,
0001
0000
0010
0100
0010
0000
1000
0000
,
0100
0000
0010
0001
0100
0000
1000
0000
,
0100
0000
1000
0010
0001
0000
0010
0000
,
0100
0000
0001
0010
0100
0000
1000
0001
,
1000
0000
0010
1000
0100
0000
0010
0001
,
0100
0000
0010
0100
1000
0000
0010
0010
,
0000
0000
0010
0000
0100
0000
0010
0100
0010
0000
0100
0000
0010
0000
0000
0000
,
0000
0000
1000
0100
1000
0001
0010
0100
,
0001
0000
0100
0100
0010
0000
1100
0000
,
1100
0000
0010
0001
0010
1000
0100
0010
,
0001
0100
0010
0011
,
0011
0000
1000
0001
0010
0100
1000
0100
,
0010
0001
0100
1001
,
1001
0000
0010
0100
0002
0000
0103
0000
,
1000
0100
0010
0000
1000
0000
1000
0000
,
0010
0000
0000
0000
0000
0000
0000
0000
0100
0000
0000
0100
0001
0000
0100
0000
,
0000
0000
0010
0000
1000
0000
0100
0000
0010
0000
0000
0010
0001
0000
0100
0000
,
0000
0010
1000
0001
2000
0000
3100
0000
,
0020
0000
0031
0000
0100
0010
0100
1000
,
0000
0000
0100
0000
0010
0000
0000
0000
0001
0000
0000
0100
0010
0000
0100
0000
,
0000
0000
0001
0000
1000
0000
0100
0000
1000
0000
0000
0010
1000
0000
0001
0000
,
0000
0100
0010
1000
0200
0000
0310
0000
,
0002
0000
0103
0000
0010
0010
1000
0000
,
0100
0000
1000
0000
0010
0000
0100
1010
,
0000
0001
0010
0100
1000
0000
0010
0101
,
0000
0100
0010
0001
0100
0010
1000
0100
,
0000
0000
0010
0000
1000
0001
1000
0100
,
0001
0010
0100
0001
1100
0000
0001
1001
,
0000
0000
0100
0000
0011
0000
0010
0110
,
0000
0010
1000
0100
2000
0000
0010
0000
,
0001
0000
3100
0000
0000
0010
0010
0010
,
0010
0000
0100
0000
1000
1000
0010
0001
,
0010
0100
0001
0010
1000
0100
1000
0010
,
0001
0100
0100
0000
0010
1000
0001
1000
,
0100
0010
0100
1000
0001
0010
1000
0001
,
0100
0010
1000
0000
0001
0001
0100
1000
,
0010
0100
0001
1000
0010
0100
1000
0010
,
0001
0010
0010
0000
0010
0001
0100
1000
,
0100
0010
1000
0100
0001
0010
0100
0010
,
1000
0001
0100
0000
0020
0000
0000
0000
,
1030
0000
0001
1000
0200
0000
0000
0320
,
0000
0031
0100
0010
2000
0000
0000
0000
,
3200
0000
0000
0000
0320
0000
0000
0032
,
0000
0013
0100
1000
0020
0000
0130
0000
,
1000
0000
0010
0001
0100
0000
1000
0000
,
0010
0000
0100
0000
0001
0100
0001
1000
,
0010
1000
0100
0100
0020
0000
0000
0000
,
0000
0000
0030
0000
0100
0100
0000
0100
,
0000
0000
0010
1000
0000
0000
0010
0100
,
0000
0000
0000
0000
0001
0001
0000
0100
,
0000
0010
1000
0002
0000
0000
0000
0000
,
0103
0000
0000
0000
0010
1000
0000
0100
,
0000
1000
0010
2000
0000
0000
3100
0020
,
0000
0000
0000
0000
0000
0030
0000
0000
0001
0000
0100
0000
0000
0000
0010
0000
,
0000
0100
0001
0200
0000
0000
0000
0300
,
0110
0000
0000
0000
0001
0100
1000
0010
,
1000
0000
0100
1000
0010
0000
1100
0000
,
1010
0000
0001
0100
1000
0001
0100
0010
,
0100
1000
0100
0011
,
0101
0000
0001
0010
1000
0100
0001
0010
,
1000
0100
0010
1001
,
0110
0000
0010
0100
0001
0000
1010
0000
,
0010
1000
0001
0000
0200
0000
0010
0000
,
0310
0000
0100
0100
,
0010
0100
1000
0000
0100
0000
0000
0000
,
0110
0000
0020
0000
,
0000
0000
0130
0000
;

//---------------dance-double - ----------------
#NOTES:
     dance-double:
     :
     Easy:
     5:
     0.255417,0.294397,0.081269,0.162538,0.000000,220.000000,210.000000,10.000000,20.000000,0.000000,0.000000,0.255417,0.294397,0.081269,0.162538,0.000000,220.000000,210.000000,10.000000,20.000000,0.000000,0.000000:
00000000
00000000
00000000
00000000
,
00000000
00000000
00000000
00000000
,
00000000
00000000
00000000
00000000
,
00000000
00000000
00000000
00000000
,
00000000
00000000
00000000
00000000
,
00000000
00000000
00000000
00002000
,
00003000
00010000
00000000
00001000
,
00010000
00100000
00000000
02000000
,
00000000
00000000
03000000
00100000
,
00000000
00010000
00000000
01100000
,
00000000
00000000
00000000
00010000
,
00000000
00000000
00000000
00001000
,
00000100
00000010
00000000
00000001
,
00000100
00001000
00000000
00010000
,
00100000
00010000
00000000
00010000
,
01000000
10000000
00000000
00100000
,
00010000
00001000
00000000
00001000
,
00000100
00001000
00000000
00000010
,
00000100
00000001
00000000
00000010
,
00000100
00001000
00000000
00011000
,
00000000
00100000
00010000
00001000
,
00000000
00000000
00010000
00100000
,
00010000
01000000
01000000
10000000
,
00000000
00100000
00010000
00001000
,
00000100
00001000
00001000
00000010
,
00000100
00000000
00000001
00000100
,
00000001
00001000
00001000
00000100
,
00010000
00000000
00100000
00010000
,
01000000
00100000
00020000
00000000
,
00030000
00000000
00100000
00100000
,
01000000
00010000
10000000
10000000
,
00010000
00100000
00002000
00003000
,
00020000
00030000
00002000
00003000
,
00000100
00000000
00000010
00000010
,
00000001
00000100
00001000
00001000
,
00000100
00010000
00002000
00003000
,
00200000
00300000
00020000
00030000
,
01000000
00000000
00100000
00010000
,
00010000
01000000
00010000
00001000
,
00001000
00000100
00000020
00000030
,
00000002
00000003
00000200
00000300
,
00001000
00000000
00000100
00000000
00011000
00000000
00000000
00010000
,
00000000
00000000
00000000
00000000
00010100
00000000
00000000
00000100
,
00000000
00000010
00001000
00000100
,
00001000
00000000
00000010
00000010
,
00000010
00000000
00000001
00000100
,
00001000
00000100
00001000
00010000
,
00100000
01000000
10000000
00100000
,
00010000
00100000
00010000
00001000
,
00000100
00000000
00001000
00000010
,
00000001
00000010
00001000
00010000
,
01000000
10000000
01000000
00010000
,
00001000
00000010
00000001
00000010
,
00001000
00000100
00000020
00000000
,
00000130
00000000
00010000
00100000
,
00010000
01000000
20000000
00000000
,
30100000
00000000
00001000
00010000
,
00000100
00001000
00000002
00000000
,
00000013
00000000
00000001
00000100
,
00000100
00000000
00000020
00000030
,
00002000
00003000
00011000
00000000
,
00000000
00000000
00010000
00000000
,
00100000
00000000
01000000
00000000
,
10000000
00000000
00010000
00000000
,
00001000
00000000
00000100
00001000
,
00000100
00000000
00000010
00000001
,
00000100
00000000
00000010
00000000
,
00001000
00000000
00000100
00001000
,
00010000
00000000
00100000
00000000
,
00110000
00000000
00010000
01000000
,
10000000
00000000
00100000
00100000
,
00100000
00000000
00010000
00001000
,
00000100
00000000
00000100
00000100
,
00000100
00000000
00000010
00000001
,
00000100
00000000
00000010
00000010
,
00000010
00000000
00001010
00000000
,
00011000
00000000
00220000
00000000
,
00330000
00000000
00010000
01000000
,
10000000
00000000
00100000
00000000
,
00011000
00000000
00000200
00000000
,
00000000
00000300
00000010
00000000
;

//---------------dance-double - ----------------
#NOTES:
     dance-double:
     :
     Medium:
     9:
     0.327398,0.457951,0.113777,0.162538,0.000000,282.000000,268.000000,14.000000,20.000000,0.000000,0.000000,0.327398,0.457951,0.113777,0.162538,0.000000,282.000000,268.000000,14.000000,20.000000,0.000000,0.000000:
// measure 0
00000000
00000000
00000000
00000000
,  // measure 1
00000000
00000000
00000000
00000000
,  // measure 2
00000000
00000000
00000000
00000000
,  // measure 3
00000000
00000000
00000000
00000000
,  // measure 4
00000000
00000000
00000000
00000000
,  // measure 5
00000000
00000000
00000000
00000020
,  // measure 6
00000000
00000000
00000030
00001000
,  // measure 7
00000100
00010000
00001000
00100000
,  // measure 8
00100000
00010000
01000000
00100000
,  // measure 9
00000000
00010000
00000000
01100000
,  // measure 10
00000000
00000000
00000000
00000000
00000000
00100000
00000000
00000000
,  // measure 11
00000000
00000000
00000000
00001000
,  // measure 12
00010000
00000100
00000100
00000010
,  // measure 13
00000001
00000010
00000010
00001000
,  // measure 14
00010000
01000000
01000000
10000000
,  // measure 15
00100000
00010000
00010000
00001000
,  // measure 16
00000100
00000000
00010000
00001000
00010000
00000000
00001000
00000000
,  // measure 17
00000100
00000000
00000001
00001000
00000001
00000000
00000010
00000000
,  // measure 18
00000100
00000000
00001000
00010000
00001000
00000000
00010000
00000000
,  // measure 19
00100000
00000000
00010000
10000000
00010000
00000000
00100000
00100000
,  // measure 20
00000000
00010000
01000000
00100000
,  // measure 21
00000000
00000000
00110000
00010000
,  // measure 22
01010000
00000000
00100000
00010000
00100000
00000000
00001000
00000000
,  // measure 23
00000100
00000010
00000011
00000100
,  // measure 24
00000101
00000000
00000010
00000001
00000010
00000000
00000001
00000000
,  // measure 25
00000100
00001000
00011000
00010000
,  // measure 26
01010000
00000000
01000000
00010000
01000000
00000000
00100000
00000000
,  // measure 27
00010000
10000000
00200000
00310000
,  // measure 28
00001000
00010000
00000200
00000000
,  // measure 29
00000000
00000300
00000000
00000000
00000010
00000000
00000010
00001000
,  // measure 30
00000000
00000000
00000100
00000000
00010000
00000000
00010000
00100000
,  // measure 31
00000000
00010000
02000000
03000000
,  // measure 32
00100000
00010000
10000000
10000000
,  // measure 33
01000000
00000000
00000000
00000000
00100000
00000000
00100000
00010000
,  // measure 34
00000000
00000000
00001000
00000000
00010000
00000000
00000100
00001000
,  // measure 35
00000000
00000100
00000020
00000030
,  // measure 36
00000001
00000100
00000010
00000010
,  // measure 37
00001000
00000000
00000000
00000000
00000100
00000000
00000100
00000001
,  // measure 38
00000000
00000000
00000010
00000000
00001000
00000000
00000100
00001000
,  // measure 39
00000000
00001000
00020000
00030000
,  // measure 40
00100000
00010000
01000000
01000000
,  // measure 41
00100000
00000000
00010000
00000000
10000000
00000000
10000000
00010000
,  // measure 42
00000000
00000000
00100000
00000000
00010000
00000000
01000000
00010000
,  // measure 43
00000000
00100000
00020000
00000000
,  // measure 44
00000000
00000000
00030000
00000000
00000000
00001000
00001000
00001000
,  // measure 45
00001000
00000000
00000100
00000010
,  // measure 46
00000010
00000001
00000010
00000000
00000001
00000000
00000100
00000000
,  // measure 47
00000100
00001000
00000100
00000000
00010000
00000000
00001000
00000000
,  // measure 48
00100000
00010000
00100000
00000000
01000000
00000000
00010000
00000000
,  // measure 49
10000000
00010000
10000000
00000000
00100000
00010000
00001000
00000000
,  // measure 50
00010000
00001000
00000100
00000000
00001000
00000000
00000010
00000000
,  // measure 51
00000100
00000000
00000001
00000000
00000001
00000010
00000100
00000000
,  // measure 52
00001000
00010000
00100000
00000000
01000000
00010000
00001000
00010000
,  // measure 53
00001000
00010000
00001000
00000000
00020000
00000000
00030000
00000000
,  // measure 54
02000000
03000000
00100000
00010000
,  // measure 55
10000000
01000000
00200000
00300000
,  // measure 56
00002000
00003000
00000100
00000010
,  // measure 57
00001000
00000010
00000200
00000300
,  // measure 58
00000002
00000003
00000100
00001000
,  // measure 59
00000010
00000100
00002000
00000000
,  // measure 60
00023000
00000000
00032000
00000000
,  // measure 61
00003000
00000000
00000000
00000000
00010000
00010000
00000000
00001000
,  // measure 62
00000000
00000000
00000000
00010000
00000000
00000000
01000000
00100000
,  // measure 63
00000000
00000000
00000000
00000000
01000000
01000000
00000000
00010000
,  // measure 64
00000000
00000000
00000000
00001000
00000000
00000000
00000000
00000010
,  // measure 65
00000000
00000000
00000000
00000000
00000100
00000100
00000000
00000010
,  // measure 66
00000000
00000000
00000000
00000001
00000000
00000000
00000100
00000001
,  // measure 67
00000000
00000000
00000000
00000000
00001000
00001000
00000000
00000100
,  // measure 68
00000000
00000000
00000000
00000002
00000000
00000000
00000000
00000000
,  // measure 69
00001003
00000000
00001100
00001000
,  // measure 70
00001010
00000000
00001000
00000100
00000010
00000000
00000100
00000000
,  // measure 71
00001000
00010000
00110000
00010000
,  // measure 72
01010000
00000000
00100000
00010000
01000000
00000000
10000000
00000000
,  // measure 73
00010000
00100000
00011000
00001000
,  // measure 74
00001010
00000000
00000100
00000010
00000001
00000000
00000010
00000000
,  // measure 75
00000100
00000100
00000020
00001030
,  // measure 76
00000100
00001000
00020000
00000000
,  // measure 77
00000000
00030000
00000000
00000000
00100000
00000000
00100000
00000000
,  // measure 78
01000000
00010000
00001000
00000000
,  // measure 79
00000110
00000000
00000200
00000000
,  // measure 80
00000000
00000300
00000010
00000000
;

//---------------dance-double - ----------------
#NOTES:
     dance-double:
     :
     Hard:
     12:
     0.436531,0.523373,0.154411,0.260061,0.004063,376.000000,357.000000,19.000000,32.000000,0.000000,0.000000,0.436531,0.523373,0.154411,0.260061,0.004063,376.000000,357.000000,19.000000,32.000000,0.000000,0.000000:
00000000
00000000
00000000
00000000
,
00000000
00000000
00000000
00000000
,
00000000
00000000
00000000
00000000
,
00000000
00000000
00000000
00000000
,
00000000
00000000
00000000
00000000
,
00000000
00000000
00000000
00000020
,
00000000
00000000
00000030
00001000
,
00000100
00000000
00010000
00000000
00001000
00000000
00010000
00001000
,
00010000
00001000
00010000
00000000
00001000
00000000
00100000
00000000
,
00010000
01000000
00100000
01100000
,
00000000
00000000
00000000
00000000
00000000
00000000
00000000
00000000
00000000
00000000
00000000
00020000
00000000
00000000
00000000
00000000
,
00000000
00030000
00000000
00001000
,
00010000
01000000
00010000
00000000
01000000
00000000
00100000
00000000
,
00001000
00010000
00001000
00000000
00000100
00000000
00000010
00000000
,
00000100
00000010
00000001
00000000
00000010
00000000
00001000
00000000
,
00000100
00001000
00010000
00000000
00100000
00000000
00100000
00010000
,
01000000
10000000
00010000
00000000
00100000
00000000
00001000
00010000
,
00001000
00010000
00000100
00000000
00001000
00000000
00001000
00000100
,
00000010
00000001
00000100
00000000
00000010
00000000
00001000
00100000
,
00010000
00100000
01000000
00000000
10000000
00000000
01000000
00010000
,
00000000
00100000
00100000
01000000
00010000
01000000
00100000
00000000
,
00000000
00000000
00000000
00000000
00010000
00100000
01000000
00010000
,
00001000
00000100
00001100
00001010
,
00000110
00000000
00001000
00000100
00000010
00001000
00010000
00001000
,
00100000
00001000
00011000
00101000
,
00100000
00000000
01000000
00010000
00100000
00010000
00001000
00000100
,
00010000
00010000
00011000
00001000
,
00001010
00000010
00002000
00013000
,
00010000
01000000
10000000
00000000
00020000
00000000
00000000
00000000
,
00000000
00030000
00000000
00000000
00002000
00000000
00003100
00001000
,
00000000
00000010
00001000
00000001
00000020
00000000
00000031
00000010
,
00000000
00000010
00000100
00001000
00000020
00000000
00000000
00000032
,
00000000
00000000
00000000
00000000
00001003
00000000
00001000
00000200
,
00000000
00000000
00000300
00000000
00020000
00000000
00031000
00010000
,
00000000
00100000
00010000
01000000
00200000
00000000
00310000
00100000
,
00000000
00010000
01000000
10000000
00010000
00010000
00100000
02000000
,
00000000
00000000
03010000
00000000
00010000
00001000
00010000
00000100
,
00000000
00000100
00000010
00000000
00000020
00000000
00000130
00000010
,
00000000
00001000
00000100
00000100
00002000
00000000
00003001
00001000
,
00000000
00000001
00000100
00000010
00002000
00000000
00000000
00003200
,
00000000
00000300
00000000
00000000
00010000
00000000
01000000
00010000
,
00100000
00000000
00010000
00000000
11000000
00000000
00100000
01010000
,
00000000
00001000
00010000
00000000
00001010
00000000
00000100
00000011
,
00000000
00000100
00001000
00000010
00000200
00000000
00000000
00000000
,
00000000
00000000
00000300
00000000
00000000
00000010
00000010
00000010
,
00000010
00000000
00001000
00000000
00001000
00000100
00010000
00001000
,
00010000
00001000
00100000
00010000
01000000
10000000
00100000
00010000
,
00001000
00010000
00001000
00000000
00000010
00001000
00000100
00001000
,
00000010
00000100
00000001
00000010
00000100
00001000
00000010
00001000
,
00000100
00000010
00000001
00000000
00000001
00000100
00001000
00010000
,
00001000
00100000
00010000
00001000
01000000
10000000
00100000
00010000
,
01000000
00010000
00001000
00000000
00010000
00100000
00010000
00001000
,
00000100
00001000
00000010
00000001
00000100
00000010
00001000
00000100
,
00001000
00001000
00010000
00000000
00002000
00000000
00000000
00000000
,
00013000
00000000
00100000
00010000
02000000
00000000
00000000
03010000
,
00000000
00100000
00010000
10000000
00020000
00000000
00000000
00000000
,
00032000
00000000
00000000
00000000
00003200
00000000
00000000
00000320
,
00000000
00000130
00000010
00000100
00002000
00000000
00000000
00000000
,
00003010
00000000
00000100
00000001
00000010
00000000
00000001
00000000
,
00000100
00000000
00000010
00000000
00001000
00010000
00001000
00010000
,
00100000
00010000
10000000
00010000
00200000
00000000
00000000
00000000
,
00000000
00000000
00300000
00000000
00010000
00010000
00000000
00001000
,
00000000
00000000
00010000
00001000
00000000
00000000
00000100
00002000
,
00000000
00003000
00000000
00000000
00000100
00000100
00000000
00000010
,
00000000
00000001
00000100
00002000
00000000
00000000
00000000
00000000
,
00013000
00000000
00000000
00000000
00010000
00010000
00000000
00100000
,
00000000
00010000
01000000
20000000
00000000
00000000
30100000
00020000
,
00000000
00000000
00030000
00000000
00010000
00010000
00000000
01000000
,
00000000
00010000
00001000
00020000
00000000
00000000
00000000
00000000
,
00031000
00000000
00100000
00001000
00010000
00001000
00000100
00000010
,
00000001
00000000
00000010
00000100
00001010
00000000
00000101
00000000
,
00000110
00000000
00000010
00000100
00001000
00010000
00100000
01000000
,
00100000
00000000
01000000
00000000
10010000
00000000
00010000
01000000
,
00100000
00000000
00010000
00000100
00001000
00000010
00000001
00000100
,
00000010
00001000
00010010
00001000
,
00011000
00000000
00010000
00100000
00001000
00000000
00001000
00000000
,
00010000
01000000
00010000
00000000
00200000
00000000
00000000
00000000
,
00000000
00300000
00000000
00000000
00010000
00000000
00001000
00000000
,
00000100
00001000
00000010
00000000
00000001
00000000
00000000
00000000
,
00000110
00000000
00000020
00000000
,
00000000
00000030
00000100
00000000
;

//---------------dance-single - ----------------
#NOTES:
     dance-single:
     :
     Challenge:
     14:
     0.566562,0.785059,0.268188,0.325076,0.260061,488.000000,455.000000,33.000000,40.000000,0.000000,0.000000,0.566562,0.785059,0.268188,0.325076,0.260061,488.000000,455.000000,33.000000,40.000000,0.000000,0.000000:
0000
0000
0000
0000
,
0000
0000
0000
0000
,
0000
0000
0000
0000
,
0000
0000
0000
0000
,
0000
0000
0000
0000
,
0000
0000
0000
0020
,
0030
0010
0000
0000
0100
0000
0010
0000
,
0001
0000
0100
0000
0000
0000
1000
0001
,
0100
0001
0010
0001
1000
0100
1000
0001
,
0100
0001
0010
1000
0100
1000
0110
0000
,
0000
0000
0000
0000
0000
0000
0000
0000
0000
0020
0000
0000
0000
0000
0000
0000
,
0000
0030
0000
1100
,
1001
0000
0001
0010
1000
0000
0110
0000
,
1010
0000
1000
0010
0100
0000
0101
0000
,
0011
0000
0010
0100
1000
0000
0110
0000
,
1001
0000
0100
0010
1000
0000
0001
1000
,
0100
1000
0010
0100
0001
0000
0100
0010
,
1000
0001
0010
0100
1000
0000
0001
1000
,
0100
1000
0001
0100
0010
0000
0001
0100
,
1000
0010
0001
0100
0010
0000
1000
1000
,
0000
0000
0010
0100
0001
0000
0001
0010
0100
0000
1000
0000
0010
0000
0100
0000
,
0000
0000
0100
1000
0010
1000
0100
0010
,
0001
0000
0100
0010
0110
0000
1100
0000
,
1010
0000
0000
0000
0001
0000
0100
0000
0010
0000
0100
1000
0100
0000
0010
0000
,
1000
0000
0000
0000
0001
0000
0000
0000
0101
0000
0000
0010
0100
0000
0001
0000
,
1000
0000
0010
0100
0011
0100
0010
1000
,
0101
0000
1000
0100
1010
0000
1001
0000
,
1100
0000
0010
0100
0001
0000
0200
0000
,
0310
1000
0001
0000
2200
0000
0000
0000
,
0000
0000
3300
0000
0000
0000
0000
0000
0010
0000
0000
0100
0001
0000
0100
0000
,
0000
0000
0010
1000
0100
0000
0100
0000
1000
0000
0000
0001
0010
0000
0001
0000
,
0000
0000
1000
0100
0010
0000
0001
0000
2000
0000
0000
0000
3010
0000
0200
0000
,
0000
0000
0301
0000
0020
0000
0130
2000
,
0000
0000
0000
0000
3010
0000
0000
0000
0100
0000
0000
0010
1000
0000
0100
0000
,
0000
0000
0001
0010
0001
0000
1000
0000
0100
0000
0000
0010
1000
0000
0100
0000
,
0000
0000
0010
1000
0001
0000
0100
0000
0010
1000
0001
0100
0010
0000
0200
0000
,
0000
0000
0000
0000
0000
0000
0000
0000
0320
0000
0000
0000
0000
0000
0200
0030
,
0000
0000
0000
0000
0301
0000
0000
0000
1000
0000
0000
0010
0100
0000
1000
0000
,
0000
0000
0010
0001
0100
0000
1000
0000
0001
0000
0000
0010
0100
0000
0100
0000
,
0000
0000
0001
1000
0010
0000
0100
0000
0002
0000
0000
0000
0000
0000
0203
0000
,
0000
0310
0002
0023
,
0230
0000
1300
0000
0110
0000
0001
0110
,
0000
0000
0001
1000
0100
0000
0010
0000
1010
0000
0000
0001
1000
0000
0100
0000
,
0000
0000
0010
1000
0100
0000
0001
0000
0200
0000
0000
0000
0010
0000
0000
0000
,
0001
0000
0000
0000
1000
0300
0010
0000
0000
0000
0001
0000
0001
0000
0001
0000
,
0001
0000
1000
0000
0010
0000
0100
0000
0010
1000
0100
0000
0010
0000
1000
0001
,
0100
0001
0010
1000
0001
0000
1000
0000
0100
0001
0010
0000
0001
0000
0010
0100
,
0010
0000
0100
0001
0100
0000
0010
0000
1000
0001
0010
0000
0100
0000
1000
0010
,
0100
0000
0001
0100
0010
0000
1000
0000
0001
1000
0001
0000
1000
0000
0010
1000
,
0100
0010
0100
0001
0100
0000
0000
0000
0100
0001
0010
0000
0001
0000
1000
0100
,
1000
0100
0010
0100
0001
0000
1000
0000
0001
0010
0100
0000
0100
0000
0010
0100
,
0001
0010
0001
0010
0100
0000
0000
0000
1000
0010
1000
0000
0100
0000
1000
0001
,
1000
0000
0010
0100
0001
0000
1000
0000
0010
0001
0010
0000
0100
0000
1000
0100
,
0010
0100
0001
0000
0200
0000
0310
0000
,
0002
0000
0103
0010
2000
0000
3100
0020
,
0000
0031
0100
0010
0200
0000
1300
0000
,
0020
0000
0031
1000
0002
0000
1003
0200
,
0000
0310
0010
0001
2000
0000
3100
0000
,
0001
0000
0010
0000
0100
0000
0001
0000
2000
0000
0000
0000
0200
3000
0000
0000
,
0320
0000
0000
0031
0000
0000
0010
1000
0001
1000
0001
1000
,
0100
1000
0001
1000
0010
1000
0020
0000
0000
0000
0000
0000
,
0030
0000
0000
0000
0010
0010
0000
0100
,
0000
0000
0001
0000
1000
0000
0100
0000
0000
0000
0000
0000
1000
0001
1000
0000
,
0000
0000
0000
0000
0100
0001
0000
1000
,
0000
0100
0010
0002
0000
0000
0000
0000
,
0103
0000
0010
1000
0010
0010
0000
0001
,
0000
0100
1000
0200
0000
0000
1300
0020
,
0000
0000
0030
0000
0100
0001
0000
1000
,
0000
0100
1000
0002
0000
0000
0000
0000
,
0103
0000
0010
0001
0100
0001
0010
0100
,
1000
0000
0010
0100
0110
0000
0011
0000
,
0101
0000
0000
0000
1000
0000
0010
0000
0100
0000
0010
0001
0010
0000
0100
0000
,
0001
0000
0000
0000
1000
0000
0000
0000
1010
0000
0000
0100
0010
0000
1000
0000
,
0001
0000
0100
0010
1100
0010
0100
0001
,
1010
0000
0001
0010
0101
0000
1001
0000
,
0011
0000
0100
0010
1000
0000
0020
0000
,
0130
0001
1000
0000
0022
0000
0000
0000
,
0000
0033
0000
0000
0010
0000
1000
0000
,
0100
0010
0001
0000
0020
0000
0030
0000
,
0100
0000
0000
0000
0000
0000
0010
0100
0010
1000
0100
0010
,
0200
0000
0000
0300
0110
0000
0000
0000
;

//---------------dance-double - ----------------
#NOTES:
     dance-double:
     :
     Challenge:
     14:
     0.525927,0.719638,0.284442,0.300696,0.142221,453.000000,418.000000,35.000000,37.000000,0.000000,0.000000,0.525927,0.719638,0.284442,0.300696,0.142221,453.000000,418.000000,35.000000,37.000000,0.000000,0.000000:
00000000
00000000
00000000
00000000
,
00000000
00000000
00000000
00000000
,
00000000
00000000
00000000
00000000
,
00000000
00000000
00000000
00000000
,
00000000
00000000
00000000
00000000
,
00000000
00000000
00000000
00001010
,
00000100
00001000
00000000
00000000
00000001
00000000
00000010
00000000
,
00000100
00000000
00000001
00000000
00000010
00000000
00000100
00001000
,
00010000
00001000
00010000
00001000
00100000
00010000
01000000
00100000
,
00010000
10000000
00100000
00000000
00010000
00000000
01100000
00000000
,
00000000
00000000
00000000
00000000
00000000
00000000
00000000
00000000
00000000
00000000
00000000
00200000
00000000
00000000
00000000
00000000
,
00000000
00000000
00000000
00000000
00000000
00300000
00000000
00000000
00000000
00000000
00000000
00000000
00010000
00000000
00000000
00000000
,
00001000
00000100
00001000
00000000
00000010
00000000
00000001
00000000
,
00000001
00000100
00001000
00000000
00000010
00000000
00011000
00000000
,
00010000
00100000
00010000
00000000
01000000
00000000
10000000
00000000
,
00100000
00010000
00100000
00000000
00010000
00000000
00011000
00000000
,
00000100
00001000
00000010
00000000
00000100
00000000
00000101
00000000
,
00000010
00001000
00000100
00000000
00001000
00000000
00011000
00000000
,
00100000
00010000
01000000
00000000
10000000
00000000
00110000
00000000
,
00010000
01000000
10000000
00000000
00100000
00000000
00010000
00001000
,
00000000
00000000
00010000
00000000
00000100
00000000
00001000
00000100
00001000
00000000
00000010
00000000
00001000
00000000
00000100
00000000
,
00000000
00000000
00000010
00000010
00001000
00000100
00000010
00000001
,
00000100
00000000
00000100
00001000
00011000
00000000
00101000
00000000
,
01100000
00000000
00010000
00100000
10000000
01000000
00010000
10000000
,
01000000
00000000
00000000
00000000
00010000
00000000
00000000
00000000
00011000
00000000
00000000
00000100
00010000
00000000
00001000
00000000
,
00000100
00000000
00001000
00000100
00000011
00000010
00000100
00000010
,
00000101
00000000
00000010
00000100
00001001
00000000
00001100
00000000
,
00011000
00000000
00010000
00100000
02000000
00000000
23000000
00000000
,
30010000
00100000
00010000
00000000
02200000
00000000
00000000
00000000
,
00000000
00000000
03300000
00000000
00000000
00000000
00000000
00000000
00100000
00000000
00000000
00001000
00010000
00000000
00001000
00000000
,
00000000
00000000
00000100
00001000
00000010
00000000
00000100
00000000
00001000
00000000
00000000
00000010
00000001
00000000
00000100
00000000
,
00000000
00001000
00000010
00000100
00000002
00000000
00000103
00002000
,
00000000
00000000
00013000
00000000
00020000
00000000
01030000
20000000
,
00000000
00000000
00000000
00000000
00000000
30000000
00000000
00000000
00100000
00000000
00000000
00100000
00010000
00000000
00001000
00000000
,
00000000
00000000
00000010
00001000
00000100
00000000
00000001
00000000
00001000
00000000
00000000
00000010
00001000
00000000
00000010
00000000
,
00000000
00000000
00000100
00000000
00000001
00000000
00000010
00000000
00000010
00001000
00000010
00001000
00000100
00000000
00000020
00000000
,
00000000
00000000
00000000
00000000
00020030
00000000
00031000
00020000
,
00000000
00000000
00000000
00000000
00000000
00000000
00030000
00000000
00110000
00000000
00000000
10000000
01000000
00000000
00100000
00000000
,
00000000
00000000
00010000
00000000
10000000
00000000
00100000
00000000
00010000
00000000
00000000
00001000
00010000
00000000
00000100
00000000
,
00000000
00000000
00010000
00001000
00000100
00000000
00001000
00000000
00000020
00000000
00000000
00000000
00000130
00000000
00000002
00000000
,
00000000
00000000
00000000
00000000
00000103
00001000
00000100
00001000
,
00010000
00000000
00000000
00010000
00000000
00000000
00001000
00000000
00011000
00000000
00000000
00000000
01000000
00000000
01010000
00000000
,
00000000
00100000
00010000
10000000
10010000
00000000
00010000
00011000
,
00000000
00000000
00000100
00001000
00000100
00000000
00001000
00000000
00000020
00000000
00000000
00000000
00002030
00000000
00000000
00000000
,
00003200
00000000
00000310
00000000
00000000
00000100
00000100
00000100
,
00000100
00000000
00000000
00000000
00000010
00000000
00000000
00000000
00000010
00001000
00000010
00000000
00000001
00000000
00000100
00000010
,
00000100
00000000
00000010
00001000
00000100
00000000
00010000
00000000
00010000
00000100
00001000
00000000
00010000
00000000
00010000
00000000
,
00100000
00000000
00010000
00000000
01000000
00000000
10000000
00000000
00010000
00100000
00010000
00000000
00100000
00000000
01000000
00001000
,
00010000
00000000
00010000
00000100
00000010
00000000
00001000
00000000
00000100
00000000
00000010
00000000
00000001
00000000
00000100
00000010
,
00000100
00000000
00000100
00000001
00000010
00000000
00000000
00000000
00001000
00000100
00001000
00000000
00000010
00000000
00001000
00000000
,
00000001
00000000
00000010
00000100
00000001
00000000
00001000
00000000
00000100
00010000
00000100
00000000
00010000
00000000
00001000
00000000
,
00010000
00000000
00100000
00000000
00010000
00000000
00000000
00000000
10000000
00010000
10000000
00000000
00010000
00000000
00100000
00000000
,
00010000
00001000
00000010
00000100
00000001
00000100
00001000
00010000
,
00010000
00100000
01000000
00000000
00020000
00000000
20030000
00000000
,
30020000
00000000
00032000
00000000
00003010
00000000
00000001
00000100
,
00000000
00000010
00000001
00000010
00000200
00000000
00002300
00000000
,
00023000
00000000
00000000
00030000
02000000
00000000
00000000
00000000
03100000
00000000
00000000
00000000
10000000
00000000
01000000
00000000
,
00000000
00100000
00100000
00010000
00002000
00000000
00003200
00000000
,
00000302
00000000
00001003
00000100
00000010
00000000
00000001
00001000
,
00000010
00000000
00000100
00000000
00000010
00001000
00000100
00010000
,
00001000
00000100
00010000
00100000
20000000
00000000
00000000
00000000
,
00000000
00000000
30000000
00000000
00100000
00100000
00000000
00010000
,
00000000
00000000
00001000
00000000
00010000
00000000
00000100
00000000
00000000
00000000
00000000
00000000
00010000
00001000
00010000
00000000
,
00000000
00000000
00000000
00000000
00000100
00001000
00000000
00000100
,
00000000
00000010
00000001
00000200
00000000
00000000
00000000
00000000
,
00000310
00000000
00001000
00001000
00000010
00000100
00000000
00010000
,
00000000
00000000
00010000
00000000
00001000
00000000
00200000
00000000
00000000
00000000
00000000
00300000
00010000
00000000
02000000
00000000
,
00000000
00000000
00000000
03000000
00010000
10000000
00000000
01000000
,
00000000
00100000
00010000
02000000
00000000
00000000
00000000
00000000
,
03100000
00000000
01000000
01000000
00010000
00100000
01000000
10000000
,
00100000
00000000
00100000
00010000
00011000
00000000
00010100
00000000
,
00000110
00000000
00001000
00000100
00000001
00000010
00001000
00000001
,
00000010
00000000
00000000
00000000
00001000
00000000
00000000
00000000
00011000
00000000
00000000
00100000
00001000
00000000
00010000
00000000
,
00100000
00000000
00010000
00100000
11000000
01000000
00100000
01000000
,
10100000
00000000
01000000
00100000
10010000
00000000
00110000
00000000
,
00011000
00000000
00001000
00000100
00000020
00000000
00000032
00000000
,
00001003
00000100
00001000
00000000
00000220
00000000
00000000
00000000
,
00000000
00000330
00000000
00000000
00001000
00000000
00000100
00000000
,
00010000
00100000
00010000
00000000
00011000
00000000
00000000
00000000
,
00101000
00000000
00000000
00000000
00000000
00000000
00100000
00010000
00001000
00000100
00000010
00000001
,
00000010
00000000
00000110
00000000
;
