#TITLE:가시나;
#SUBTITLE:;
#ARTIST:SUNMI;
#TITLETRANSLIT:Gashina;
#SUBTITLETRANSLIT:;
#ARTISTTRANSLIT:SUNMI;
#GENRE:K-POP;
#CREDIT:SAIKIO;
#BANNER:Gashina-banner.png;
#BACKGROUND:bg.png;
#LYRICSPATH:;
#CDTITLE:Saikio Simfiles.png;
#MUSIC:Gashina.ogg;
#OFFSET:0.285000;
#SAMPLESTART:49.654995;
#SAMPLELENGTH:16.139973;
#SELECTABLE:YES;
#BPMS:0.000000=94.010002
;
#STOPS:144.000000=2.553000
;
#BGCHANGES:0.500=Gashina.avi=1.000=0=0=0=StretchNoLoop====,
99999=-nosongbg-=1.000=0=0=0 // don't automatically add -songbackground-
;
#KEYSOUNDS:;
#ATTACKS:;

//---------------dance-single - ----------------
#NOTES:
     dance-single:
     :
     Beginner:
     2:
     0.105785,0.128851,0.000000,0.000000,0.000000,88.000000,88.000000,0.000000,0.000000,0.000000,0.000000,0.105785,0.128851,0.000000,0.000000,0.000000,88.000000,88.000000,0.000000,0.000000,0.000000,0.000000:
// measure 0
0000
0000
0000
0000
,  // measure 1
0000
0000
0000
0000
,  // measure 2
0000
0000
0000
0000
,  // measure 3
0000
0000
0000
0000
,  // measure 4
0000
1000
0000
1000
,  // measure 5
0000
0000
0000
0000
,  // measure 6
0000
0010
0000
0010
,  // measure 7
0000
0000
0000
0000
,  // measure 8
0000
1000
0000
1000
,  // measure 9
0000
0100
0000
0100
,  // measure 10
0000
0001
0000
0001
,  // measure 11
0000
0100
0000
0100
,  // measure 12
0100
0000
0010
0000
,  // measure 13
0001
0000
0100
0000
,  // measure 14
1000
0000
0100
0100
,  // measure 15
0000
0010
0000
0010
,  // measure 16
0000
0001
0001
0001
,  // measure 17
0000
1000
1000
1000
,  // measure 18
0000
0100
0100
0100
,  // measure 19
0000
0100
0000
0000
,  // measure 20
0000
0001
0001
0000
,  // measure 21
0010
0000
1000
1000
,  // measure 22
0000
0100
0000
0001
,  // measure 23
0001
0000
0010
0010
,  // measure 24
0000
1000
1000
0100
,  // measure 25
0000
0001
0001
0100
,  // measure 26
0000
0010
0000
0100
,  // measure 27
0000
1000
1000
0001
,  // measure 28
0000
1000
0000
0000
,  // measure 29
0000
0100
0000
0000
,  // measure 30
0000
0010
0000
0000
,  // measure 31
0000
0001
0000
0001
,  // measure 32
0000
0100
0000
0100
,  // measure 33
0100
0000
0010
1000
,  // measure 34
0000
1000
0000
0100
,  // measure 35
0000
1000
0000
0000
,  // measure 36
0000
0001
1000
0001
,  // measure 37
0000
0100
0010
0100
,  // measure 38
0000
1000
0001
1000
,  // measure 39
0000
0010
0100
0010
,  // measure 40
0000
0001
0001
1000
,  // measure 41
0000
1000
1000
0001
,  // measure 42
0000
0100
0000
0010
,  // measure 43
0000
0100
0010
0010
;

//---------------dance-single - ----------------
#NOTES:
     dance-single:
     :
     Easy:
     4:
     0.149061,0.202480,0.016829,0.058903,0.000000,124.000000,122.000000,2.000000,7.000000,0.000000,0.000000,0.149061,0.202480,0.016829,0.058903,0.000000,124.000000,122.000000,2.000000,7.000000,0.000000,0.000000:
0000
0000
0000
0000
,
0000
0000
0000
0000
,
0000
0000
0000
0000
,
0000
0000
0000
0000
,
0000
0001
0001
0100
,
0100
0000
0010
0000
,
0000
1000
1000
0010
,
0010
0000
0100
0000
,
0000
1000
0100
1000
,
1000
0100
0000
0100
,
0000
0010
0001
0001
,
0010
0000
1000
0000
,
0100
2000
0000
0000
,
3000
0002
0000
0000
,
0003
0100
0100
0010
,
0000
0001
0000
0100
,
1000
0000
1000
0100
,
1000
0000
0010
0001
,
0010
0000
0001
0100
,
1000
0100
0000
0000
,
0000
0001
0001
0010
,
0100
1000
1000
0100
,
1000
0010
0010
0001
,
1000
0100
0100
0001
,
0010
1000
0100
0001
,
0000
0001
0010
1000
,
0000
0100
0000
0010
,
0000
0001
0100
0020
,
0030
0001
0100
0200
,
0300
1000
0010
0020
,
0030
0100
1000
1000
,
0100
0010
1000
0100
,
0000
0001
0001
1000
,
1000
0001
1000
0010
,
0000
0100
0100
0010
,
0010
0200
0000
0000
,
0300
0001
0100
1000
,
1000
0010
0001
0010
,
0010
0100
1000
0100
,
0100
1000
0010
0001
,
0001
1000
0100
1100
,
0010
0100
0001
0101
,
0010
0010
0100
0100
,
0001
0100
0020
0030
;

//---------------dance-single - ----------------
#NOTES:
     dance-single:
     :
     Medium:
     8:
     0.234411,0.294516,0.075733,0.058903,0.000000,195.000000,186.000000,9.000000,7.000000,0.000000,0.000000,0.234411,0.294516,0.075733,0.058903,0.000000,195.000000,186.000000,9.000000,7.000000,0.000000,0.000000:
0000
0000
0000
0000
,
0000
0000
0000
0000
,
0000
0000
0000
0000
,
0000
0000
0000
0000
,
0000
0000
1000
0000
0100
0000
0010
0010
,
0100
0000
0000
0000
,
0000
0000
0001
0000
0100
0000
0001
0001
,
0100
0000
0000
0000
,
0000
0000
0010
1000
0010
0000
0100
0000
,
0001
0000
0100
0001
0100
0000
0010
0000
,
0100
0000
0001
0010
0100
0000
1000
0100
,
0010
1000
0010
0100
,
0000
0000
0020
0000
0000
0000
0031
0001
,
0100
0000
2000
0000
0000
0000
3100
0100
,
1000
0010
0010
0001
,
0100
1000
0000
0000
0000
0100
0010
0000
,
0010
0000
0001
0000
1000
0001
0100
0000
,
1000
0000
1000
0000
0001
0100
1000
0000
,
0100
0000
0010
0010
0100
0100
0010
0010
,
0100
0100
0100
0000
0000
0000
0000
0000
,
0000
0000
0100
1000
0010
0000
1100
0000
,
0100
0000
0001
1000
0100
0000
0011
0000
,
0001
0000
1000
0010
0100
0000
1001
0000
,
1000
0000
0100
0010
0001
0000
0001
0010
,
0100
0000
1000
1000
0001
0010
0100
0000
,
0010
0010
0100
0000
1000
0001
0100
0000
,
1000
0010
1000
0000
0001
0100
0010
0000
,
1000
0000
0001
0100
1000
0000
0002
0000
,
0003
0200
0000
1000
,
0301
0020
0000
1000
,
0130
0002
0000
0010
,
0103
0000
0010
0010
1000
0000
0100
0000
,
0010
0000
1000
0001
1000
0000
0010
0100
,
0010
0000
0001
1000
0100
1000
0001
0000
,
0010
0000
0100
0100
0010
0010
0100
0100
,
0001
0200
0000
0000
,
0300
0000
1000
0100
0001
0000
0011
0000
,
0110
0000
0001
1000
0100
0000
1001
0000
,
1010
0000
1000
0001
0010
0000
0110
0000
,
0101
0000
1000
0010
0001
0000
0100
0010
,
1000
0010
0010
1000
0100
1000
1000
0000
,
0100
0100
0010
0100
0001
0100
0010
0000
,
0100
0100
0001
0000
1000
1000
0010
0000
,
0100
0000
0010
0010
0100
0000
0010
0000
;

//---------------dance-single - ----------------
#NOTES:
     dance-single:
     :
     Hard:
     11:
     0.372653,0.441774,0.218783,0.075733,0.273479,310.000000,284.000000,26.000000,9.000000,0.000000,0.000000,0.372653,0.441774,0.218783,0.075733,0.273479,310.000000,284.000000,26.000000,9.000000,0.000000,0.000000:
0000
0000
0000
0000
,
0000
0000
0000
0000
,
0000
0000
0000
0000
,
0000
0000
0000
0000
,
0000
0000
1000
1000
0100
0000
0010
0010
,
0001
0000
1000
0010
0000
0000
0100
0000
0000
0100
0000
0001
0000
0000
0010
0000
,
0000
0010
0000
1000
0000
0000
0001
0000
0010
0000
0001
0000
0100
0010
0100
0000
,
0001
0000
0010
1000
0000
0000
0000
0000
0000
0000
0100
0000
0000
0000
0000
0000
,
0000
0000
0010
0000
1000
0100
1000
0000
0010
0000
0010
0000
0001
1000
0001
0000
,
0010
0000
0100
0010
0000
0000
0001
0000
0000
0001
0000
0010
0000
0000
1000
0000
,
0000
1000
0000
0100
0010
0000
0010
0000
0001
0000
1000
0100
1000
0000
0100
0000
,
0100
0020
0000
0030
0000
0000
1000
0000
,
1000
0000
0010
0000
0002
0000
0000
0000
1000
0000
0010
0000
1003
0000
0010
0100
,
0010
0000
0100
0000
2000
0000
0000
0000
0100
0000
0010
0000
3100
0000
0001
1000
,
0001
0000
1000
0000
0110
0000
0000
0000
1000
0010
1000
0010
0100
0000
0100
0000
,
0000
0001
0000
0000
0000
0020
0030
0000
,
1000
0000
1000
0000
0001
0000
1000
0100
1000
0000
0010
0000
1000
0000
0001
0000
,
0100
0000
0100
0000
0010
0000
0001
0010
0001
0000
0100
0000
1000
0000
0100
0000
,
0010
0001
0101
0101
1100
1100
0001
0110
,
0110
0010
0200
0300
0000
0000
0000
0000
,
0000
0000
0000
0000
0010
0000
0010
1000
0000
0100
0000
0000
0001
0000
0000
0100
,
0000
0000
1100
0000
0001
0000
0001
0010
0000
0100
0000
0000
0010
0000
0000
0001
,
0000
0000
0011
0000
1000
0000
1000
0001
0000
0100
0000
0000
1001
0000
0000
0010
,
0000
0000
0110
0000
0001
0000
0100
0010
0000
0001
0000
0001
1000
0000
0010
1000
,
0010
1000
0010
0000
0100
0000
0100
0000
0001
0000
0001
0000
0100
0000
0000
0000
,
0010
1000
0100
1000
0010
0000
0010
0000
0100
0000
0100
0000
0010
0000
0000
0000
,
0010
1000
0001
0000
1000
0000
0010
0000
1000
0001
0100
0000
0010
0000
0001
0000
,
0100
0001
0001
0010
0101
0100
0010
0000
,
0000
0000
0000
0000
0200
0000
0000
0000
0010
1000
0000
0000
0010
0000
0000
0000
,
0301
0000
0000
0000
0020
0000
0000
0000
0100
0001
0000
0000
0100
0000
0000
0000
,
1030
0000
0000
0000
0002
0000
0000
0000
1000
0010
0000
0000
1000
0000
0000
0000
,
0013
0000
1100
0001
0100
0010
0100
0100
,
0001
0000
0000
0000
1000
0000
1000
0010
0100
0000
0001
0000
0100
0000
0010
1000
,
0100
0000
0001
0000
1000
0000
1000
0001
1000
0001
1000
0000
0010
0000
0000
0000
,
0000
1000
1001
0010
1010
0100
0101
0010
,
1000
0001
1000
0000
0200
0000
0000
0000
0000
0000
0000
0000
0000
0000
0000
0000
,
0300
0000
0000
0000
1000
0000
0001
0010
0000
0100
0000
0000
0011
0000
0000
1001
,
0000
0000
1100
0000
0001
0000
0100
0010
0000
1000
0000
0000
1010
0000
0000
1001
,
0000
0000
0101
0000
1000
0000
0100
0001
0000
0010
0000
0000
0110
0000
0000
0101
,
0000
0000
1010
0000
0100
0000
0010
0000
0000
0001
0000
1000
0010
0000
0100
0001
,
0100
0001
0100
0010
1000
0000
1000
0000
0100
0000
0100
0000
0010
0000
0000
0000
,
0001
1000
0001
0100
0010
0000
0010
0000
1000
0000
1000
0000
0100
0000
0000
0000
,
0010
0001
0100
0000
1000
0000
1000
0000
0100
1000
0010
0000
0001
0000
0001
0000
,
1000
0010
0100
0110
0001
0100
0010
0000
;

//---------------dance-double - ----------------
#NOTES:
     dance-double:
     :
     Easy:
     4:
     0.153870,0.165665,0.008415,0.067318,0.000000,128.000000,127.000000,1.000000,8.000000,0.000000,0.000000,0.153870,0.165665,0.008415,0.067318,0.000000,128.000000,127.000000,1.000000,8.000000,0.000000,0.000000:
00000000
00000000
00000000
00000000
,
00000000
00000000
00000000
00000000
,
00000000
00000000
00000000
00000000
,
00000000
00000000
00000000
00000000
,
00000000
00002000
00003000
00010000
,
01000000
00000000
00100000
00000000
,
00000000
20000000
30000000
01000000
,
00100000
00000000
00001000
00000000
,
00000000
00010000
01000000
10000000
,
01000000
00000000
00100000
00000000
,
00010000
00001000
00001000
00000100
,
00000010
00000000
00000010
00000001
,
00000000
00000200
00000300
00000010
,
00000010
00020000
00030000
00100000
,
00100000
00010000
01000000
01000000
,
00000000
00010000
00000000
00001000
,
00010000
00000000
00001000
00010000
,
01000000
00000000
10000000
01000000
,
00010000
00001000
00010000
01000000
,
00010000
00011000
00000000
00000000
,
00000000
00000100
00001000
00100000
,
00100000
00010000
00001000
01000000
,
01000000
00100000
00001000
00000010
,
00000010
00000001
00000100
00001000
,
00001000
00000001
00001000
00100000
,
00000000
00100000
00010000
00001000
,
00000000
00001000
01000000
00100000
,
00000000
10000000
00100000
00010000
,
00000000
00002000
00003000
00000100
,
00000010
00000020
00000030
00000001
,
00001000
02000000
03000000
01000000
,
00010000
10000000
10000000
01000000
,
00100000
00001000
00010000
00001000
,
01000000
00100000
10000000
01000000
,
00000000
00001000
00001000
00100000
,
00010000
02000000
00000000
00000000
,
03000000
00100000
00100000
00010000
,
00001000
00000100
00000100
00000001
,
00000100
00000010
00000010
00001000
,
00010000
01000000
01000000
10000000
,
01000000
00100000
00010000
00001000
,
00000100
00000100
00000010
00000100
,
00000001
00000100
00001000
00010000
,
00100000
00010000
01000000
00100000
;

//---------------dance-double - ----------------
#NOTES:
     dance-double:
     :
     Medium:
     9:
     0.259655,0.294516,0.033659,0.042074,0.000000,216.000000,212.000000,4.000000,5.000000,0.000000,0.000000,0.259655,0.294516,0.033659,0.042074,0.000000,216.000000,212.000000,4.000000,5.000000,0.000000,0.000000:
00000000
00000000
00000000
00000000
,
00000000
00000000
00000000
00000000
,
00000000
00000000
00000000
00000000
,
00000000
00000000
00000000
00000000
,
00000000
00000000
00001000
00010000
00100000
00000000
00010000
01000000
,
00010000
00100000
00000000
00100000
,
00000000
00000000
00010000
00001000
00000100
00000000
00000010
00000100
,
00000010
00000000
00000100
00000000
00000000
00000100
00000000
00000000
,
00000000
00000000
00010000
01000000
10000000
00000000
01000000
00100000
,
10000000
00000000
00100000
00000000
00001000
00000000
00000100
00001000
,
00000100
00000000
00000010
00000100
00000001
00000000
00000010
00000100
,
00000000
00000010
00000010
00000000
00000000
00000000
00000100
00000000
,
00001000
00000000
01000000
00000000
00010000
01000000
00010000
00000000
,
00100000
00000000
00001000
00000000
00000100
00001000
00000100
00000000
,
00000010
00000000
00000001
00000000
00000010
00000001
00000100
00001000
,
00000000
00200000
00000000
00300000
00000000
00100000
00100000
00000000
,
10000000
00010000
00000000
00000000
00010000
00010000
00000100
00001000
,
00000100
00000000
00001000
00000000
00000010
00000010
00000001
00000100
,
00000001
00000010
00000100
00001000
00001000
00010000
00001000
00001000
,
00010000
00011000
00000000
00000000
,
00000000
00000000
00100000
00010000
00100000
00000000
01000000
00000000
,
01000000
00100000
00010000
00001000
00010000
00000000
00000010
00000000
,
00000010
00001000
00000001
00000010
00000001
00000000
00001000
00000000
,
00001000
00000010
00000100
00001000
00010000
00000000
01000000
00100000
,
01000000
00000000
00100000
00010000
01000000
10000000
00100000
00000000
,
00001000
00010000
00001000
00000000
00000100
00000001
00000010
00000000
,
00000100
00001000
00001000
00000000
00100000
01000000
01000000
00000000
,
00100000
00000000
00010000
00001000
00010000
00000000
00000010
00000000
,
00000000
00000000
00002000
00000000
00003100
00000000
00000001
00000001
,
00000001
00000000
00000020
00000000
00001030
00000000
00100000
00100000
,
00100000
00000000
02000000
00000000
03010000
00000000
10000000
10000000
,
10000000
00000000
00100000
00010000
00100000
00000000
00000100
00001000
,
00000100
00000000
00000001
00000010
00000010
00000001
00000100
00000010
,
00000100
00000000
00010000
00100000
00100000
00010000
01000000
00000000
,
00000000
00010000
10000000
00010000
01000000
00001000
00010000
00001000
,
00100000
00001000
02000000
00000000
00000000
00000000
00000000
00000000
,
03000000
00000000
00100000
00010000
00001000
00000000
00001010
00000000
,
00000001
00000001
00001000
00000010
00001000
00000000
00101000
00000000
,
00010000
00010000
10000000
01000000
00010000
00000000
10010000
00000000
,
00100000
00100000
00010000
00001000
00000100
00000000
00000010
00000001
,
00000010
00000000
00001000
00000010
00000100
00010000
00010000
00000000
,
01000000
00010000
10000000
00100000
00010000
00001000
00001000
00000000
,
00010000
00100000
01000000
00000000
00001000
00000100
00000010
00000000
,
00000100
00000000
00001000
00010000
00001000
00000000
00100000
00000000
;

//---------------dance-double - ----------------
#NOTES:
     dance-double:
     :
     Hard:
     11:
     0.354621,0.478589,0.269272,0.084147,0.180917,295.000000,263.000000,32.000000,10.000000,0.000000,0.000000,0.354621,0.478589,0.269272,0.084147,0.180917,295.000000,263.000000,32.000000,10.000000,0.000000,0.000000:
00000000
00000000
00000000
00000000
,
00000000
00000000
00000000
00000000
,
00000000
00000000
00000000
00000000
,
00000000
00000000
00000000
00000000
,
00000000
00000000
10000000
00010000
00100000
00010000
01000000
00010000
,
00100000
00000000
00010000
00001000
00000000
00000000
00000000
00000000
00000000
00000000
00000000
00000000
00000000
00000000
00000000
00000000
,
00000000
00000100
00001000
00000100
00000010
00000100
00000001
00000100
,
00000010
00000000
00001000
00010000
00000000
00000000
00000000
00000000
00000000
00000000
00100000
00000000
00000000
00000000
00000000
00000000
,
00000000
00000000
01000000
00000000
10000000
01000000
10000000
00000000
00100000
00000000
00010000
00000000
01000000
00000000
00010000
00100000
,
00000000
00010000
00100000
00010000
00000000
00000000
00001000
00000000
00000000
00001000
00000000
00000100
00000000
00000000
00000100
00000000
,
00000010
00000000
00000000
00000001
00000010
00000000
00001000
00000000
00000100
00000000
00001000
00000000
00000100
00000000
00000010
00000000
,
00001000
00000000
00010000
00100000
00000000
00000000
10000000
00000000
00000000
10000000
00000000
00000000
01000000
00000000
00000000
00000000
,
00000000
00100000
00000000
00000000
00010000
00010000
00001000
00000100
,
00000010
00000100
00000002
00000000
00001003
00001000
00000100
00010000
,
00100000
00010000
20000000
00000000
30010000
00100000
00010000
01000000
,
00000000
00001000
00000000
00000000
00000000
00020000
00000000
00030000
,
01010000
00000000
01010000
00000000
00100000
00000000
10000000
00010000
10000000
00000000
01000000
00000000
00010000
00000000
00100000
00001000
,
00100000
00000000
00000100
00000000
00000010
00000000
00000001
00000100
00000001
00000000
00001000
00000000
00000010
00000000
00001000
00000100
,
00001000
00000010
00001100
00001100
00011000
00010000
01010000
01010000
,
00001000
00011000
00022000
00000000
00033000
00000000
00000000
00000000
,
00000000
00000000
00000000
00000000
10000000
00000000
10000000
00000000
00000000
01000000
00000000
00000000
00010000
00000000
00000000
00001100
,
00000000
00000000
00010000
00000000
00000010
00000000
00000010
00000000
00000000
00000001
00000000
00000000
00000010
00000000
00000000
00000101
,
00000000
00000000
00000010
00000000
00010000
00000000
00010000
00000000
00000000
00001000
00000000
00000000
00010000
00000000
00000000
01100000
,
00000000
00000000
00010000
00000000
00100000
00000000
00001000
00000000
00000000
00001000
00000000
00000000
00010000
00000000
00001000
00010000
,
00000100
00010000
00001000
00000000
00000100
00000000
00000100
00000000
00000001
00000000
00000010
00000000
00000100
00000000
00000000
00000000
,
00010000
00001000
00010000
00000000
00100000
00000000
00010000
00000000
10000000
00000000
01000000
00000000
00100000
00000000
00000000
00000000
,
00001000
01000000
00001000
00000000
00000100
00000000
00000010
00000000
00010000
00000100
00010000
00000000
01000000
00000000
00000000
00000000
,
00010000
00001000
00001000
00110000
00010000
10000000
00200000
00000000
,
00300000
00000000
00000000
00000000
00020000
00000000
00000000
00000000
00130000
01000000
00000000
00000000
01000000
00000000
00000000
00000000
,
00110000
00000000
00000000
00000000
00002000
00000000
00000000
00000000
00003100
00000010
00000000
00000000
00000010
00000000
00000000
00000000
,
00001100
00000000
00000000
00000000
00000002
00000000
00000000
00000000
00001003
00000010
00000000
00000000
00000010
00000000
00000000
00000000
,
00011000
00000000
00010000
00100000
00010000
01000000
10000000
00100000
,
00010000
00000000
00000000
00000000
01000000
00000000
00010000
01000000
00010000
00000000
00100000
00001000
00010000
00000000
00001000
00000000
,
00000100
00000000
00000001
00000000
00000010
00000000
00000100
00001000
00000100
00000000
00000010
00000000
00001010
00000000
00000000
00000000
,
00001000
00010000
00110000
00110000
00001000
00001000
00010100
00010100
,
00001000
00010000
02000000
00000000
00000000
00000000
00000000
00000000
,
03000000
00000000
00000000
00000000
00010000
00000000
00100000
00000000
00000000
01000000
00000000
00000000
01010000
00000000
00000000
00101000
,
00000000
00000000
00011000
00000000
00000100
00000000
00000010
00000000
00000000
00000100
00000000
00000000
00000101
00000000
00000000
00010010
,
00000000
00000000
00011000
00000000
00100000
00000000
00001000
00000000
00000000
00010000
00000000
00000000
00110000
00000000
00000000
10010000
,
00000000
00000000
01100000
00000000
00010000
00000000
00001000
00000000
00000100
00000000
00000010
00000000
00001000
00000000
00000100
00000010
,
00000100
00000010
00000100
00000000
00000001
00000000
00000001
00000000
00000100
00000000
00000001
00000000
00000101
00000000
00000000
00000000
,
00001000
00001000
01000000
00100000
00010000
00100000
00110000
00000000
,
01000000
00000000
00100000
10000000
00100000
00000000
01000000
00000000
00010000
00000000
00100000
00001000
00100000
00000000
00010000
00000000
,
00000000
00000100
00000010
00000100
00010000
00010000
00100000
00000000
;
