#TITLE:뚜두뚜두;
#SUBTITLE:;
#ARTIST:BLΛCKPINK;
#TITLETRANSLIT:DDU-DU DDU-DU;
#SUBTITLETRANSLIT:;
#ARTISTTRANSLIT:BLACKPINK;
#GENRE:K-POP;
#CREDIT:SAIKIO;
#BANNER:DDU-DU DDU-DU-banner.png;
#BACKGROUND:DDU-DU DDU-DU-BG.png;
#LYRICSPATH:;
#CDTITLE:Saikio Simfiles.png;
#MUSIC:DDU-DU DDU-DU.ogg;
#OFFSET:0.425000;
#SAMPLESTART:66.855026;
#SAMPLELENGTH:15.499968;
#SELECTABLE:YES;
#DISPLAYBPM:140.000000;
#BPMS:0.000000=140.009995
;
#STOPS:
;
#BGCHANGES:0.700=DDU-DU DDU-DU.avi=1.000=0=0=0=StretchNoLoop====,
99999=-nosongbg-=1.000=0=0=0 // don't automatically add -songbackground-
;
#KEYSOUNDS:;
#ATTACKS:;

//---------------dance-single - ----------------
#NOTES:
     dance-single:
     :
     Beginner:
     3:
     0.154530,0.201209,0.000000,0.014327,0.000000,151.000000,151.000000,0.000000,2.000000,0.000000,0.000000,0.154530,0.201209,0.000000,0.014327,0.000000,151.000000,151.000000,0.000000,2.000000,0.000000,0.000000:
0000
0000
0000
0000
,
0000
0000
0000
0000
,
0000
0000
0000
0000
,
0000
0000
0000
0000
,
0000
1000
0000
0001
,
0000
1000
0000
0000
,
0000
0010
0000
0100
,
0000
0010
0000
0000
,
0000
1000
0000
0000
,
0000
0100
0100
0000
,
0000
0001
0000
0000
,
0000
0010
0010
0000
,
0000
1000
0000
0001
,
0000
0100
0000
0000
,
0000
0001
0000
1000
,
0000
0010
0000
0000
,
0000
1000
0000
0100
,
0000
1000
0000
0100
,
0000
0010
0000
0001
,
0000
0010
0000
0001
,
0000
1000
0000
1000
,
0000
0100
0000
0100
,
0000
0001
0000
0001
,
0000
0010
0000
0010
,
0000
0200
0000
0000
,
0300
0000
0000
0000
,
0000
0010
0000
0010
,
0000
0010
0000
0100
,
0000
0002
0000
0000
,
0003
0000
0000
0000
,
0000
1000
0000
1000
,
0000
1000
0000
0001
,
0000
0010
0000
1000
,
0000
0010
0000
0100
,
0000
0001
0000
0100
,
0000
0001
0000
1000
,
0000
0010
0000
0010
,
0000
0100
0000
0001
,
0000
0100
0000
0100
,
0000
0010
0000
0001
,
1000
0001
0000
0100
,
0000
1000
1000
1000
,
0000
0010
0010
0100
,
0000
0100
0000
0001
,
1000
0001
0000
0100
,
0000
0001
0001
0001
,
0000
0100
0000
0010
,
0000
1000
1000
0001
,
0000
0010
0000
0000
,
0000
1000
0000
0000
,
0000
0001
0000
0100
,
0000
0001
0000
0000
,
0000
0010
0000
0000
,
0000
0100
0000
0000
,
0000
0100
0000
1000
,
0000
0100
0000
0000
,
0000
0010
0000
0010
,
0000
1000
1000
1000
,
0000
0001
0001
0001
,
0000
0010
0000
0100
,
0000
1000
0000
1000
,
0000
0001
0001
1000
,
0000
1000
1000
0001
,
0000
0100
0000
0000
,
0000
0100
0000
1000
,
0000
0001
0000
0010
,
0000
0100
0000
0001
,
0000
1000
0000
0100
,
0000
1000
0100
0100
,
0000
0010
0001
0001
,
0000
0010
0100
0100
,
0000
0000
1000
1000
,
0000
1000
0000
0001
,
0000
0100
0000
0010
,
0000
1000
0000
0001
,
0000
0100
0000
1000
,
0000
0010
0010
0100
,
0000
0001
0001
1000
,
0000
0100
0100
1000
,
0000
0010
0000
0001
,
1000
0001
0000
0000
;

//---------------dance-single - ----------------
#NOTES:
     dance-single:
     :
     Easy:
     6:
     0.229236,0.316185,0.093127,0.143273,0.000000,224.000000,211.000000,13.000000,20.000000,0.000000,0.000000,0.229236,0.316185,0.093127,0.143273,0.000000,224.000000,211.000000,13.000000,20.000000,0.000000,0.000000:
0000
0000
0000
0000
,
0000
0000
0000
0000
,
0000
0000
0000
0000
,
0000
0000
0000
0000
,
0000
1000
0001
0100
,
0000
0010
0100
0010
,
0000
0001
0100
0010
,
0000
1000
0100
1000
,
0000
0001
0000
0100
,
0000
1000
1000
0100
,
0000
0010
0000
0100
,
0000
0001
0001
1000
,
0000
0100
0000
1000
,
0000
0010
0010
0100
,
0000
0001
0000
1000
,
0000
0100
0100
1000
,
0000
0010
0000
1000
,
0100
0000
0010
0000
,
0100
0000
0001
0100
,
0001
0000
0010
0000
,
1000
0000
0100
0000
,
1100
0000
0001
0000
,
0011
0000
0010
0000
,
0110
0000
0010
1000
,
0010
0200
0000
0000
,
0000
0300
0000
0000
,
0000
0001
0000
0100
,
0000
1000
0000
0010
,
0000
0020
0000
0000
,
0000
0030
0000
0000
,
0000
1000
0000
0100
,
0000
0001
0000
0010
,
0000
0001
0000
0001
,
0000
0100
0000
0100
,
0000
0010
0000
0010
,
0000
0100
0100
0010
,
0010
0001
0001
1000
,
0000
1000
1000
0001
,
0000
0100
0010
0100
,
0001
1000
0000
0110
,
0001
0110
0000
0010
,
0000
0001
0100
1000
,
0000
0100
0010
0001
,
0000
0100
1000
0101
,
1000
0101
0000
0100
,
0000
0001
0100
1000
,
0000
0001
1000
0010
,
0000
1000
0001
0100
,
0000
0020
0000
0000
,
0000
0130
0000
0100
,
0000
0010
0000
0100
,
0000
0010
0001
0000
,
0000
0200
0000
0000
,
0000
0310
0000
0010
,
0000
0100
0000
1000
,
0000
0000
0100
0000
0010
0010
0010
0000
,
0010
2000
0000
3100
,
0000
0020
0000
0031
,
0000
0200
0000
1300
,
0000
0000
0010
0000
0100
0100
0100
0000
,
0100
0002
1000
0103
,
0000
2000
0010
3100
,
0000
0020
0100
0031
,
0000
0200
0000
0000
,
0300
1010
0001
0100
,
1000
1000
0001
0100
,
0010
1001
1001
0100
,
0001
0010
0100
0100
,
0001
2000
3010
0200
,
0301
0020
0130
1000
,
0001
0101
0020
1030
,
0200
0000
0301
0000
1000
1000
1000
0000
,
1000
2000
0010
3100
,
0010
0020
0001
0130
,
1000
1000
0100
0010
,
0001
0000
0100
0000
0001
0001
0001
0000
,
0001
0002
0010
0100
,
0013
2000
0100
0010
,
3100
0001
0100
1000
,
0000
0010
1000
0110
,
0001
0110
0000
0000
;

//---------------dance-single - ----------------
#NOTES:
     dance-single:
     :
     Medium:
     10:
     0.380696,0.459905,0.222073,0.121782,0.007164,372.000000,341.000000,31.000000,17.000000,0.000000,0.000000,0.380696,0.459905,0.222073,0.121782,0.007164,372.000000,341.000000,31.000000,17.000000,0.000000,0.000000:
0000
0000
0000
0000
,
0000
0000
0000
0000
,
0000
0000
0000
0000
,
0000
0000
0000
0000
0000
0000
0000
0010
,
0100
0000
0001
0000
0100
0010
0100
0000
,
0000
0001
0001
0000
1000
0000
0100
0000
,
0000
0000
0010
0000
1000
0100
1000
0000
,
0000
0010
0010
0000
0100
0000
0001
0000
,
0000
1000
0100
0010
,
0001
0000
0100
0000
0010
1000
0100
0000
,
0000
0001
0100
0001
,
0010
0000
0100
0000
1000
0100
0010
0000
,
0000
1000
1000
0001
,
0001
0000
0100
0000
0100
0010
0100
0000
,
0000
0000
0001
0000
0001
0100
1000
0000
,
0010
0000
1000
0000
1000
1000
0100
0000
,
0010
0000
1000
0000
1000
0100
0010
0000
,
0100
0000
0010
0000
0001
0010
0100
0000
,
0001
0000
1000
0000
0001
1000
0100
0000
,
0010
0000
0100
0000
1000
0001
0010
0000
,
0001
1000
1100
0001
,
0011
0100
0110
1000
,
1100
0000
0010
0100
0001
0000
0100
0000
,
0010
2000
3001
0100
,
0010
0200
0000
0000
,
0300
0000
0010
0000
0100
0010
0000
0000
,
0001
0000
0100
0100
0000
0010
0000
0000
,
0100
0001
0100
0010
,
1000
0020
0000
0000
,
0030
0000
1000
0000
0001
1000
0000
0000
,
0010
0000
1000
0000
1000
1000
0000
0000
,
0010
0000
0100
0000
0100
0001
0000
0000
,
0100
0110
0000
1100
,
0010
0100
0000
0101
,
0010
1000
0000
1010
,
0001
0000
0010
0100
0010
0100
0001
0000
,
0100
0011
0100
1000
,
0010
0101
1000
0100
,
0010
0000
0001
0010
0001
0000
0100
1000
,
0100
0001
1000
0101
,
1100
0000
0101
0000
1000
0001
0100
0000
,
0010
0100
0100
0010
1000
0000
0100
0000
,
1000
0000
0110
0000
0100
0001
0010
0000
,
0001
0000
1000
0001
1000
0000
0011
0000
,
1010
0000
0011
0000
0100
1000
0100
0000
,
0001
0000
1000
1000
0100
0000
1000
0000
,
0010
0000
1001
0000
0100
0001
0100
0000
,
0010
0000
0001
0100
1000
0000
0010
0000
,
0000
0020
0000
0130
,
0001
0000
0000
0000
1000
0000
0000
1000
0000
0000
0000
0000
0100
0000
0000
0000
,
0000
0000
1100
0000
0001
0100
0000
0000
,
0001
0000
0101
0000
1000
0100
0000
0000
,
0010
0200
0000
0310
,
1000
0000
0000
0000
0010
0000
0000
0010
0000
0000
1000
0000
0010
0000
0000
0000
,
0100
0000
1010
0000
0001
0010
0000
0000
,
0001
0000
0011
0000
0100
1000
0010
0000
,
0100
2000
0000
3100
,
0000
0010
0001
0000
0100
0000
0100
0000
,
0000
0010
0001
0000
0100
0000
0100
0000
,
0000
0000
0000
0010
0010
1000
1000
0001
,
0001
0002
0010
0100
,
1003
0000
0010
1000
0100
0000
0100
0000
,
0001
0000
0010
1000
0100
0000
0100
0000
,
0001
0020
0000
0000
,
0030
0000
1001
0000
1100
0010
1000
0000
,
0001
0100
0100
0010
0100
0000
0001
0000
,
0011
0000
0100
0000
1000
0100
1000
0000
,
0010
0000
0001
0100
0001
0100
0010
1000
,
0010
0000
2000
0000
3001
0200
0000
0300
,
0001
0000
0020
0000
0130
2000
0000
3000
,
0100
0000
0002
0000
0013
0200
0000
0300
,
0001
0000
0100
0010
0010
1000
1000
0001
,
0100
0000
2010
0000
0001
0100
3001
0000
,
0100
0000
1002
0000
0010
1000
0010
0003
,
1000
0000
0210
0000
0001
0010
0301
0000
,
1000
0000
1000
0001
0001
1000
1000
0010
,
0010
0000
0010
1000
0100
1000
0010
0100
,
0010
0000
1000
0010
0100
0001
0100
0001
,
0010
0000
0010
0100
0001
0100
0010
1000
,
0010
0000
1000
0001
1000
0000
0101
0000
,
1100
0101
0000
0000
;

//---------------dance-single - ----------------
#NOTES:
     dance-single:
     :
     Hard:
     13:
     0.508618,0.632370,0.200582,0.250727,0.175509,497.000000,469.000000,28.000000,35.000000,0.000000,0.000000,0.508618,0.632370,0.200582,0.250727,0.175509,497.000000,469.000000,28.000000,35.000000,0.000000,0.000000:
0000
0000
0000
0000
,
0000
0000
0000
0000
,
0000
0000
0000
0000
,
0000
0000
0000
0000
0000
0000
0000
0010
,
0100
0000
0001
0000
1000
0100
1000
0000
,
0010
0000
0100
0001
0100
0000
0010
0000
0100
0000
1000
0000
0100
0000
0000
0000
,
0000
0000
0010
0000
0001
0010
0001
0000
,
0000
0000
1000
0001
1000
0000
0100
0000
0010
0000
0001
0000
0010
0000
0000
0000
,
0100
0000
1000
0000
1000
0010
0100
0000
,
0001
0000
0100
0010
1000
0001
1000
0100
,
0000
0001
0010
0000
0010
0001
0100
0010
,
0100
0000
0010
0010
0001
1000
0001
0100
,
0000
0000
1000
1000
0001
0001
0100
0100
,
0010
0000
0100
1000
0100
0010
0100
0010
,
0000
0000
0001
0000
0001
0100
1000
0000
,
0010
0000
0100
0010
0001
0010
0100
0000
,
0001
0000
1100
0000
0001
0100
0010
0100
,
1000
0000
0000
0100
0000
0000
0000
0000
1000
0000
0010
0000
0100
0000
0010
0000
,
0001
0000
0000
0010
0000
0000
0000
0000
0001
0000
0100
0000
0001
0000
0010
0000
,
0100
0000
0000
0001
0000
0000
0000
0000
0010
0000
1000
0000
0100
0000
0010
0000
,
0001
0000
0000
1000
0000
0000
0010
0000
0001
0000
0000
0100
0000
0000
0010
0000
,
1000
0000
0000
0010
0000
0000
0001
0000
0010
0000
0000
0100
0000
0000
1000
0000
,
0010
0000
0000
0001
0000
0000
0100
0000
1000
0000
0000
0100
0000
0000
0001
0000
,
1000
0000
0000
0010
0000
0000
0001
0000
0100
0000
0000
0010
0000
0000
0100
0000
,
0100
0020
0000
0100
,
1000
0130
0000
0001
,
0100
0000
0000
0000
1000
0000
0000
1000
0000
0000
0010
0000
0000
0000
0000
0000
,
0100
0000
0001
0000
0100
0000
0000
0010
0000
0000
0100
0000
1000
0000
0000
0001
,
0000
1000
0200
0000
0000
0000
0001
0000
,
0010
0301
0000
1000
,
0100
0000
0000
0000
0010
0000
0000
0010
0000
0000
0001
0000
0000
0000
0000
0000
,
1000
0000
0100
0000
0010
0000
0000
0100
0000
0000
0010
0000
0000
0000
0000
0000
,
0010
0000
2020
0000
3030
0001
2200
0000
,
3300
0000
0202
0000
0303
0010
0100
0000
,
0000
0000
0100
0001
0100
0000
0000
0001
0000
0000
0010
0000
0010
0000
0000
0010
,
0000
0001
0010
0100
0001
0010
0001
0000
,
0100
0000
0022
0000
0033
1000
0202
0000
,
0303
0000
0220
0000
0330
1000
0001
1000
,
0000
0010
1000
1000
0001
0001
0100
0100
,
0010
0000
1000
0001
1000
0000
0101
0000
,
1100
0000
0101
0000
0010
0100
1000
0000
,
0001
0000
0100
0001
0100
0000
0010
0000
1000
0000
0100
0000
0001
0000
0100
0000
,
0100
0010
2000
0000
3001
0100
0020
0000
,
0130
0000
1000
0001
1000
0000
0011
0000
,
1010
0000
0011
0000
0100
0010
0001
0000
,
0100
0000
0010
0100
0010
0000
0001
0000
0100
0000
1000
0000
0010
0000
0100
0000
,
0100
0010
0002
0000
0013
1000
0200
0000
,
1300
0000
0010
0001
0010
0000
1000
0000
0100
0000
1000
0000
0010
0000
0000
0000
,
0100
0020
0100
0031
,
1000
0000
0000
0000
0100
0000
0000
0100
0000
0000
0010
0000
1000
0000
0000
0100
,
0000
0010
1001
0000
0100
0010
0000
0010
,
0000
1000
1100
0000
0010
0100
0001
0000
,
0100
2000
0100
3001
,
0010
0000
0000
0000
0001
0000
0000
0001
0000
0000
0100
0000
0010
0000
0000
0100
,
0000
0010
1001
0000
0010
0100
0000
0010
,
0000
0000
0101
0000
0001
0000
1000
0010
1000
0000
0100
0010
0100
0000
0001
0100
,
0001
0010
0200
0000
0301
0020
0000
0000
,
0030
0001
1000
0100
1000
0100
0010
0001
,
0100
0000
0001
0100
0010
0000
0100
0000
1000
0000
0001
0000
1000
0000
0000
0000
,
0010
0000
0000
0000
0100
0000
0001
0100
0001
0000
0010
0100
0010
0000
1000
0010
,
1000
0100
0002
0000
0103
2000
0000
0000
,
3000
0010
0100
0010
0100
0001
0010
1000
,
0100
0000
0010
0001
0100
0000
0001
0000
0010
0000
0100
0000
0100
0000
1000
0000
,
0100
0200
0000
0000
0000
0000
0300
0010
,
0100
0000
1010
0001
1100
1100
0010
0100
,
0100
0001
0010
0010
0100
1000
0100
0001
,
0020
0000
1030
0100
0010
0001
0001
0100
,
0100
0000
0001
1000
0010
0000
1000
0000
0001
0000
1000
0000
0100
0000
1000
0000
,
0010
0000
0102
0000
1003
0120
0000
0030
,
0001
1000
2010
0000
3100
0012
0000
0003
,
1000
0100
0201
0000
0310
2000
0000
3000
,
0010
0000
1000
0000
0001
0000
0010
0100
0010
0000
1000
0001
1000
0000
0100
0010
,
0100
0001
0200
0000
0310
0002
0100
1003
,
1000
0100
0010
0100
0001
0010
0100
1000
,
0200
0000
0310
0010
0001
0100
1000
1000
,
0100
0000
0010
0000
1000
0000
0001
1000
0001
0000
0010
0100
0010
0000
1000
0001
,
1000
0000
0010
0000
0100
0000
0010
1000
0001
0000
1000
0000
0010
0100
0001
0000
,
0100
0000
0000
0000
0001
0000
0100
0010
1000
0000
0010
0000
0100
0001
0010
0000
,
0001
0000
0000
0000
1000
0000
0010
1000
0001
0000
1000
0000
0010
1000
0100
0000
,
0010
0000
1000
0001
1000
0000
0101
0000
,
1100
0101
0000
0000
;

//---------------dance-double - ----------------
#NOTES:
     dance-double:
     :
     Easy:
     7:
     0.284499,0.402417,0.200582,0.121782,0.000000,278.000000,250.000000,28.000000,17.000000,0.000000,0.000000,0.284499,0.402417,0.200582,0.121782,0.000000,278.000000,250.000000,28.000000,17.000000,0.000000,0.000000:
00000000
00000000
00000000
00000000
,
00000000
00000000
00000000
00000000
,
00000000
00000000
00000000
00000000
,
00000000
00000000
00000000
00000000
,
10010000
00010000
00001000
00001100
,
00000000
00001000
00000100
00000010
,
00000000
00000001
00000100
00000101
,
00000000
00000100
00001000
00010000
,
00000000
20000000
30000000
00100000
,
00010000
01000000
01000000
00010000
,
00000000
00002000
00003000
00000100
,
00000010
00000001
00000001
00000100
,
00000000
00000020
00000030
00001000
,
00000100
00010000
01000000
00100000
,
00000000
20000000
30000000
01000000
,
00000000
00100000
00010000
00001000
,
00011000
00000100
00001000
00000010
,
00000010
00000000
00000100
00000001
,
00001000
00000000
00000100
00010000
,
00100000
00000000
00010000
01000000
,
10000000
00000000
00100000
00100000
,
00010000
00010000
00001000
00001000
,
00000100
00000100
00000010
00000010
,
00000001
00000100
00001000
00010000
,
00110000
02000000
00000000
00000000
,
03000000
00100000
00000000
00000000
,
00000000
00010000
00001000
00000100
,
00000000
00000010
00001000
00000001
,
00000000
00000200
00000000
00000000
,
00000300
00000010
00000000
00000100
,
00000000
00001000
00010000
00100000
,
00000000
00010000
10000000
01000000
,
00000000
00110000
00000000
00011000
,
00000000
00001100
00000000
00001010
,
00000000
00000101
00000000
00000110
,
00000000
00001000
00010000
00100000
,
00000000
11000000
00000000
00110000
,
00000000
00011000
00000000
00001100
,
00000000
00010000
00001000
00010000
,
00000000
00001000
00010000
00110000
,
00100000
01010000
00000000
00010000
,
00000000
00001000
00000100
00000010
,
00000000
00000001
00000100
00000010
,
00000000
00001000
00000100
00011000
,
00001000
00001100
00000000
00001000
,
00000000
00010000
00100000
01000000
,
00000000
10000000
01000000
00100000
,
00000000
00001000
00010000
00000100
,
00000000
00000020
00001030
00000100
,
00000000
00000001
00000001
00000100
,
00000010
00001000
00000000
00010000
,
00000000
00100000
00000000
01000000
,
00000000
20000000
31000000
00100000
,
00010000
00001000
00001000
00010000
,
00000100
00000010
00000000
00000001
,
00000000
00001000
00010000
00010000
,
00100000
02000000
03000000
00100000
,
00000000
00000000
00010000
00010000
00010000
00000000
00001000
00000000
,
00000000
00000000
00000100
00000100
00000100
00000000
00000010
00000000
,
00000000
00000010
00001000
00001000
,
00000001
00000200
00000300
00001000
,
00010000
00000000
00100000
00100000
00100000
00000000
00010000
00000000
,
01000000
00000000
10000000
10000000
10000000
00000000
01000000
00000000
,
00100000
00000000
00020000
00000000
00000000
00000000
00000000
00030000
,
00000000
00011000
00110000
00011000
,
00000100
00010000
00000000
00001000
00000100
00000000
00000010
00000000
,
00010000
00001100
00001010
00011000
,
00010000
01000000
00000000
00100000
10000000
00000000
00010000
00010000
,
00010000
00200000
00310000
02000000
,
03010000
00002000
00003100
00000200
,
00000310
00000020
00000031
00000002
,
00001003
00001000
00010000
00010000
,
01000000
00000000
00100000
00100000
00100000
00000000
00010000
00000000
,
01000000
10000000
00100000
00010000
,
01001000
00010000
00001000
00010000
,
00000100
00000010
00001000
00001000
,
00000001
00000000
00001000
00001000
00001000
00000000
00000100
00000000
,
00010000
00000000
00100000
00100000
00100000
00000000
00010000
00000000
,
01000000
00000000
10000000
10000000
10000000
00000000
01000000
00000000
,
00100000
00010000
00000100
00001100
,
00001000
00010100
00000000
00000000
;

//---------------dance-double - ----------------
#NOTES:
     dance-double:
     :
     Medium:
     10:
     0.353065,0.459905,0.300873,0.071636,0.007164,345.000000,303.000000,42.000000,10.000000,0.000000,0.000000,0.353065,0.459905,0.300873,0.071636,0.007164,345.000000,303.000000,42.000000,10.000000,0.000000,0.000000:
00000000
00000000
00000000
00000000
,
00000000
00000000
00000000
00000000
,
00000000
00000000
00000000
00000000
,
00000000
00000000
00000000
00000000
00000000
00000000
00000000
00000100
,
00000010
00000000
00001000
00000000
00000100
00001000
00000100
00000000
,
00000000
00010000
00100000
00010000
,
00000000
00000000
01000000
00000000
00100000
00010000
00001000
00000000
,
00000000
00001000
00000100
00001000
,
00000010
00000000
00000001
00000100
,
00000010
00000000
00001000
00000000
00000100
00001000
00010000
00000000
,
00000000
00100000
00010000
01000000
,
00100000
00000000
00010000
00000000
10000000
00010000
10000000
00000000
,
00000000
00100000
00010000
00001000
,
00000100
00000000
00010000
00000000
00000010
00001000
00000100
00000000
,
00000000
00001000
00010000
01010000
,
01000000
00000000
00100000
00000000
10000000
01000000
00010000
00000000
,
00100000
00000000
00001000
00010000
,
00000100
00001000
00000000
00000000
00000010
00000000
00000001
00000100
,
00000010
00000000
00000000
00000000
00001000
00010000
00100000
00000000
,
01000000
00000000
00000000
00000000
10000000
01000000
00100000
00000000
,
00010000
00100000
00110000
00010000
,
00011000
00001000
00001100
00000100
,
00000110
00000010
00000011
00000001
,
00001001
00001000
00010000
01000000
,
10010000
00200000
00000000
00000000
,
00000000
00300000
00000000
00010000
,
00000000
00000000
00001000
00010000
00000000
00000000
00000100
00000000
,
00000000
00000010
00001000
00000100
,
00000001
00000020
00000000
00000000
,
00000000
00000030
00000000
00000100
,
00000000
00001000
00010000
00000000
,
00100000
00010000
01000000
00000000
10000000
00000000
00000000
00000000
,
00100000
00220000
00330000
00001000
,
00010000
00001000
00000100
00000000
00000010
00000000
00000100
00000000
,
00000001
00000010
00000010
00000001
,
00000100
00000000
00000010
00001000
00000010
00000000
00000100
00000000
,
00001000
00022000
00033000
00100000
,
00010000
01000000
10000000
10000000
,
01000000
01000000
00010000
00000000
00100000
00000000
01000000
00000000
,
00010000
00000000
00000000
00001100
,
00011000
00000000
00110000
00000000
00010000
00100000
01000000
00000000
,
00000000
10000000
00010000
00000000
01000000
00000000
01100000
00000000
,
00000000
00000000
00011000
00000000
00000100
00001000
00000010
00000000
,
00000000
00000001
00000100
00000000
00000010
00000000
00001010
00000000
,
00011000
00000000
01010000
00000000
00100000
01000000
10000000
00000000
,
00000000
01000000
00010000
00000000
00100000
00000000
00110000
00000000
,
00000000
00000000
00011000
00000000
00001000
00000100
00001000
00000000
,
00000000
00000010
00000001
00000000
00000100
00000000
00000110
00000000
,
00000000
00002000
00000000
00003100
,
00000000
00000000
00000000
00000000
00000010
00000000
00000000
00000010
00000000
00000000
00000000
00000000
00000001
00000000
00000000
00000000
,
00000100
00001010
00000000
00010000
,
00000000
00010000
00100000
00000000
00000000
00010000
01000000
00000000
,
00000000
00001000
00010000
00100000
,
00010000
00000000
00000000
00000000
01000000
00000000
00000000
01000000
00000000
00000000
00000000
00000000
10000000
00000000
00000000
00000000
,
00100000
00110000
00000000
00001000
,
00010000
00000000
00000000
00010000
00010000
00001000
00000100
00000000
,
00001000
00000000
00002010
00000000
00000000
00003010
00000000
00000000
,
00000010
00001000
00001000
00000000
00000100
00000000
00000010
00000000
,
00000000
00000001
00000001
00000000
00000100
00000000
00000010
00000000
,
00000100
00000000
00000000
00010000
00010000
00100000
01000000
00000000
,
00010000
00000000
20010000
00000000
00000000
30010000
00000000
00000000
,
01000000
00000000
00100000
00010000
00001000
00000000
00000100
00000000
,
00010000
00000000
00001000
00000100
00000010
00000000
00000001
00000000
,
00000010
00000200
00000000
00000000
,
00000310
00001100
00011000
00100000
,
00010000
00001000
00000000
01000000
00010000
10000000
00100000
00000000
,
10010000
00110000
00011000
00001000
,
00001000
00000100
00000010
00000100
00001000
00000000
00000001
00000010
,
00000001
00000000
00000110
00000000
00010000
00001000
00000000
00000000
,
00100000
00000000
10010000
00000000
01000000
00100000
00000000
00000000
,
00010000
00000000
00001100
00000000
00000001
00000010
00000000
00000000
,
00000010
00000000
00000000
00001000
00001000
00000100
00000001
00000000
,
00000010
00011000
00110000
01010000
,
00100000
00010000
00001000
00000000
00000100
00001000
00000100
00000000
,
00001001
00000000
00001100
00000000
00011000
00000000
00010000
00001000
,
00100000
00000000
00010000
01000000
01000000
10000000
00100000
00000000
,
00010000
00000000
00100000
00010000
00001000
00000100
00000001
00000000
,
00000000
00000000
00000001
00000010
00001000
00010000
00100000
00000000
,
00000000
00000000
00100000
00010000
00001000
00000100
00000010
00000000
,
00000000
00000000
00000100
00001000
00010000
00000000
00010100
00000000
,
01001000
00011000
00000000
00000000
;

//---------------dance-double - ----------------
#NOTES:
     dance-double:
     :
     Hard:
     13:
     0.517828,0.603626,0.286545,0.093127,0.143273,506.000000,466.000000,40.000000,13.000000,0.000000,0.000000,0.517828,0.603626,0.286545,0.093127,0.143273,506.000000,466.000000,40.000000,13.000000,0.000000,0.000000:
// measure 0
00000000
00000000
00000000
00000000
,  // measure 1
00000000
00000000
00000000
00000000
,  // measure 2
00000000
00000000
00000000
00000000
,  // measure 3
00000000
00000000
00000000
00000000
00000000
00000000
00000000
00000010
,  // measure 4
00000110
00000000
00001000
00000000
00010000
00001000
00100000
00000000
,  // measure 5
00000000
00010000
01000000
10000000
00100000
00010000
00001000
00000000
,  // measure 6
00000000
00000000
00011000
00000000
00001000
00000100
00000010
00000000
,  // measure 7
00000000
00000001
00000100
00001000
00000010
00001000
00000100
00000000
,  // measure 8
00020000
00030000
00000000
00000000
00100000
00010000
01000000
00000000
,  // measure 9
10000000
00000000
00100000
00010000
00001000
00010000
00001000
00000000
,  // measure 10
00000100
00000000
00001000
00000100
00000010
00000010
00000100
00000000
,  // measure 11
00000001
00000000
00000001
00000100
00001000
00000010
00001000
00000000
,  // measure 12
00000100
00000000
00011000
00000000
00110000
00000000
01000000
10000000
,  // measure 13
00010000
00000000
00100000
00010000
00001000
00000100
00010000
00000000
,  // measure 14
00000010
00011000
00100000
01001000
,  // measure 15
00010000
00000000
00100000
00010000
00001000
00000100
00010000
00000010
,  // measure 16
00000110
00000000
00000001
00000000
00000100
00001000
00010000
00001000
,  // measure 17
00100000
00000000
00000000
00010000
00000000
00000000
00000000
00000000
01000000
00000000
10000000
00000000
00010000
00000000
00100000
00000000
,  // measure 18
00001000
00000000
00000000
00000100
00000000
00000000
00000000
00000000
00000100
00000000
00001000
00000000
00000010
00000000
00000100
00000000
,  // measure 19
00000001
00000000
00000000
00000010
00000000
00000000
00000000
00000000
00000010
00000000
00001000
00000000
00000100
00000000
00010000
00000000
,  // measure 20
00001000
00000000
00000000
00010000
00000000
00000000
00100000
00000000
00010000
00000000
00000000
01000000
00000000
00000000
10000000
00000000
,  // measure 21
00010000
00000000
00000000
00100000
00000000
00000000
00001000
00000000
00010000
00000000
00000000
00000100
00000000
00000000
00001000
00000000
,  // measure 22
00000010
00000000
00000000
00000001
00000000
00000000
00000100
00000000
00000010
00000000
00000000
00001000
00000000
00000000
00000100
00000000
,  // measure 23
00010000
00000000
00000000
00100000
00000000
00000000
00010000
00000000
01000000
00000000
00000000
10000000
00000000
00000000
00100000
00000000
,  // measure 24
00010000
00000000
02200000
00000000
00000000
00000000
00000000
03300000
,  // measure 25
00100000
00001000
00010000
00000000
00000000
00000000
00001000
00000000
,  // measure 26
00000100
00000000
00000100
00000000
00000010
00000000
00000000
00000001
00000000
00000000
00000100
00000000
00000000
00000000
00000010
00000000
,  // measure 27
00001000
00000000
00000100
00000000
00010000
00000000
00000000
00010000
00000000
00000000
00001000
00000000
00100000
00000000
00000000
00001000
,  // measure 28
00000000
00000000
00000220
00000000
00000000
00000000
00000000
00000330
,  // measure 29
00000100
00001000
00010000
00000000
00000000
00000000
00001000
00000000
,  // measure 30
00001000
00000000
00010000
00000000
00100000
00000000
00000000
00100000
00000000
00000000
01000000
00000000
00000000
00000000
10000000
00000000
,  // measure 31
01000000
00000000
00100000
00000000
00010000
00000000
00000000
00001000
00000000
00000000
00001000
00000000
00000000
00000000
00000000
00000000
,  // measure 32
00001000
00002020
00003030
00011000
,  // measure 33
00100000
00000000
00010000
00000000
01000000
00000000
00000000
10000000
00000000
00000000
10000000
00000000
00010000
00000000
00000000
00100000
,  // measure 34
00000000
00000000
00010000
00001000
00010000
00000000
00000000
00000100
00000000
00000000
00001000
00000000
00000010
00000000
00000000
00000100
,  // measure 35
00000000
00000001
00000100
00000100
00001000
00000010
00000100
00000000
,  // measure 36
00001000
00000000
00000000
00000000
00220000
00000000
00000000
00000000
00330000
00000000
00010000
00000000
00100000
00000000
00000000
00010000
,  // measure 37
00000000
00000000
01000000
00000000
10000000
00000000
00000000
00010000
00000000
00000000
00100000
00000000
00010000
00000000
00000000
00001000
,  // measure 38
00000000
00010000
00010000
00001000
00001000
00000100
00000100
00000010
,  // measure 39
00000001
00000000
00000000
00001010
,  // measure 40
00011000
00000000
00101000
00000000
00010000
00100000
01000000
00000000
,  // measure 41
00010000
10000000
00100000
00010000
00001000
00000100
00000010
00000001
,  // measure 42
00000001
00000010
00001010
00000000
00001000
00000100
00000010
00000000
,  // measure 43
00000001
00000100
00000010
00001000
00000100
00010000
00010100
00000000
,  // measure 44
00011000
00000000
01001000
00000000
00010000
00001000
00100000
00000000
,  // measure 45
00010000
01000000
10000000
00100000
00010000
00001000
00000100
00000010
,  // measure 46
00000010
00000100
00000101
00000000
00000001
00000100
00000010
00000000
,  // measure 47
00000010
00000001
00000100
00000010
00001000
00000100
00001000
00000000
,  // measure 48
00000010
00000020
00001000
00001030
,  // measure 49
00000100
00000000
00010000
00000000
00001000
00000000
00000000
00010000
00000000
00000000
00100000
00000000
00010000
00000000
00000000
10000000
,  // measure 50
00000000
00100000
00010000
00000000
00000000
01000000
00000000
00010000
,  // measure 51
00000000
00001000
00110000
00000000
00100000
00010000
00011000
00000000
,  // measure 52
00000000
00000000
00010000
00001000
00000100
00000010
00000001
00000000
,  // measure 53
00001000
00000000
00000010
00000000
00000100
00000000
00000000
00001000
00000000
00000000
00000100
00000000
00001000
00000000
00000000
00000001
,  // measure 54
00000000
00001000
00010000
00000000
00010000
01000000
00000000
01000000
,  // measure 55
00000000
00000000
00100000
00000000
00010000
00000000
00001000
00010000
00001000
00000000
00010000
00000100
00010000
00000000
00001000
00100000
,  // measure 56
00001000
00010000
00002000
00000000
00003100
00000020
00000000
00000130
,  // measure 57
00000000
00000100
00001000
00001000
00000010
00000001
00000100
00000000
,  // measure 58
00000010
00000100
00001000
00001000
00100000
00010000
00100000
00000000
,  // measure 59
00001000
00000000
00000000
00000000
00000100
00000000
00010000
00001000
00010000
00000000
00001000
00100000
00001000
00000000
00010000
00000100
,  // measure 60
00010000
00001000
00100000
00010000
01000000
10000000
00100000
00010000
,  // measure 61
00100000
00010000
00001000
00001000
00010000
00010000
00001000
00000100
,  // measure 62
00001000
00000010
00000010
00000100
00000100
00001000
00000100
00000000
,  // measure 63
00000000
00000000
00000020
00000000
00000000
00000000
00000030
00000100
,  // measure 64
00000110
00000000
00001000
00010000
00100000
00010000
10000000
01000000
,  // measure 65
00010000
00001000
00000100
00001000
00000010
00000100
00000010
00000001
,  // measure 66
00001010
00001000
00010000
00100000
00010000
01000000
00010000
10000000
,  // measure 67
01000000
00010000
00100000
00100000
00001000
00001000
00010000
00000100
,  // measure 68
00010000
00001000
00001100
00000000
00000010
00000110
00000000
00000100
,  // measure 69
00001000
00000010
00001100
00000000
00000100
00000011
00000000
00000100
,  // measure 70
00000010
00001000
00000110
00000000
00001000
00001001
00000000
00000100
,  // measure 71
00001000
00000000
00010000
00000000
00100000
00000000
00010000
00100000
00010000
00000000
01000000
00010000
01000000
00000000
10000000
00100000
,  // measure 72
10000000
00010000
01000000
10000000
00100000
00010000
00001000
00000100
,  // measure 73
00010000
00000010
00000100
00000001
00000010
00000100
00001000
00000100
,  // measure 74
00000011
00001000
00000100
00001000
00010000
00100000
00010000
01000000
,  // measure 75
00100000
00000000
00010000
00000000
01000000
00000000
00010000
00001000
00010000
00000000
00001000
00000010
00001000
00000000
00000001
00000100
,  // measure 76
00000001
00000010
00010100
00000000
00000100
00011000
00000000
00100000
,  // measure 77
00010000
01000000
00110000
00000000
00100000
11000000
00000000
01000000
,  // measure 78
00010000
01000000
00101000
00000000
00010000
00001100
00000000
00000100
,  // measure 79
00010000
00001000
00000010
00000010
00000100
00000000
00010010
00000000
,  // measure 80
00011000
01001000
00000000
00000000
;
