#TITLE:DADDY;
#SUBTITLE:;
#ARTIST:PSY feat. CL of 2NE1;
#TITLETRANSLIT:;
#SUBTITLETRANSLIT:;
#ARTISTTRANSLIT:;
#GENRE:K-POP;
#CREDIT:SAIKIO;
#BANNER:DADDY-banner.png;
#BACKGROUND:bg.png;
#LYRICSPATH:;
#CDTITLE:Saikio Simfiles.png;
#MUSIC:DADDY.ogg;
#OFFSET:-0.313000;
#SAMPLESTART:88.179810;
#SAMPLELENGTH:15.119992;
#SELECTABLE:YES;
#BPMS:0.000000=132.000000
;
#STOPS:259.000000=1.818000
;
#BGCHANGES:-0.500=DADDY.avi=1.000=0=0=0=StretchNoLoop====,
99999=-nosongbg-=1.000=0=0=0 // don't automatically add -songbackground-
;
#KEYSOUNDS:;
#ATTACKS:;

//---------------dance-single - ----------------
#NOTES:
     dance-single:
     :
     Beginner:
     3:
     0.126468,0.157225,0.084986,0.000000,0.000000,125.000000,113.000000,12.000000,0.000000,0.000000,0.000000,0.126468,0.157225,0.084986,0.000000,0.000000,125.000000,113.000000,12.000000,0.000000,0.000000,0.000000:
0000
0000
0000
0000
,
0000
0000
0000
0000
,
0000
0000
0000
0000
,
0000
0000
0000
0000
,
0100
0000
0100
0000
,
0100
0000
0000
0000
,
0010
0000
0010
0000
,
0010
0000
0000
0000
,
0010
0000
0000
0000
,
0001
0000
0000
0000
,
1000
0000
1000
0000
,
0001
0000
0001
0000
,
0100
0000
0000
0000
,
1000
0000
0000
0000
,
0100
0000
0100
0000
,
0010
0000
0010
0000
,
1000
1000
1000
0000
,
0010
0000
0010
0000
,
0001
0000
0010
0000
,
0100
0100
0100
0000
,
0010
0000
1000
0000
,
0010
0000
1000
0000
,
0100
0000
0001
0000
,
0100
0000
0100
0000
,
1000
0000
0000
0000
,
0100
0000
0000
0000
,
0010
0000
0000
0000
,
0001
0000
0000
0000
,
0100
0000
0000
0000
,
1000
0000
0000
0000
,
0001
0000
0000
0000
,
0100
0000
0000
0000
,
0010
0000
0001
0000
,
0100
0000
1000
0000
,
0010
0000
0001
0000
,
1000
0000
0100
0000
,
0000
0000
1000
1000
,
0000
0000
0001
0001
,
0000
0000
0010
0010
,
0000
0000
0000
0000
,
0000
0000
1000
0000
,
0100
0000
0001
0000
,
0100
0000
0010
0010
,
0100
0000
1000
1000
,
0000
0000
0010
0000
,
0100
0000
1000
0000
,
0001
0000
0010
0010
,
1000
0000
0001
0001
,
0000
0000
1000
0000
,
1001
0000
0000
0000
,
1001
0000
0000
0000
,
1001
0000
0000
0000
,
0100
0000
0000
0000
,
1001
0000
0000
0000
,
1001
0000
0000
0000
,
1001
0000
0000
0000
,
0100
0000
0000
0000
,
0000
0010
0010
0010
,
0000
0000
0000
0010
,
0000
0001
0001
0001
,
0000
0000
0000
0100
,
0000
1000
0100
0000
,
0001
0000
0000
0010
,
0010
0000
0100
0000
,
0100
0000
0000
0010
,
1001
0000
0000
0000
,
1001
0000
0000
0000
,
1001
0000
0000
0000
,
0100
0000
0000
0000
,
1001
0000
0000
0000
,
1001
0000
0000
0000
,
1001
0000
0000
0000
,
0100
0000
0000
0000
,
0001
0001
0001
0000
,
0100
0000
0000
0000
;

//---------------dance-single - ----------------
#NOTES:
     dance-single:
     :
     Easy:
     5:
     0.207407,0.235837,0.000000,0.000000,0.000000,205.000000,205.000000,0.000000,0.000000,0.000000,0.000000,0.207407,0.235837,0.000000,0.000000,0.000000,205.000000,205.000000,0.000000,0.000000,0.000000,0.000000:
0000
0000
0000
0000
,
0000
0000
0000
0000
,
0000
0000
0000
0000
,
0000
0000
0000
0000
,
0100
0000
0100
0000
,
0010
0000
0010
0000
,
1000
0000
1000
0000
,
0001
0001
0001
0000
,
0100
1000
0100
0000
,
0001
0010
0001
0000
,
0010
1000
0100
0000
,
0001
0100
0010
0000
,
1000
1000
0001
0000
,
0010
0010
0100
0000
,
0001
1000
0100
0000
,
1000
0001
0010
0000
,
1000
0100
0001
0000
,
0001
0010
1000
0000
,
0001
0000
1000
0000
,
0100
0100
1000
0000
,
1000
0100
0010
0000
,
0001
0010
0100
0000
,
0010
0000
0100
0000
,
1000
1000
0001
0001
,
1000
0000
0000
0100
,
0100
0000
0000
0010
,
0001
0000
0000
0000
,
0001
0000
0000
0000
,
0100
0000
0000
1000
,
1000
0000
0000
0001
,
1000
0000
0000
0000
,
0100
0010
0000
0000
,
1000
0100
1000
1000
,
0100
1000
0000
0000
,
0010
0100
0010
0000
,
0100
0001
0100
0000
,
1000
1000
0100
0100
,
0010
0000
0001
0010
,
0001
0000
0100
1000
,
0100
0000
0010
0000
,
0000
0000
1000
0100
,
0001
0100
1000
0100
,
0001
0000
1000
1000
,
0010
0000
0100
0010
,
0100
0000
0001
0100
,
1000
0100
0001
0100
,
1000
0000
0001
0001
,
0100
0000
0010
0100
,
0010
0000
0100
0000
,
1000
0001
1000
1000
,
0001
1000
0001
0001
,
1000
0001
1000
1000
,
0100
0000
0010
0100
,
0001
1000
0001
0001
,
1000
0001
1000
1000
,
0001
1000
0001
0001
,
0100
0000
0010
0000
,
0000
0100
0100
0010
,
1000
0001
0000
0000
,
0010
0010
0100
0000
,
0001
1000
0000
0000
,
0100
1000
0100
0100
,
0010
0100
0000
0000
,
0001
0001
1000
0010
,
0100
0000
0000
0010
,
1000
0001
1000
1000
,
0001
1000
0001
0001
,
1000
0001
1000
1000
,
0100
0000
0010
0000
,
0001
1000
0001
0001
,
1000
0001
1000
1000
,
0001
1000
0001
0001
,
0100
0000
0010
0100
,
0010
0010
0100
0010
,
0100
0000
0000
0000
;

//---------------dance-single - ----------------
#NOTES:
     dance-single:
     :
     Medium:
     10:
     0.300488,0.340654,0.092069,0.035411,0.049575,297.000000,284.000000,13.000000,5.000000,0.000000,0.000000,0.300488,0.340654,0.092069,0.035411,0.049575,297.000000,284.000000,13.000000,5.000000,0.000000,0.000000:
0000
0000
0000
0000
,
0000
0000
0000
0000
,
0000
0000
0000
0000
,
0000
0000
0000
0000
,
0010
0010
0010
0010
,
0100
0100
0100
1001
,
0100
0000
0010
0100
0010
0000
0000
0000
,
1000
0100
0010
0000
0100
0000
0000
0000
,
0001
0000
0001
0100
0010
0000
0000
0000
,
1000
0000
1000
0100
0010
0000
0000
0000
,
0010
0000
0010
0000
0100
0010
0001
0000
,
0000
0001
1000
0000
,
0100
0000
0100
0100
0010
0000
0000
0000
,
0001
0000
0001
0001
1000
0000
0000
0000
,
0000
0100
0010
0000
1000
0000
0000
0000
,
0000
0100
0010
0000
0100
0000
0000
0000
,
1000
1000
0100
0000
0010
0000
0000
0000
,
0001
0001
0010
0100
0001
0000
1000
0000
,
0010
0100
0100
0001
,
0100
0010
0100
0000
1000
0000
1000
0000
,
0010
0010
0100
0000
0001
0000
0100
0000
,
1000
1000
0100
0000
0010
0000
0001
0000
,
0010
0100
1000
1000
,
0100
0010
0100
0000
0001
0000
1000
0000
,
0020
0000
0000
0030
0000
0000
0100
0010
,
0200
0000
0000
0300
0000
0000
0001
0010
,
2000
0000
0000
3000
0000
0000
1000
0100
,
0002
0000
0000
0003
0000
0100
0100
0000
,
0010
0000
0000
0100
0000
0000
0001
1000
,
0010
0000
0000
1000
0000
0000
0010
0010
,
0010
0000
0000
0100
0000
0000
0010
0000
,
0100
0000
0000
0100
0000
0000
0100
0000
0000
0000
0000
0000
0000
0000
0000
0000
,
0110
0001
0100
0010
,
1001
0100
0010
0100
,
1100
0010
0100
0010
,
0011
0100
0100
0000
,
0010
0000
0000
1000
0010
0000
0100
0000
,
0001
0000
0000
0010
0100
0000
1000
0000
,
0010
0000
0000
0001
0010
0000
0100
0000
,
1000
0000
0100
0000
0100
0000
0020
0030
,
0000
0000
0100
0100
,
1010
0100
0010
0100
,
1001
0010
0101
1100
,
0010
0000
0000
0100
0010
0000
1000
0000
,
0001
0000
0010
0010
,
0101
1000
0001
1000
,
0110
1000
0101
1100
,
0010
0000
0000
0100
0010
0000
1000
0000
,
0001
0000
0000
0100
0010
0000
1000
0000
,
0001
0000
0000
0000
1000
0000
0000
0000
0001
0000
0000
1000
0000
0000
0001
0000
,
0100
0000
0000
0000
0010
0000
0000
0000
0100
0000
0000
0010
0000
0000
0100
0000
,
0001
0000
0000
0000
1000
0000
0000
0000
0001
0000
0000
1000
0000
0000
0001
0000
,
0100
0010
0000
0000
1000
0000
0001
0000
,
1000
0000
0000
0000
0001
0000
0000
0000
1000
0000
0000
0001
0000
0000
1000
0000
,
0010
0000
0000
0000
0100
0000
0000
0000
0010
0000
0000
0100
0000
0000
0010
0000
,
1000
0000
0000
0000
0001
0000
0000
0000
1000
0000
0000
0001
0000
0000
0100
0000
,
0010
0100
0000
0000
0000
0000
1000
0000
,
0000
0000
0001
0000
1000
0001
1000
0000
,
0010
0000
0000
0100
0000
0000
0010
0000
,
0000
0000
0100
0000
0001
0001
0000
0000
,
1000
1000
0000
0001
0000
0000
0100
0000
,
0010
0100
0001
1000
,
0010
0100
0001
0000
0000
0000
1000
0000
,
1000
0000
0010
0000
0100
0000
0001
1000
,
0001
0100
0100
0010
,
1000
0000
0000
0000
0001
0000
0000
0000
0100
0000
0000
1000
0000
0000
0001
0000
,
0100
0000
0000
0000
0010
0000
0000
0000
1000
0000
0000
0001
0000
0000
1000
0000
,
0010
0000
0000
0000
0100
0000
0000
0000
0001
0000
0000
1000
0000
0000
0001
0000
,
0100
0010
0000
0000
0100
0000
0010
0000
,
1000
0000
0000
0000
0001
0000
0000
0000
1000
0000
0000
0001
0000
0000
0100
0000
,
0010
0000
0000
0000
0001
0000
0000
0000
1000
0000
0000
0001
0000
0000
1000
0000
,
0010
0000
0000
0000
0100
0000
0000
0000
1000
0000
0000
0001
0000
0000
0100
0000
,
0010
0000
0100
0100
,
0010
0000
0000
0000
0100
0000
0000
0000
0010
0000
0000
0100
0000
0000
0010
0000
,
0100
0000
0000
0000
;

//---------------dance-single - ----------------
#NOTES:
     dance-single:
     :
     Hard:
     12:
     0.468437,0.498720,0.375357,0.042493,0.095610,463.000000,410.000000,53.000000,6.000000,0.000000,0.000000,0.468437,0.498720,0.375357,0.042493,0.095610,463.000000,410.000000,53.000000,6.000000,0.000000,0.000000:
0000
0000
0000
0000
,
0000
0000
0000
0000
,
0000
0000
0000
0000
,
0000
0000
0000
0000
,
0010
0000
0000
0100
0000
0000
0010
0000
0100
0000
0010
0000
0100
0000
0000
0000
,
0001
0000
0000
1000
0000
0000
0100
0000
1000
0000
0000
0000
1001
0000
0000
0000
,
0100
0000
0000
0010
0000
0000
0100
0000
0001
0000
0000
0000
0000
0000
0100
0000
,
0010
0100
0010
0100
0010
0000
0110
0000
,
1000
0000
0000
0000
0001
0000
0001
0000
0100
0000
0000
0010
0000
0000
0100
0000
,
0001
0000
0100
0000
0010
0000
1000
0000
1000
0000
0000
0001
0000
0000
0010
0000
,
1000
0000
0001
0000
0010
0000
0010
0000
0100
0000
0000
0010
0000
0000
0001
0000
,
0100
1000
0001
1000
0010
0000
1001
0000
,
1000
0000
0000
0000
0010
0000
1000
0000
0001
0000
0000
0100
0000
0000
0010
0000
,
1000
0000
1000
0000
0100
0000
0010
0000
0001
0000
0000
0100
0000
0000
0100
0000
,
0010
0000
1000
0000
0001
0000
0100
0000
0001
0000
0000
0100
0000
0000
0000
0000
,
0010
1000
0001
1000
0100
1000
0110
0000
,
0001
0001
0010
1000
0001
0000
1000
1000
,
0010
0100
0001
1000
0010
0000
0100
0100
,
0001
0000
0010
0010
0001
0010
0001
0000
,
1000
1000
0010
1000
0001
1000
0110
0000
,
0001
0001
0010
0100
1000
0000
1000
1000
,
0100
0010
0001
0100
0010
0000
0100
0100
,
0001
0000
0010
0010
0100
1000
0001
0000
,
0100
0010
1000
0001
1000
0100
1000
0100
,
0020
0000
0030
0100
0000
0000
0001
0100
,
0002
0000
0003
0010
0000
0000
1000
0100
,
2000
0000
3000
0100
0000
0000
0100
0001
,
0200
0000
0300
0010
0000
1000
0100
0010
,
0002
0000
0003
0010
0000
0000
0001
0100
,
2000
0000
3000
0001
0000
0000
0100
0010
,
1000
0000
0000
0010
0000
0000
0100
0000
0000
0000
0001
0000
1000
0000
0100
0000
,
1000
0000
0000
0010
0000
0000
0100
0000
0000
0000
0001
0000
0100
0000
0010
0000
,
1000
0000
0000
0100
0000
0000
0010
0000
1000
0000
0001
0000
0100
0000
1000
0000
,
0001
0000
0000
0010
0000
0000
0100
0000
0001
0000
0000
0000
0000
0000
0000
0000
,
0100
0000
0000
0010
0000
0000
1000
0000
1001
0000
0000
0000
0000
0000
0100
0000
,
0010
1000
0010
0100
1001
0000
0000
0000
,
0100
0000
0000
0010
1000
0100
1000
0010
,
1000
0000
0000
0010
0100
0001
0100
0010
,
0100
0000
0000
1000
0010
1000
0100
1000
,
0010
0000
0100
0100
0001
0000
0110
0000
,
0000
0000
0000
0100
0001
0100
1000
0100
,
0001
1001
0000
0010
1000
0010
0001
0010
,
1000
0110
0000
0001
0100
0001
0100
0000
,
0010
0000
0000
0010
1000
0001
0100
0010
,
0100
0000
0000
0001
0010
1000
0010
0001
,
0010
1001
0000
0100
0001
0100
1000
0100
,
0001
0110
0000
1000
0010
1000
0010
0000
,
0100
0000
0000
0100
0010
0100
1000
0001
,
0010
0010
0100
0100
0010
0010
0100
0100
,
1001
0000
0000
0000
1100
0000
0000
0000
0001
0000
0000
0100
0000
0000
0110
0000
,
1000
0000
0000
0000
0101
0000
0000
0000
0010
0000
0000
1100
0000
0000
0100
0000
,
1001
0000
0000
0000
0110
0000
0000
0000
0001
0000
0000
1010
0000
0000
0010
0000
,
1000
1001
0000
0100
0010
0100
0001
1000
,
0110
0000
0000
0000
1001
0000
0000
0000
0001
0000
0000
0010
0000
0000
1100
0000
,
0010
0000
0000
0000
1001
0000
0000
0000
0100
0000
0000
0001
0000
0000
0101
0000
,
0010
0000
0000
0000
1001
0000
0000
0000
0110
0000
0000
0001
0000
0000
0010
0000
,
1000
0001
1000
0100
1000
0001
1000
0100
,
0000
0000
0001
0000
0001
0001
0100
0010
,
1000
0001
0000
0100
0000
0000
0110
0000
,
0000
0001
1000
0000
0010
0010
0100
0001
,
1000
0010
0000
0100
0000
0000
1001
0000
,
0010
0100
0010
0100
0001
0100
0001
1000
,
0100
0100
1000
0100
0000
0010
0100
0001
,
0100
0000
0010
0010
0100
1000
0100
0010
,
0100
0100
0010
0010
0100
0100
0110
0000
,
1001
0000
0000
0000
0010
0000
0000
0000
0100
0000
0000
1010
0000
0000
0101
0000
,
0010
0000
0000
0000
1000
0000
0000
0000
0110
0000
0000
0010
0000
0000
1100
0000
,
0101
0000
0000
0000
0001
0000
0000
0000
1000
0000
0000
0010
0000
0000
0100
0000
,
0001
0100
0000
0010
1000
0001
1000
0000
,
0110
0000
0000
0000
1001
0000
0000
0000
0001
0000
0000
0110
0000
0000
1010
0000
,
0001
0000
0000
0000
0110
0000
0000
0000
0010
0000
0000
1001
0000
0000
1100
0000
,
0010
0000
0000
0000
1001
0000
0000
0000
0011
0000
0000
1100
0000
0000
0010
0000
,
1000
0001
0100
0010
1000
0001
0100
0000
,
1100
0000
0000
0000
0110
0000
0000
0000
1001
0000
0000
0011
0000
0000
0110
0000
,
1001
0010
0000
0000
0000
0000
0000
0000
;

//---------------dance-double - ----------------
#NOTES:
     dance-double:
     :
     Easy:
     6:
     0.235736,0.314450,0.099151,0.056658,0.000000,233.000000,219.000000,14.000000,8.000000,0.000000,0.000000,0.235736,0.314450,0.099151,0.056658,0.000000,233.000000,219.000000,14.000000,8.000000,0.000000,0.000000:
// measure 0
00000000
00000000
00000000
00000000
,  // measure 1
00000000
00000000
00000000
00000000
,  // measure 2
00000000
00000000
00000000
00000000
,  // measure 3
00000000
00000000
00000000
00000000
,  // measure 4
00000010
00000000
00000010
00000000
,  // measure 5
00001000
00000000
00001000
00000000
,  // measure 6
00010000
00000000
00010000
00000000
,  // measure 7
01000000
01000000
01000000
00000000
,  // measure 8
00100000
00010000
01000000
00000000
,  // measure 9
10000000
00100000
01000000
00000000
,  // measure 10
00010000
00001000
00000100
00000000
,  // measure 11
00000010
00001000
00000100
00000000
,  // measure 12
00000001
00000100
00000010
00000000
,  // measure 13
00001000
00000100
00010000
00000000
,  // measure 14
00100000
00010000
01000000
00000000
,  // measure 15
00200000
00300000
00020000
00030000
,  // measure 16
10000000
10000000
00010000
00100000
,  // measure 17
00010000
00010000
00001000
00000000
,  // measure 18
00000100
00000000
00000010
00000010
,  // measure 19
00000001
00000100
00000001
00000000
,  // measure 20
00000001
00000010
00000010
00000001
,  // measure 21
00000010
00000001
00000001
00000100
,  // measure 22
00001000
00010000
00100000
00000000
,  // measure 23
00010000
00010000
01000000
01000000
,  // measure 24
20000000
30000000
00000000
00010000
,  // measure 25
00100000
00000000
00000000
00001000
,  // measure 26
00000200
00000300
00000000
00001000
,  // measure 27
00000001
00000000
00000000
00000010
,  // measure 28
00002000
00003000
00000000
00010000
,  // measure 29
20000000
30000000
00000000
01000000
,  // measure 30
00100000
00100000
00000000
00010000
,  // measure 31
00001000
00001000
00000000
00000000
,  // measure 32
00000100
00001000
00010000
00010000
,  // measure 33
00100000
00010000
01000000
00000000
,  // measure 34
00001000
00010000
00001000
00000000
,  // measure 35
00000100
00000100
00000010
00000000
,  // measure 36
00000001
00000100
00001000
00000000
,  // measure 37
00010000
01000000
10000000
00000000
,  // measure 38
10000000
01000000
00010000
00000000
,  // measure 39
00001000
00000100
00000001
00000000
,  // measure 40
00000000
00000000
00000000
00000000
,  // measure 41
10000000
00100000
00010000
01000000
,  // measure 42
10000000
00100000
00010000
01000000
,  // measure 43
00020000
00030000
00001000
00010000
,  // measure 44
00001000
00000000
00001000
00000100
,  // measure 45
00000001
00000010
00001000
00000100
,  // measure 46
00000001
00000010
00001000
00000100
,  // measure 47
00002000
00003000
00010000
00001000
,  // measure 48
00010000
00000000
00010000
01000000
,  // measure 49
00011000
00010000
00010000
00001000
,  // measure 50
00011000
00000100
00001000
00001000
,  // measure 51
00011000
00100000
00010000
00010000
,  // measure 52
01000000
00000000
00001000
00000100
,  // measure 53
00011000
00001000
00001000
00010000
,  // measure 54
00011000
00100000
00010000
00010000
,  // measure 55
00011000
00000100
00001000
00001000
,  // measure 56
00000100
00000000
00000000
00000000
,  // measure 57
00000000
00000001
00000010
00000010
,  // measure 58
00000100
00001000
00000000
00000000
,  // measure 59
00000000
00010000
00100000
01000000
,  // measure 60
10000000
10000000
00000000
00000000
,  // measure 61
10000000
00010000
01000000
00100000
,  // measure 62
00010000
00001000
00000100
00000010
,  // measure 63
00000001
00000100
00000010
00001000
,  // measure 64
00010000
00010000
00001000
00010000
,  // measure 65
10010000
00010000
10000000
10000000
,  // measure 66
10010000
00010000
10000000
00010000
,  // measure 67
00011000
00001000
00001000
00000001
,  // measure 68
00000100
00000000
00010000
00001000
,  // measure 69
00001001
00001000
00000001
00000001
,  // measure 70
00001001
00000001
00001000
00011000
,  // measure 71
00010000
00010000
10000000
00010000
,  // measure 72
01000000
00000000
00010000
00001000
,  // measure 73
00011000
00100000
00011000
00000100
,  // measure 74
00000100
00000000
00000000
00000000
;

//---------------dance-double - ----------------
#NOTES:
     dance-double:
     :
     Medium:
     10:
     0.333875,0.366858,0.169973,0.035411,0.053117,330.000000,306.000000,24.000000,5.000000,0.000000,0.000000,0.333875,0.366858,0.169973,0.035411,0.053117,330.000000,306.000000,24.000000,5.000000,0.000000,0.000000:
00000000
00000000
00000000
00000000
,
00000000
00000000
00000000
00000000
,
00000000
00000000
00000000
00000000
,
00000000
00000000
00000000
00000000
,
00100000
00000000
00100000
00010000
00100000
00000000
00010000
00000000
,
00001000
00000000
00001000
00010000
00001000
00000000
00000100
00000000
,
00000010
00000000
00000010
00000001
00000010
00000000
00000001
00000000
,
00000100
00001000
00010000
00000000
,
00100000
00100000
00010000
00000000
01000000
00000000
00100000
00000000
,
01000000
01000000
10000000
00000000
00010000
00000000
00001000
00000000
,
00000100
00001000
00000010
00000100
,
00000001
00000100
00000001
00000000
00001000
00000000
00000100
00000000
,
00000000
00000000
00001000
00001000
00000010
00000000
00000100
00000000
,
00001000
00000000
00000010
00000010
00010000
00000000
00000100
00000000
,
00001000
00000000
00010000
00100000
01000000
00000000
00010000
00000000
,
00100000
01000000
10000000
00000000
10000000
01000000
00100000
00000000
,
00010000
00001000
00010000
00000000
00010000
00000000
00000100
00000000
,
00000100
00000010
00000100
00000000
00000001
00000000
00000100
00000000
,
00000010
00000000
00000010
00000000
00001000
00001000
00010000
00000000
,
00010000
00001000
00010000
00000000
00100000
00000000
01010000
00000000
,
00100000
00010000
10000000
10000000
,
00100000
00010000
00001000
00000000
00010000
00000000
00001000
00000000
,
00000100
00000100
00000010
00000010
,
00000100
00001000
00010000
00000000
00100000
01000000
10000000
00000000
,
00200000
00000000
00300000
00010000
00000000
00000000
00010000
00000000
,
01000000
00000000
00000000
00001000
00000000
00000000
00001000
00000000
,
00000100
00000000
00000000
00001000
00000000
00000000
00000100
00000000
,
00010000
00000000
00000000
00001000
00000000
00000000
00010000
00000000
,
00002000
00000000
00003000
00010000
00000000
00000000
00100000
00000000
,
00020000
00000000
00030000
10000000
00000000
00000000
00000000
00000000
,
00010000
00000000
00000000
00001000
00000000
00000000
00001000
00000000
00000000
00000000
00000000
00000000
00000000
00000000
00000000
00000000
,
00000100
00000000
00000000
00010000
00000000
00000000
00010000
00000000
00000000
00000000
00000000
00000000
00000000
00000000
00000000
00000000
,
00010000
00000000
00010000
01000000
00010000
00000000
00001000
00000000
,
00001000
00000000
00001000
00000010
00001000
00000000
00000110
00000000
,
00000001
00000000
00000001
00001000
00000010
00000000
00001000
00000000
,
00001000
00010000
01000000
00000000
00010000
00000000
01100000
00000000
,
10000000
00000000
10000000
01000000
00010000
00000000
00100000
00000000
,
00010000
00000000
00010000
00001000
00000100
00000000
00001000
00000000
,
00000001
00000000
00000001
00000100
00001000
00000000
00010000
00000000
,
00001000
00010000
00001000
00010000
00001000
00000000
00000000
00000000
,
00000000
00000000
00100000
00100000
,
10010000
00000000
01000000
00000000
01000000
00000000
00100000
00010000
,
00110000
00100000
10100000
10100000
,
02000000
00000000
03000000
00000000
00001000
00001000
00010000
00000000
,
00100000
00000000
00001000
00001000
,
00000110
00000000
00000001
00000000
00000001
00000000
00001000
00000100
,
00000101
00001000
00001100
00001100
,
00000020
00000000
00000030
00000000
00010000
00010000
00001000
00000000
,
00000100
00000000
00001000
00000000
00010000
00100000
01000000
00000000
,
00010000
00000000
00000000
00000000
10000000
00000000
00000000
00000000
00010000
00000000
00000000
10000000
00000000
00000000
00100000
00000000
,
01000000
00000000
00000000
00000000
00100000
00000000
00000000
00000000
01000000
00000000
00000000
00100000
00000000
00000000
00001000
00000000
,
00010000
00000000
00000000
00000000
00001000
00000000
00000000
00000000
00010000
00000000
00000000
00001000
00000000
00000000
00000000
00000000
,
00011000
00000000
00000000
00000000
00001000
00000100
00000010
00000000
,
00001000
00000000
00000000
00000000
00000001
00000000
00000000
00000000
00001000
00000000
00000000
00000001
00000000
00000000
00000100
00000000
,
00000010
00000000
00000000
00000000
00000100
00000000
00000000
00000000
00000010
00000000
00000000
00000100
00000000
00000000
00010000
00000000
,
00001000
00000000
00000000
00000000
00010000
00000000
00000000
00000000
00001000
00000000
00000000
00010000
00000000
00000000
00000000
00000000
,
00011000
00000000
00000000
00000000
00000000
00000000
10000000
00010000
,
00000000
00000000
00100000
00000000
00100000
00010000
01000000
00000000
,
00010000
00001000
00000000
00001100
,
00000000
00001000
00000001
00000000
00001000
00000100
00001000
00000000
,
00000100
00010000
00000000
00110000
,
01000000
00100000
01000000
00000000
10000000
01000000
00010000
00000000
,
00010000
00000000
01000000
00010000
00000000
00010000
00001000
00000000
,
00010000
00000000
00000100
00000010
00001000
00000000
00000100
00000000
,
00000010
00000001
00000100
00000000
,
00000001
00000000
00000000
00000000
00001000
00000000
00000000
00000000
00000100
00000000
00000000
00010000
00000000
00000000
00001000
00000000
,
01000000
00000000
00000000
00000000
01010000
00000000
00000000
00000000
00100000
00000000
00000000
00010000
00000000
00000000
10000000
00000000
,
01000000
00000000
00000000
00000000
00110000
00000000
00000000
00000000
01000000
00000000
00000000
00100000
00000000
00000000
00000000
00000000
,
10010000
00000000
00000000
00000000
00001000
00010000
01000000
00000000
,
10000000
00000000
00000000
00000000
00010000
00000000
00000000
00000000
00100000
00000000
00000000
00001000
00000000
00000000
00010000
00000000
,
00000100
00000000
00000000
00000000
00001100
00000000
00000000
00000000
00000010
00000000
00000000
00000001
00000000
00000000
00001000
00000000
,
00000001
00000000
00000000
00000000
00001010
00000000
00000000
00000000
00000001
00000000
00000000
00000100
00000000
00000000
00000000
00000000
,
00001001
00000000
00000000
00000000
00010000
00001000
00000100
00000000
,
01010000
00000000
00000000
00000000
00010100
00000000
00000000
00000000
00001000
00000000
00000000
00001000
00000000
00000000
00001000
00000000
,
00011000
00000000
00000000
00000000
;

//---------------dance-double - ----------------
#NOTES:
     dance-double:
     :
     Hard:
     12:
     0.458320,0.524968,0.424932,0.063740,0.063740,453.000000,393.000000,60.000000,9.000000,0.000000,0.000000,0.458320,0.524968,0.424932,0.063740,0.063740,453.000000,393.000000,60.000000,9.000000,0.000000,0.000000:
00000000
00000000
00000000
00000000
,
00000000
00000000
00000000
00000000
,
00000000
00000000
00000000
00000000
,
00000000
00000000
00000000
00000000
,
00100000
00010000
00000000
00100000
00000000
00100000
00010000
00000000
,
00100000
00010000
00000000
00001000
00000100
00000000
00000110
00000000
,
00000001
00000100
00000000
00000010
00001000
00000000
00010000
00000000
,
00001000
00010000
00010000
00100000
00100000
00000000
01100000
00000000
,
10000000
00010000
10000000
01000000
10000000
00000000
00010000
00000000
,
00100000
00010000
00001000
00000100
00001000
00000000
00000010
00000000
,
00000001
00000100
00000001
00001000
00000001
00000000
00001000
00000000
,
00100000
00001000
00010000
01000000
00010000
00000000
01100000
00000000
,
00010000
00000100
00010000
00001000
00010000
00000000
00000100
00000000
,
00000100
00000010
00000001
00001000
00000100
00000000
00000010
00000000
,
00001000
00010000
01000000
00100000
01000000
00100000
00000000
00000000
,
00001000
00001000
00000100
00000100
00000001
00000001
00000010
00000010
,
00000100
00000000
00000101
00000000
00001000
00000100
00000010
00000000
,
00010000
00000000
01010000
00000000
00010000
00100000
01000000
00000000
,
10000000
01000000
00010000
00000000
01000000
00010000
00100000
00000000
,
00010000
00100000
00010000
00000000
00001000
00000100
00001000
00000000
,
00010000
00001000
00010000
00000100
00010000
00000000
00000010
00000000
,
00001000
00100000
00001000
00010000
00001000
00000000
00100000
00000000
,
00010000
01000000
00010000
00000000
00100000
10000000
01000000
00000000
,
00010000
00010000
10000000
10000000
00100000
00100000
01000000
01000000
,
00020000
00000000
00030000
00100000
00000000
00000000
00010000
00000100
,
00002000
00000000
00003000
00000100
00000000
00000000
00000010
00000001
,
00000200
00000000
00000300
00000010
00000000
00000000
00000001
00000100
,
00000002
00000000
00000003
00000010
00000000
00001000
00010000
01000000
,
00200000
00000000
00300000
00010000
00000000
00000000
01000000
00100000
,
20000000
00000000
30000000
00010000
00000000
00000000
00010000
00100000
,
10000000
00000000
00000000
01000000
00000000
00000000
00010000
00000000
00000000
00000000
00001000
00000000
00010000
00000000
00000100
00000000
,
00000010
00000000
00000000
00000001
00000000
00000000
00000100
00000000
00000000
00000000
00000001
00000000
00000100
00000000
00000010
00000000
,
00010000
00000000
00000000
00010000
00000000
00000000
00001000
00000000
00100000
00000000
00001000
00000000
00010000
00000000
00100000
00000000
,
10000000
00000000
00000000
00010000
00000000
00000000
00100000
00000000
00020000
00000000
00000000
00000000
00031000
00000000
00000000
00000000
,
00001000
00000000
00000000
00000001
00000000
00000000
00000100
00000000
00000020
00000000
00000000
00000000
00000031
00000000
00000000
00000000
,
00000001
00000010
00001000
00000100
00020000
00000000
01030000
00000000
,
10000000
00000000
00010000
01000000
10000000
01000000
10000000
00000000
,
00100000
00000000
00001000
00000100
00000010
00000100
00000010
00000000
,
00000001
00000000
00001000
00000100
00001000
00010000
00000100
00000000
,
00010000
00010000
00001000
00010000
00001000
00000000
00011000
00000000
,
00000000
00000000
00000000
00010000
00001000
00000100
00000001
00000010
,
00000001
00001010
00000000
00001000
00010000
00100000
10000000
01000000
,
10000000
01010000
00000000
00100000
00010000
00100000
00110000
00000000
,
00001000
00000000
00000100
00000000
00000001
00000100
00000001
00000010
,
00001000
00000000
00000000
00001000
00100000
00010000
01000000
00010000
,
01000000
10100000
00000000
00010000
00000100
00001000
00000010
00001000
,
00000010
00000101
00000000
00001000
00000100
00001000
00001100
00000000
,
00010000
00000000
00100000
00000000
10000000
00100000
10000000
01000000
,
00010000
00000000
00000000
00010000
00001000
00000100
00000010
00001000
,
00001100
00000000
00000000
00000000
00001100
00000000
00000000
00000000
01001000
00000000
00000000
00010000
00000000
00000000
01000000
00000000
,
00110000
00000000
00000000
00000000
00110000
00000000
00000000
00000000
00010010
00000000
00000000
00001000
00000000
00000000
00000001
00000000
,
00000110
00000000
00000000
00000000
00000110
00000000
00000000
00000000
00001000
00000000
00000000
00000010
00000000
00000000
00000000
00000000
,
00010100
00000000
00000000
00001000
00010000
00100000
01000000
00010000
,
10010000
00000000
00000000
00000000
10010000
00000000
00000000
00000000
00101000
00000000
00000000
00010000
00000000
00000000
00000100
00000000
,
00011000
00000000
00000000
00000000
00011000
00000000
00000000
00000000
00010100
00000000
00000000
00001000
00000000
00000000
00000010
00000000
,
00000101
00000000
00000000
00000000
00000101
00000000
00000000
00000000
00001100
00000000
00000000
00001000
00000000
00000000
00000000
00000000
,
01001000
00000000
00001000
00010000
00001000
00010000
00000000
00000000
,
00000000
00000000
00010000
00000000
01000000
00010000
01000000
10000000
,
01000000
10000000
00000000
00010000
00000000
00000000
00011000
00000000
,
00000000
00001000
00000010
00000001
00000010
00000001
00000010
00001000
,
00000100
00000010
00000000
00001000
00000000
00000000
00011000
00000000
,
00100000
00010000
10000000
01000000
00100000
00001000
00010000
00000100
,
00000010
00000001
00001000
00000100
00000000
00001000
00000001
00001000
,
00000100
00000000
00001000
01000000
00100000
10000000
01000000
10000000
,
00100000
01000000
00100000
00000000
00100000
00000000
00011000
00000000
,
00010100
00000000
00000000
00000000
00000110
00000000
00000000
00000000
00001001
00000000
00000000
00000010
00000000
00000000
00000100
00000000
,
00011000
00000000
00000000
00000000
00110000
00000000
00000000
00000000
10010000
00000000
00000000
01000000
00000000
00000000
00100000
00000000
,
01010000
00000000
00000000
00000000
11000000
00000000
00000000
00000000
00010000
00000000
00000000
00001000
00000000
00000000
00000000
00000000
,
00011000
00010100
00000000
00010000
00001000
00000100
00000010
00010000
,
00010100
00000000
00000000
00000000
00110000
00000000
00000000
00000000
10010000
00000000
00000000
01000000
00000000
00000000
00100000
00000000
,
00011000
00000000
00000000
00000000
00000110
00000000
00000000
00000000
00001001
00000000
00000000
00000010
00000000
00000000
00000100
00000000
,
00001010
00000000
00000000
00000000
00110000
00000000
00000000
00000000
00001000
00000000
00000000
00010000
00000000
00000000
00000000
00000000
,
00011000
01001000
00000000
00001000
00010000
00100000
01000000
00010000
,
01100000
00000000
00000000
00000000
01010000
00000000
00000000
00000000
00010100
00000000
00000000
00001010
00000000
00000000
00000100
00000000
,
00011000
00011000
00000000
00000000
00000000
00000000
00000000
00000000
;
