#VERSION:0.83;
#TITLE:超絶☆ダイナミック!;
#SUBTITLE:;
#ARTIST:吉井和哉;
#TITLETRANSLIT:Chozetsu☆Dynamic!;
#SUBTITLETRANSLIT:;
#ARTISTTRANSLIT:Yoshii Kazuya;
#GENRE:ANIME;
#ORIGIN:;
#CREDIT:SAIKIO;
#BANNER:Chozetsu Dynamic!-banner.png;
#BACKGROUND:bg.png;
#PREVIEWVID:;
#JACKET:Chozetsu Dynamic!-jacket.png;
#CDIMAGE:;
#DISCIMAGE:;
#LYRICSPATH:;
#CDTITLE:Saikio Simfiles.png;
#MUSIC:Chozetsu Dynamic!.ogg;
#OFFSET:-0.093000;
#SAMPLESTART:40.654995;
#SAMPLELENGTH:15.219995;
#SELECTABLE:YES;
#BPMS:0.000=192.000;
#STOPS:;
#DELAYS:;
#WARPS:;
#TIMESIGNATURES:0.000=4=4;
#TICKCOUNTS:0.000=4;
#COMBOS:0.000=1;
#SPEEDS:0.000=1.000=0.000=0;
#SCROLLS:0.000=1.000;
#FAKES:;
#LABELS:0.000=Song Start;
#BGCHANGES:0.000=Chozetsu Dynamic!.avi=1.000=0=0=0=StretchNoLoop====,
99999=-nosongbg-=1.000=0=0=0 // don't automatically add -songbackground-
;
#KEYSOUNDS:;
#ATTACKS:
;

//---------------dance-single - ----------------
#NOTEDATA:;
#CHARTNAME:;
#STEPSTYPE:dance-single;
#DESCRIPTION:;
#CHARTSTYLE:;
#DIFFICULTY:Beginner;
#METER:1;
#RADARVALUES:0.113854,0.179031,0.000000,0.000000,0.000000,69.000000,69.000000,0.000000,0.000000,0.000000,0.000000,0.000000,0.000000,0.000000,0.113854,0.179031,0.000000,0.000000,0.000000,69.000000,69.000000,0.000000,0.000000,0.000000,0.000000,0.000000,0.000000,0.000000;
#CREDIT:;
#NOTES:
0000
0000
0000
0000
,
0000
0000
0000
0000
,
0000
0000
0000
0000
,
0000
0000
0000
0000
,
0000
0000
0100
0000
,
0000
0000
0010
0000
,
0000
0000
0100
0000
,
0000
0000
0100
0000
,
0000
0000
1000
0000
,
0000
0000
0000
0000
,
0000
0000
0001
0000
,
0000
0000
0000
0000
,
1000
0000
1000
0000
,
0000
0000
0001
0000
,
0000
0000
0000
0000
,
0000
0000
0000
0000
,
0000
0000
0100
0000
,
0000
0000
0100
0000
,
0000
0000
0010
0000
,
0000
0000
0000
0000
,
0000
0000
0001
0000
,
0000
0000
0001
0000
,
0000
0000
1000
0000
,
0000
0000
0000
0000
,
0000
0000
0100
0000
,
0100
0000
0100
0000
,
0000
0000
0010
0000
,
0000
0000
0001
0000
,
0000
0000
0100
0000
,
1000
0000
0100
0000
,
0001
0000
0100
0000
,
0100
0000
0100
0000
,
0000
0000
0010
0000
,
0100
0000
0010
0000
,
0100
0000
1000
0000
,
0100
0000
0010
0000
,
0000
0000
0001
0000
,
0000
0000
0100
0000
,
1000
0000
0100
0000
,
0000
0000
0000
0000
,
0000
0000
0010
0000
,
0001
0000
0010
0000
,
1000
0000
0100
0000
,
0010
0000
0001
0000
,
0000
0000
0100
0000
,
0000
0000
0010
0000
,
0000
0000
1000
0000
,
0000
0000
0001
0000
,
0000
0000
1000
0000
,
0100
0000
0001
0000
,
0100
0000
0010
0000
,
0000
0000
0100
0000
,
1000
0000
0100
0000
,
0000
0000
0010
0000
,
0010
0000
0010
0000
,
0000
0000
0000
0000
,
0001
0000
0100
0000
,
1000
0000
0100
0000
,
0100
0000
0000
0000
,
0010
0000
0000
0000
,
0100
0000
0000
0000
,
1000
0000
0000
0000
,
0001
0000
0000
0000
;

//---------------dance-single - ----------------
#NOTEDATA:;
#CHARTNAME:;
#STEPSTYPE:dance-single;
#DESCRIPTION:;
#CHARTSTYLE:;
#DIFFICULTY:Easy;
#METER:4;
#RADARVALUES:0.169956,0.267825,0.011550,0.046202,0.000000,103.000000,102.000000,1.000000,4.000000,0.000000,0.000000,0.000000,0.000000,0.000000,0.169956,0.267825,0.011550,0.046202,0.000000,103.000000,102.000000,1.000000,4.000000,0.000000,0.000000,0.000000,0.000000,0.000000;
#CREDIT:;
#NOTES:
0000
0000
0000
0000
,
0000
0000
0000
0000
,
0000
0000
0000
0000
,
0000
0000
0000
0000
,
0000
0000
0000
0100
,
0000
0000
0000
0100
,
0000
0000
0000
0010
,
0000
0000
0000
0010
,
0000
0000
1000
0000
,
0000
0000
0001
0000
,
1000
0000
0001
0000
,
0000
0000
0000
0000
,
0010
0000
0010
0000
,
0100
0000
0100
0000
,
1000
0000
0000
0000
,
0010
0000
0000
0000
,
0000
0000
0001
0000
,
0000
0000
1000
0000
,
0100
0000
1000
0000
,
0000
0000
0000
0000
,
0010
0000
0010
0000
,
0100
0000
0001
0000
,
0100
0000
0000
0000
,
0010
0000
0000
0000
,
0000
0000
0100
0000
,
0100
0000
0010
0000
,
0010
0000
1000
0000
,
1000
0000
0001
0000
,
0001
0000
0100
0100
,
1000
0000
0010
0000
,
0100
0000
0010
0010
,
0001
0000
0100
0000
,
0000
0000
1000
1000
,
0001
0001
0100
0010
,
0000
0000
0100
0000
,
0001
0000
0100
0100
,
0000
0000
0010
0000
,
1000
0000
0001
0001
,
0001
0000
0200
0000
,
0000
0300
0000
0000
,
0010
0000
1000
0000
,
0100
0000
0010
0000
,
0001
0000
0010
0000
,
0100
0000
1000
0000
,
0000
0000
0010
0010
,
1000
0000
0100
0100
,
0001
0000
0020
0000
,
0030
0000
0110
0000
,
0000
0000
0001
0001
,
1000
1000
0010
0100
,
0000
0000
0001
0000
,
1000
0000
0010
0010
,
0000
0000
0100
0000
,
0010
0000
0001
0000
,
1000
0000
0002
0000
,
0000
0003
0000
0000
,
0010
0000
0100
0100
,
0100
0000
0010
0000
,
0001
0000
0000
0000
,
1000
0100
0000
0000
,
0001
0010
0000
0000
,
0100
0010
0000
0000
,
0010
0000
0000
0020
0000
0000
0000
0000
,
0000
0000
0000
0000
,
0000
0000
0000
0000
,
0000
0000
0000
0000
,
0000
0030
0000
0000
;

//---------------dance-single - ----------------
#NOTEDATA:;
#CHARTNAME:;
#STEPSTYPE:dance-single;
#DESCRIPTION:;
#CHARTSTYLE:;
#DIFFICULTY:Medium;
#METER:7;
#RADARVALUES:0.293710,0.420868,0.115504,0.069302,0.000000,178.000000,168.000000,10.000000,6.000000,0.000000,0.000000,0.000000,0.000000,0.000000,0.293710,0.420868,0.115504,0.069302,0.000000,178.000000,168.000000,10.000000,6.000000,0.000000,0.000000,0.000000,0.000000,0.000000;
#CREDIT:;
#NOTES:
0000
0000
0000
0000
,
0000
0000
0000
0000
,
0000
0000
0000
0000
,
0000
0000
0000
0000
,
0000
0000
0000
0000
,
0001
1000
0000
0000
0000
0000
0000
0000
,
0100
0010
0000
0000
0000
0000
0000
0000
,
0001
0010
0000
0000
0000
0000
0000
0000
,
1000
0100
0000
0000
0100
0000
0000
0000
,
0000
0010
0010
0100
,
0100
0001
1000
0000
,
0010
0000
0100
0000
,
0001
0100
1000
0100
,
0010
0000
0100
0000
,
0010
0000
0000
0100
,
0010
0100
0100
0000
0001
0000
0100
0000
,
1000
0001
0001
0000
1000
0000
0000
0000
,
0000
0010
0100
0001
,
1000
0100
0010
0000
,
0001
0000
0100
0000
,
0010
0001
0001
1000
,
1000
0010
1000
0001
,
0100
0010
0000
0100
,
0000
0010
0010
0000
0100
0000
0001
0000
,
0000
0001
0001
0000
1000
0000
0100
0000
,
1000
0100
0010
0000
,
0100
0000
0001
0100
,
0001
0000
0100
0000
,
0010
0000
1001
0000
,
0110
0000
0100
0000
,
0010
0000
1001
0000
,
0110
0000
0100
0010
,
0100
0000
1000
1001
,
0100
0000
0110
0000
0001
0000
0100
0010
,
0000
1000
0000
0000
0001
0000
0000
0000
,
0100
0000
0000
0000
0010
0000
0010
0100
,
0000
0001
0000
1000
0100
0000
0000
0000
,
0010
0000
0001
0010
,
0100
0000
0020
0000
,
0000
0000
0000
0030
,
0100
0100
1000
1001
,
0100
0001
0100
1001
,
0100
0000
0100
0100
,
0010
0010
2000
0000
,
3000
0000
0100
0010
,
0100
0001
0000
0000
0100
0000
0010
0000
,
1000
0001
0000
0000
2000
0000
0000
0000
,
0000
3000
0000
0000
0002
0000
0000
0000
,
0000
0003
0000
0000
0010
0000
0110
0000
,
0100
0000
0110
0000
0010
0000
0100
0001
,
0000
1000
0000
0000
0010
0000
0000
0000
,
0100
0000
0000
0000
1000
0000
1000
0100
,
0000
0010
0000
0000
1000
0000
0000
0000
,
0100
0000
0010
0010
,
0001
0100
0000
0000
0020
0000
0000
0000
,
0000
0000
0030
0000
,
0100
0010
1000
0001
,
0100
0100
0010
0010
,
0100
0001
0000
0000
,
1000
0100
0000
0001
0000
0000
0000
0000
,
0010
0001
0000
1000
0000
0000
0000
0000
,
1000
0001
0000
0100
0000
0000
0000
0000
,
0100
0010
0100
0020
0000
0000
0000
0000
,
0000
0000
0000
0000
,
0000
0000
0000
0000
,
0000
0000
0000
0000
,
0000
0030
0000
0000
;

//---------------dance-single - ----------------
#NOTEDATA:;
#CHARTNAME:;
#STEPSTYPE:dance-single;
#DESCRIPTION:;
#CHARTSTYLE:;
#DIFFICULTY:Hard;
#METER:9;
#RADARVALUES:0.392714,0.612172,0.161706,0.103954,0.000000,238.000000,224.000000,14.000000,9.000000,0.000000,0.000000,0.000000,0.000000,0.000000,0.392714,0.612172,0.161706,0.103954,0.000000,238.000000,224.000000,14.000000,9.000000,0.000000,0.000000,0.000000,0.000000,0.000000;
#CREDIT:;
#NOTES:
0000
0000
0000
0000
,
0000
0000
0000
0000
,
0000
0000
0000
0000
,
0000
0000
0000
0000
,
0000
0000
0000
0000
,
0100
0010
0100
0010
0000
0000
0000
0000
,
1000
0100
1000
0100
0000
0000
0000
0000
,
0010
0001
0010
0001
0000
0000
0000
0000
,
0100
0010
1000
0000
0002
0000
0000
0000
,
0003
0100
0010
1000
,
0001
0100
0020
0000
,
0000
0030
0000
0000
,
0100
0010
0000
1000
0000
0000
0100
0000
,
0010
0000
0001
0100
0000
0000
0010
0000
,
1000
0000
0001
0100
0000
0000
0010
0000
,
1000
0100
1000
0000
0001
0000
0010
0000
,
0001
0100
0001
0000
2000
0000
0000
0000
,
3000
0010
0100
0001
,
0100
0010
0200
0000
,
0000
0300
0000
0000
,
0010
0100
0000
0001
0000
0000
0100
0000
,
0010
0000
1000
0100
0000
0000
0010
0000
,
0001
0100
0000
0010
,
0000
0100
0010
0000
1000
0000
0001
0000
,
0000
1000
0100
0010
0000
0000
0001
0000
,
0100
0010
0000
1000
0000
0000
0001
0000
,
0100
0010
0000
1000
0000
0000
0000
0000
,
0010
0000
0100
0000
,
0010
0000
0010
0000
1000
0100
0001
0000
,
0010
0000
0100
0000
0001
0010
1000
0000
,
0010
0100
1001
0100
,
0010
0100
0110
0000
,
1001
0000
0101
1100
,
0001
0010
1000
0000
1000
0000
0100
0010
,
0000
0001
0100
0000
0110
0000
0001
0000
,
0011
0000
0100
0000
0010
0001
0010
1000
,
0000
0001
0000
0100
0010
0000
0000
0000
,
0100
0000
1000
0010
,
0100
0001
0000
0000
0200
0000
0000
0000
,
0000
0000
0300
0000
,
0001
0000
0001
0000
0100
0010
0001
0000
,
0010
0100
1000
0000
0001
1000
0100
0000
,
1000
0001
0010
0000
2000
0000
3100
0000
,
0002
0013
0100
0000
,
0000
0000
0010
0100
,
0001
0100
0000
0000
0010
0000
1000
0000
,
0100
1000
0000
0000
0010
1000
0001
1000
,
0010
1000
0001
0000
0010
0100
1000
0010
,
0001
0100
0010
0000
1001
0000
0011
0000
,
1000
0100
0001
0000
1000
0000
0001
0100
,
0000
0010
0001
0000
0110
0000
0001
0000
,
1100
0000
0001
0000
0100
0010
0100
1000
,
0000
0010
0000
0001
0100
0000
0000
0000
,
0001
0000
1000
0100
,
0001
0010
0000
0000
0020
0000
0000
0000
,
0000
0000
0030
0000
,
0100
0110
1001
0100
,
0010
0000
1000
0000
0110
0000
0001
0100
,
0000
0000
0010
1000
0000
0000
0000
0010
,
1000
0100
1000
0001
0000
0010
0000
1000
,
0001
0010
0001
0100
0000
1000
0000
0010
,
1000
0010
0100
0001
0000
1000
0000
0001
,
0100
1000
0100
0020
0000
0000
0000
0000
,
0000
0000
0000
0000
,
0000
0000
0000
0000
,
0000
0000
0000
0000
,
0000
0030
0000
0000
;

//---------------dance-double - ----------------
#NOTEDATA:;
#CHARTNAME:;
#STEPSTYPE:dance-double;
#DESCRIPTION:;
#CHARTSTYLE:;
#DIFFICULTY:Easy;
#METER:5;
#RADARVALUES:0.184807,0.306086,0.057752,0.150155,0.000000,112.000000,107.000000,5.000000,13.000000,0.000000,0.000000,0.000000,0.000000,0.000000,0.184807,0.306086,0.057752,0.150155,0.000000,112.000000,107.000000,5.000000,13.000000,0.000000,0.000000,0.000000,0.000000,0.000000;
#CREDIT:;
#NOTES:
00000000
00000000
00000000
00000000
,
00000000
00000000
00000000
00000000
,
00000000
00000000
00000000
00000000
,
00000000
00000000
00000000
00000000
,
00000000
00000000
00000000
00000000
,
00010000
00000000
00000000
00000000
,
00001000
00000000
00000000
00000000
,
00000100
00000000
00000000
00000000
,
00010000
00000000
00200000
00000000
,
00300000
00000000
01000000
00000000
,
01000000
00000000
01000000
00000000
,
00000000
00000000
00000000
00000000
,
10000000
00000000
01000000
00000000
,
00100000
00000000
00010000
00000000
,
00001000
00000000
00000000
00000000
,
00001000
00000000
00010000
00000000
,
00000000
00000000
00000200
00000000
,
00000300
00000000
00000010
00000000
,
00000010
00000000
00000010
00000000
,
00000000
00000000
00000000
00000000
,
00000001
00000000
00000100
00000000
,
00001000
00000000
00010000
00000000
,
00100000
00000000
00000000
00010000
,
00000000
00000000
10000000
00000000
,
00000000
00000000
00100000
00000000
,
01000000
00000000
00100000
00000000
,
10000000
00000000
01000000
00000000
,
00100000
00000000
00100000
00000000
,
00000000
00000000
00110000
00000000
,
00011000
00000000
00001000
00000000
,
00000100
00000000
00001100
00000000
,
00011000
00000000
00100000
00000000
,
00010000
00000000
01000000
01000000
,
00100000
00100000
00001000
00000000
,
00010000
00000000
00000100
00000000
,
00001000
00000000
00001000
00010000
,
00000000
00000000
00002000
00003000
,
00000100
00000000
00000010
00000010
,
00000001
00000000
00000200
00000000
,
00000000
00000000
00000300
00000000
,
00000010
00001000
00020000
00030000
,
00200000
00300000
02000000
03000000
,
20000000
30000000
00020000
00030000
,
00200000
00300000
00011000
00000000
,
00000000
00000000
00010000
00001000
,
00010000
00000000
00000100
00001000
,
00000100
00000000
00000020
00000000
,
00000000
00000030
00000100
00000000
,
00000100
00000000
00000001
00000100
,
00001000
00000000
00010000
00000000
,
00100000
00000000
10000000
01000000
,
00100000
00000000
00010000
00100000
,
00000000
00010000
00010000
00000000
,
00001000
00000000
00010000
00001000
,
00010000
00000000
00002000
00000000
,
00000000
00003000
00000000
00000000
,
00000100
00000100
00000010
00000000
,
00001000
00000000
00010000
00000000
,
00100000
00010000
00000000
00000000
,
01000000
00010000
00000000
00000000
,
00001000
00010000
00000000
00000000
,
00000100
00000010
00000000
00000000
,
00000001
00000000
00000000
00000020
00000000
00000000
00000000
00000000
,
00000000
00000000
00000000
00000000
,
00000000
00000000
00000000
00000000
,
00000000
00000000
00000000
00000000
,
00000000
00000030
00000000
00000000
;

//---------------dance-double - ----------------
#NOTEDATA:;
#CHARTNAME:;
#STEPSTYPE:dance-double;
#DESCRIPTION:;
#CHARTSTYLE:;
#DIFFICULTY:Medium;
#METER:8;
#RADARVALUES:0.318461,0.497390,0.173256,0.196357,0.000000,193.000000,178.000000,15.000000,17.000000,0.000000,0.000000,0.000000,0.000000,0.000000,0.318461,0.497390,0.173256,0.196357,0.000000,193.000000,178.000000,15.000000,17.000000,0.000000,0.000000,0.000000,0.000000,0.000000;
#CREDIT:;
#NOTES:
00000000
00000000
00000000
00000000
,
00000000
00000000
00000000
00000000
,
00000000
00000000
00000000
00000000
,
00000000
00000000
00000000
00000000
,
00000000
00000000
00000000
00000000
,
00000100
00000001
00000000
00000000
00000000
00000000
00000000
00000000
,
00000010
00001000
00000000
00000000
00000000
00000000
00000000
00000000
,
00010000
00001000
00000000
00000000
00000000
00000000
00000000
00000000
,
00100000
00010000
00000000
00000000
02000000
00000000
00000000
00000000
,
03000000
10000000
01000000
00100000
,
00010000
00001000
00000200
00000000
,
00000000
00000300
00000000
00000000
,
00001000
00000100
00000000
00010000
00000000
00000000
00001000
00000000
,
00000100
00000010
00000000
00010000
,
00001000
00000000
00010000
00010000
00000000
00000000
00001000
00010000
,
00000000
00000100
00000000
00000000
00001000
00000000
00000100
00000010
,
00000000
00000100
00000000
00000000
00000020
00000000
00000000
00000000
,
00000030
00000100
00000001
00000100
,
00001000
00010000
00200000
00000000
,
00000000
00000000
00000000
00300000
00000000
00000000
00000000
00000000
,
01000000
00010000
00000000
00100000
00000000
00000000
00010000
00000000
,
10000000
00000000
10000000
01000000
00000000
00000000
00100000
00000000
,
00010000
00000000
00001000
00000000
00010000
00000000
00001000
00010000
,
00000000
00000100
00000000
00000000
00001000
00000000
00000010
00001000
,
00000000
00000100
00000000
00000010
00000000
00000000
00000010
00000000
,
00000100
00000100
00001000
00001000
,
00010000
00010000
00100000
00100000
,
00010000
00000000
01000000
00000000
,
00100000
00000000
00110000
00011000
,
00001100
00001000
00010000
00100000
,
01000000
00010000
01010000
01100000
,
00010000
01000000
01100000
00000000
,
10010000
00000000
00100000
00100000
,
00010000
00000000
00010000
00000000
00001000
00000000
00010000
00001000
,
00000000
00000100
00000000
00000000
00001010
00000000
00000000
00000000
,
00001100
00000000
00000000
00000000
00001000
00000000
00001000
00000100
,
00000000
00000100
00000000
00001000
00000020
00000000
00000000
00000000
,
00000130
00000000
00000001
00000100
,
00000010
00001000
00000000
00000000
00000200
00000000
00000000
00000000
,
00000000
00000000
00000000
00000300
00000000
00000000
00000000
00000000
,
00001000
00010000
00200000
00000000
,
02300000
00000000
23000000
00000000
,
30200000
00000000
00320000
00000000
,
00032000
00000000
00003200
00000000
,
00000300
00000000
00001000
00100000
,
00110000
00000000
00010000
00001000
,
00001100
00000000
00000000
00000000
00010000
00001000
00010000
00000000
,
00000100
00000000
00001000
00000000
00000010
00001000
00000010
00000000
,
00001000
00000100
00001001
00001100
,
00001000
00000000
00100000
00000000
00010000
00000000
00100000
00010000
,
00000000
01000000
00000000
00000000
00110000
00000000
01000000
00000000
,
11000000
00000000
00100000
00000000
00010000
00000000
00001000
00010000
,
00000000
00001000
00000000
00000100
00002000
00000000
00000000
00003000
,
00000100
00000000
00000010
00000100
,
00000001
00000010
00000000
00000000
00002000
00000000
00000000
00000000
,
00000000
00000000
00003000
00000000
,
00010000
00100000
00010000
00010000
,
01000000
00000000
00100000
00000000
00010000
00000000
10000000
00010000
,
00000000
00000000
00100000
00020000
00000000
00000000
00030000
00000000
,
00001000
00010000
00000000
00001000
00000000
00000000
00000000
00000000
,
00000100
00010000
00000000
00000100
00000000
00000000
00000000
00000000
,
00000010
00001000
00000000
00000010
00000000
00000000
00000000
00000000
,
00010000
00001000
00000000
00200000
00000000
00000000
00000000
00000000
,
00000000
00000000
00000000
00000000
,
00000000
00000000
00000000
00000000
,
00000000
00000000
00000000
00000000
,
00000000
00300000
00000000
00000000
;

//---------------dance-double - ----------------
#NOTEDATA:;
#CHARTNAME:;
#STEPSTYPE:dance-double;
#DESCRIPTION:;
#CHARTSTYLE:;
#DIFFICULTY:Hard;
#METER:10;
#RADARVALUES:0.407564,0.612172,0.311861,0.334962,0.000000,247.000000,220.000000,27.000000,29.000000,0.000000,0.000000,0.000000,0.000000,0.000000,0.407564,0.612172,0.311861,0.334962,0.000000,247.000000,220.000000,27.000000,29.000000,0.000000,0.000000,0.000000,0.000000,0.000000;
#CREDIT:;
#NOTES:
00000000
00000000
00000000
00000000
,
00000000
00000000
00000000
00000000
,
00000000
00000000
00000000
00000000
,
00000000
00000000
00000000
00000000
,
00000000
00000000
00000000
00000000
,
00100000
00001000
00100000
00001000
00000000
00000000
00000000
00000000
,
00010000
00001000
00010000
00001000
00000000
00000000
00000000
00000000
,
00000100
00001000
00000100
00001000
00000000
00000000
00000000
00000000
,
00000010
00000001
00000100
00000000
00000020
00000000
00000000
00000000
,
00000030
00000100
00001000
00010000
,
00100000
00000000
01000000
00000000
00010000
00000000
00010000
01000000
,
00000000
00010000
00100000
00000000
00010000
00000000
10000000
00010000
,
00000000
01000000
00000000
00010000
00000000
00000000
00100000
00000000
,
00010000
00000000
00001000
00010000
00000000
00000000
00000100
00000000
,
00001000
00000000
00000010
00001000
00000000
00000000
00000100
00000000
,
00000000
00000010
00000010
00000000
00000001
00000000
00000100
00000010
,
00000000
00001000
00000100
00000000
00020000
00000000
00000000
00000000
,
00030000
01000000
00010000
00001000
,
00000100
00000000
00000010
00000000
00000001
00000000
00000100
00000010
,
00000000
00000100
00000000
00000000
00010000
00000000
00001000
00010000
,
00000000
00100000
00000000
00010000
00000000
00000000
10000000
00000000
,
00010000
00000000
00010000
01000000
00000000
00000000
00010000
00000000
,
00001000
00000000
00000100
00000000
00000010
00000000
00000100
00001000
,
00000000
00000010
00001000
00000000
00010000
00000000
00100000
00010000
,
00000000
01000000
00000000
00200000
00000000
00000000
00310000
00000000
,
01000000
00010000
00000000
02000000
00000000
00000000
03010000
00000000
,
00001000
00010000
00000000
00002000
00000000
00000000
00003000
00000000
,
00000100
00000000
00000110
00000000
,
00000001
00000000
00000100
00000000
00000010
00001000
00010000
00000000
,
00100000
00000000
00010000
00000000
00100000
00010000
01000000
00000000
,
00010000
00000000
10000000
00000000
10000000
01000000
00010000
00000000
,
00100000
00010000
00010100
00001000
,
00011000
00000000
01100000
00110000
,
00011000
00000000
00001000
00000000
00010000
00000000
00010000
00001000
,
00000000
00000100
00001000
00000000
00002200
00000000
00003300
00000000
,
00002020
00000000
00003030
00000000
00001000
00000000
00001000
00000001
,
00000000
00000100
00000000
00001000
00000200
00000000
00000000
00000000
,
00000310
00000000
00000001
00000100
,
00000010
00001000
00000000
00000000
00000020
00000000
00000000
00000000
,
00000000
00000000
00000000
00000030
00000000
00000000
00000000
00000000
,
00010000
00100000
00022000
00033000
,
00220000
00330000
02020000
03030000
,
20020000
30030000
00220000
00330000
,
00002200
00003300
00000220
00000000
,
00000000
00000330
00000000
00000000
00000010
00000000
00001000
00000000
,
00001100
00001100
00000000
00000000
00100000
00000000
00010000
00000000
,
01010000
01010000
00000000
00000000
00100000
10000000
00010000
00000000
,
00100000
00010000
00001000
00000000
00010000
00001000
00010000
00001000
,
00010000
00000100
00010000
00000000
00000110
00000000
00000101
00000000
,
00001100
00000000
00011000
00000000
00100000
00000000
01000000
00100000
,
00000000
00100000
01000000
00000000
00110000
00000000
01000000
00000000
,
11000000
00000000
00100000
00000000
00010000
00000000
00010000
00001000
,
00000000
00000100
00000000
00001000
00000200
00000000
00000000
00000000
,
00001300
00000000
00001000
00001000
,
00010000
01000000
00000000
00000000
00200000
00000000
00000000
00000000
,
00000000
00000000
00000000
00300000
,
00010000
00100000
01010000
01010000
,
00100000
00000000
00010000
00000000
10000000
00000000
10000000
00100000
,
00000000
00000000
01000000
00002000
00000000
00000000
00000000
00003000
,
00010000
00001000
00010000
00001000
00000000
00000100
00000000
00010000
,
00000100
00010000
00000100
00010000
00000000
00001000
00000000
01000000
,
00010000
01000000
00010000
00100000
00000000
00010000
00000000
00001000
,
00000010
00001000
00000010
00000200
00000000
00000000
00000000
00000000
,
00000000
00000000
00000000
00000000
,
00000000
00000000
00000000
00000000
,
00000000
00000000
00000000
00000000
,
00000000
00000300
00000000
00000000
;

//---------------dance-single - ----------------
#NOTEDATA:;
#CHARTNAME:;
#STEPSTYPE:dance-single;
#DESCRIPTION:;
#CHARTSTYLE:;
#DIFFICULTY:Challenge;
#METER:11;
#RADARVALUES:0.476867,0.612172,0.311861,0.277210,0.000000,289.000000,262.000000,27.000000,24.000000,4.000000,0.000000,0.000000,0.000000,0.000000,0.476867,0.612172,0.311861,0.277210,0.000000,289.000000,262.000000,27.000000,24.000000,4.000000,0.000000,0.000000,0.000000,0.000000;
#CREDIT:;
#NOTES:
0000
0000
0000
0000
,
0000
0000
0000
0000
,
0000
0000
0000
0000
,
0000
0000
0000
0000
,
0000
0000
0000
0000
,
1000
0100
0010
0002
0000
0000
0000
0000
,
0013
0100
1000
0200
0000
0000
0000
0000
,
1300
0010
0100
0020
0000
0000
0000
0000
,
0130
0010
1000
0000
2000
0000
0010
0000
,
0001
3100
0110
0001
,
1001
0000
0100
0000
0010
0000
0001
0100
,
0000
0010
1000
0000
0100
0000
0010
0000
,
0001
0100
0000
0020
0000
0000
0130
0000
,
0001
0000
1000
0200
0000
0000
0310
0000
,
0001
0000
1000
0010
0000
0000
0100
0100
,
0000
0001
1000
0100
0010
0000
0001
0001
,
0000
0010
0100
0000
0002
0000
0100
0000
,
1000
0003
0010
0000
1100
0000
0001
0000
,
1010
0000
1000
0000
0001
0000
0100
0010
,
0000
1000
0100
0000
1000
0000
0010
0000
,
0100
0001
0000
2000
0000
0000
3100
0000
,
0010
0000
0001
0200
0000
0000
0310
0000
,
1000
0000
0001
0000
0100
0000
1000
0010
,
0000
0010
1000
0001
1000
0000
0100
0000
,
1000
0000
0000
0002
0000
0000
0103
0000
,
0010
1000
0000
0020
0000
0000
0130
0000
,
0001
0010
0000
0100
0000
0000
1000
0000
,
1000
0010
0100
0001
,
1000
0000
0100
0000
1000
0000
0100
0010
,
0002
0000
0013
0100
2000
0000
3010
0001
,
0020
0130
1010
0101
,
0110
1100
0011
0000
,
MMMM
0000
0000
0000
1000
0100
0010
0000
,
0001
0100
0010
0000
1010
0000
1000
0100
,
0000
1000
0010
0000
0011
0000
0100
0000
,
1100
0000
0010
0000
0100
0000
0100
0001
,
0000
0001
0100
0010
0002
0000
0013
0000
,
0100
1000
0100
0010
,
1000
0001
0000
0000
0200
0000
0010
0000
,
0001
1000
0310
0001
,
1000
0100
2000
3010
,
0002
0013
2000
3001
,
0200
0310
0101
1000
,
1100
0010
2001
0000
,
3010
0010
0100
0001
,
0101
0101
0000
0000
0010
0000
1000
0000
,
1100
1100
0000
0000
0010
1000
0001
1000
,
0100
0001
0010
0000
0001
1000
0100
0001
,
0010
0100
1000
0000
0011
0000
1001
0000
,
0100
0000
0001
0000
0100
0000
0100
0010
,
0000
0100
1000
0000
1010
0000
0010
0000
,
0101
0000
0001
0000
1000
0000
1000
0100
,
0000
0010
0001
0100
0020
0000
0130
0000
,
0001
1000
1001
1000
,
0100
0010
0000
0000
0020
0000
0100
0000
,
1000
0001
0130
0001
,
1000
0010
1100
1100
,
0010
0000
0001
0000
0011
0000
0010
0100
,
0000
0000
1000
0100
0000
0010
0001
0000
,
0100
1000
0001
0100
0000
0100
1000
0001
,
0010
0100
0010
0100
0000
1000
0001
0010
,
0100
1000
0010
0001
0000
0100
1000
0001
,
1000
0010
0100
0020
0000
0000
0000
0000
,
0000
0000
0000
0000
,
0000
0000
0000
0000
,
0000
0000
0000
0000
,
0000
0030
0000
0000
;

//---------------dance-double - ----------------
#NOTEDATA:;
#CHARTNAME:;
#STEPSTYPE:dance-double;
#DESCRIPTION:;
#CHARTSTYLE:;
#DIFFICULTY:Challenge;
#METER:11;
#RADARVALUES:0.442216,0.612172,0.219458,0.288760,0.000000,268.000000,249.000000,19.000000,25.000000,8.000000,0.000000,0.000000,0.000000,0.000000,0.442216,0.612172,0.219458,0.288760,0.000000,268.000000,249.000000,19.000000,25.000000,8.000000,0.000000,0.000000,0.000000,0.000000;
#CREDIT:;
#NOTES:
// measure 0
00000000
00000000
00000000
00000000
,  // measure 1
00000000
00000000
00000000
00000000
,  // measure 2
00000000
00000000
00000000
00000000
,  // measure 3
00000000
00000000
00000000
00000000
,  // measure 4
00000000
00000000
00000000
00200000
00000000
00000000
00000000
00300000
,  // measure 5
00010000
00001000
00010000
00002000
00000000
00000000
00000000
00003000
,  // measure 6
00000100
00001000
00000100
00000020
00000000
00000000
00000000
00000030
,  // measure 7
00000010
00000100
00000010
00000002
00000000
00000000
00000000
00000003
,  // measure 8
00001000
00000001
00001000
00000000
00000200
00000000
00001000
00000000
,  // measure 9
00001300
00100000
01000000
01010000
,  // measure 10
10000000
00000000
01000000
00000000
00010000
00000000
00010000
01000000
,  // measure 11
00000000
10000000
00100000
00000000
00010000
00000000
00001000
00000000
,  // measure 12
00010000
00100000
00000000
00020000
00000000
00030000
01000000
00000000
,  // measure 13
10000000
00000000
00100000
02000000
00000000
03000000
00001000
00000000
,  // measure 14
00000010
00000000
00000010
00000100
00000000
00000000
00000001
00000010
,  // measure 15
00000000
00001000
00010000
00000000
01000000
00000000
10000000
01000000
,  // measure 16
00000000
00010000
00001000
00000000
00200000
00000000
00010000
00000000
,  // measure 17
00310000
01000000
00001000
00000100
,  // measure 18
00001100
00000000
00000010
00000000
00001000
00000000
00001000
00000001
,  // measure 19
00000000
00000010
00000100
00000000
00001000
00000000
00010000
00000000
,  // measure 20
00100000
01000000
00000000
10000000
00000000
00000000
01000000
00000000
,  // measure 21
00010000
00000000
00010000
00001000
00000000
00000000
00000100
00000000
,  // measure 22
00010000
00000000
00001000
00000000
00100000
00000000
00100000
00010000
,  // measure 23
00000000
01000000
10000000
00000000
00100000
00000000
00010000
00000000
,  // measure 24
00001000
00010000
00000000
00002000
00000000
00000000
00013000
00000000
,  // measure 25
00000100
00001000
00000000
00000020
00000000
00000000
00000130
00000000
,  // measure 26
00000001
00001000
00000000
00000200
00000000
00000000
00000000
00000000
,  // measure 27
00001300
00000000
00010000
00100000
,  // measure 28
01000000
00000000
10010000
00110000
,  // measure 29
00011000
00001000
00000100
00010000
,  // measure 30
00010010
00000100
00000011
00000110
,  // measure 31
00001010
00010000
01001000
00000000
,  // measure 32
MMMMMMMM
00000000
00000000
00000000
00100000
00000000
00010000
10000000
,  // measure 33
01000000
00000000
00010000
00000000
00100000
00000000
00001000
00010000
,  // measure 34
00000000
00001000
00000010
00000000
00001100
00000000
00001000
00000000
,  // measure 35
00001010
00000000
00000100
00000000
00001000
00000000
00001000
00000010
,  // measure 36
00000000
00000100
00000000
00000001
00000200
00000000
00000000
00000000
,  // measure 37
00001300
00010000
00100000
00010000
,  // measure 38
01000000
00200000
00000000
00000000
10300000
00000000
01000000
00000000
,  // measure 39
00100000
00001000
00010000
00000100
,  // measure 40
00010000
00100000
00020000
00031000
,  // measure 41
00000200
00001300
00000020
00000031
,  // measure 42
00000002
00000103
00002000
00003100
,  // measure 43
00020000
00130000
02000000
03010000
,  // measure 44
00100000
00010000
00100000
00000000
00010000
00000000
00001000
00000000
,  // measure 45
00001100
00001100
00000000
00000000
00000100
00000000
00010000
00000000
,  // measure 46
00110000
00110000
00000000
00000000
00100000
00010000
00001000
00000100
,  // measure 47
00001000
00000010
00000100
00000000
00000001
00000100
00000010
00001000
,  // measure 48
00010000
01000000
00100000
00000000
01000000
00000000
00010000
01000000
,  // measure 49
10000000
00000000
10100000
00000000
01000000
00000000
00010000
10000000
,  // measure 50
00000000
00100000
00010000
00000000
01010000
00000000
00010000
00000000
,  // measure 51
10010000
00000000
01000000
00000000
00010000
00000000
00001000
00000100
,  // measure 52
00000000
00000010
00000000
00000010
00000002
00000000
00000000
00000000
,  // measure 53
00000103
00000010
00001000
00000100
,  // measure 54
00001000
00010000
00000000
00000000
00200000
00000000
00010000
00000000
,  // measure 55
00310000
01000000
00010000
01000000
,  // measure 56
10000000
00010000
01000000
01000000
,  // measure 57
00010000
00000000
00001000
00000000
00000010
00000000
00001000
00000002
,  // measure 58
00000000
00000003
00000100
00002000
00000000
00000000
00003000
00000000
,  // measure 59
00000100
00001000
00000010
00000001
00000000
00000100
00000000
00000010
,  // measure 60
00001000
00000100
00010000
00100000
00000000
00010000
00000000
10000000
,  // measure 61
00100000
00010000
00001000
00000100
00000000
00000010
00000000
00001000
,  // measure 62
00010000
00100000
00010000
02000000
00000000
00000000
00000000
00000000
,  // measure 63
00000000
00000000
00000000
00000000
,  // measure 64
00000000
00000000
00000000
00000000
,  // measure 65
00000000
00000000
00000000
00000000
,  // measure 66
00000000
03000000
00000000
00000000
;
