#TITLE:Cheer Train;
#SUBTITLE:;
#ARTIST:Fuzita Blender;
#TITLETRANSLIT:;
#SUBTITLETRANSLIT:;
#ARTISTTRANSLIT:;
#GENRE:beatmania IIDX;
#CREDIT:SAIKIO;
#BANNER:Cheer Train-banner.png;
#BACKGROUND:bg.png;
#LYRICSPATH:;
#CDTITLE:IIDX.png;
#MUSIC:Cheer Train.ogg;
#OFFSET:0.083000;
#SAMPLESTART:32.290001;
#SAMPLELENGTH:15.500000;
#SELECTABLE:YES;
#BPMS:0.000000=120.000000
;
#STOPS:
;
#BGCHANGES:0.000=Cheer Train.avi=1.000=0=0=0=StretchNoLoop====,
99999=-nosongbg-=1.000=0=0=0 // don't automatically add -songbackground-
;
#KEYSOUNDS:;
#ATTACKS:;

//---------------dance-single - ----------------
#NOTES:
     dance-single:
     :
     Easy:
     5:
     0.231917,0.257752,0.116599,0.062784,0.000000,181.000000,168.000000,13.000000,7.000000,0.000000,0.000000,0.231917,0.257752,0.116599,0.062784,0.000000,181.000000,168.000000,13.000000,7.000000,0.000000,0.000000:
0000
0000
0000
0000
,
0000
0000
0000
0000
,
0000
0000
0000
0000
,
0000
0000
0000
0000
,
0000
0010
0010
0010
,
0010
0100
0100
0100
,
0100
0001
0001
0001
,
0001
1000
1000
2000
,
3000
0100
0100
0010
,
0010
0100
0100
0010
,
0010
1000
1000
0001
,
0001
1000
1000
0001
,
0001
1000
0100
0001
,
0100
1000
0100
0001
,
0100
1000
0010
0001
,
0010
1000
0010
0001
,
0010
0100
0010
0100
,
0010
1001
0000
0100
,
0000
0001
1000
0001
,
1000
1001
0000
0010
,
0000
1000
0100
1000
,
0100
0011
0000
1000
,
0000
0010
0001
0010
,
0001
1010
0000
0001
,
0000
0010
0000
0010
,
0000
0100
0000
0100
,
0000
0001
0000
0001
,
0000
1000
0000
1000
,
0000
0001
0001
0001
,
0001
0010
0010
0010
,
0010
1000
1000
1000
,
1000
0100
0100
0200
,
0300
1001
0010
1000
,
0010
0100
0010
0100
,
0110
0001
0010
0001
,
0010
1000
0100
0010
,
0011
0100
0010
0100
,
0010
0001
0010
0100
,
1100
0001
0100
0001
,
0100
1000
0200
0300
,
0000
0010
1000
0010
,
2000
0001
3100
0000
,
1010
0001
0010
0001
,
0200
1000
0310
0000
,
0011
0100
0010
0100
,
0002
0010
0103
0000
,
0110
1000
0001
1000
,
0020
0001
0130
0000
,
1001
1000
1000
0001
,
0001
1000
1000
0001
,
0001
0100
0100
0010
,
0010
0100
0100
0010
,
0000
1001
0000
0000
;

//---------------dance-single - ----------------
#NOTES:
     dance-single:
     :
     Beginner:
     3:
     0.152476,0.187456,0.053815,0.000000,0.000000,119.000000,113.000000,6.000000,0.000000,0.000000,0.000000,0.152476,0.187456,0.053815,0.000000,0.000000,119.000000,113.000000,6.000000,0.000000,0.000000,0.000000:
0000
0000
0000
0000
,
0000
0000
0000
0000
,
0000
0000
0000
0000
,
0000
0000
0000
0000
,
0000
0001
0000
0001
,
0000
0100
0000
0100
,
0000
1000
0000
1000
,
0000
0010
0000
0010
,
0000
1000
1000
1000
,
0000
0001
0001
0001
,
0000
0100
0100
0100
,
0000
0010
0010
0010
,
0000
0001
0001
0100
,
0000
1000
1000
0010
,
0000
0100
0100
1000
,
0000
0010
0010
0001
,
0000
0100
0000
0010
,
0000
0110
0000
0000
,
0000
0001
0000
1000
,
0000
1001
0000
0000
,
0000
0001
0000
0100
,
0000
1001
0000
0000
,
0000
0010
0000
1000
,
0000
0110
0000
0000
,
0000
1000
0000
0000
,
0000
0001
0000
0000
,
0000
0100
0000
0000
,
0000
0010
0000
0000
,
0000
0001
0001
0001
,
0000
0100
0100
0100
,
0000
0010
0010
0010
,
0000
1000
1000
1000
,
0000
1001
0000
0100
,
0000
0010
0100
0010
,
0000
0001
0000
1000
,
0000
0001
1000
0001
,
0000
0100
0000
1000
,
0000
0100
1000
0100
,
0000
0010
0000
0100
,
0000
0010
0001
0001
,
0000
0010
0100
1000
,
0000
0010
0000
0100
,
0000
0001
0100
0010
,
0000
1000
0000
0100
,
0000
1000
0100
0010
,
0000
0100
0000
0010
,
0000
0100
0001
0010
,
0000
0100
0000
1000
,
0000
0001
0001
0001
,
0000
0100
0100
0100
,
0000
0010
0010
0010
,
0000
1000
1000
1000
,
0000
1001
0000
0000
;

//---------------dance-single - ----------------
#NOTES:
     dance-single:
     :
     Medium:
     9:
     0.287014,0.328048,0.161445,0.116599,0.000000,224.000000,206.000000,18.000000,13.000000,0.000000,0.000000,0.287014,0.328048,0.161445,0.116599,0.000000,224.000000,206.000000,18.000000,13.000000,0.000000,0.000000:
0000
0000
0000
0000
,
0000
0000
0000
0000
,
0000
0000
0000
0000
,
0000
0000
0000
0000
,
0000
0000
0001
0000
0001
0000
1000
0001
,
1000
0000
1000
0000
1000
0000
0001
1000
,
0001
0000
0010
0000
0010
0000
0100
0010
,
0100
1000
0010
0200
,
0300
0000
0001
0010
0001
0000
1000
0000
,
1000
0010
0100
0001
,
0001
0000
0100
1000
0100
0000
0010
0000
,
0010
0000
0001
1000
0001
0000
1000
0000
,
0100
0000
0001
0100
1000
0000
0001
0000
,
1000
0000
1000
0100
0001
0000
0010
0000
,
0100
0010
0010
1000
,
1000
0000
0010
1000
0100
0000
2000
0000
,
3000
0000
0010
0100
0001
0000
0100
0000
,
0010
1001
0000
0100
,
0010
0000
0100
1000
0010
0000
1000
0000
,
0100
0011
0000
1000
,
0010
0000
1000
0001
0100
0000
0001
0000
,
0010
1100
0000
1000
,
0100
0000
0001
0010
0100
0000
0001
0000
,
1000
0101
0000
0100
,
0010
0000
0002
0000
0000
0000
0000
0003
,
0000
0000
2000
0000
0000
0000
0000
3000
,
0000
0000
0020
0000
0000
0000
0000
0030
,
0000
0000
0200
0000
0000
0000
0000
0300
,
0000
0000
0010
1000
0010
1000
0010
0000
,
0100
0000
0001
0100
0001
0100
0001
0000
,
0100
0000
1000
0001
1000
0001
1000
0000
,
0100
0001
0100
0020
,
0030
1001
1000
1001
,
0001
0000
1000
0100
0010
0000
1000
0100
,
1000
0001
0101
0010
,
1010
0000
0001
0010
0100
0000
0010
0001
,
0010
0001
0110
0100
,
0101
0000
0010
1000
0100
0000
0010
0000
,
1001
0200
0301
0020
,
1030
0000
0100
0000
0010
0100
0010
0000
,
0000
0000
1000
0100
0001
0000
0200
0000
,
0310
0001
1100
0001
,
0011
0000
0001
0010
1000
0000
0020
0000
,
0130
0001
1010
0001
,
0101
0000
0010
0100
1000
0000
2000
0000
,
3010
0001
0110
1000
,
1001
0000
0001
0100
0001
0000
1000
0000
,
0001
1000
0020
0000
,
0030
0000
1000
0001
1000
0000
0100
1000
,
0100
0000
0010
0001
0010
0000
0001
0000
,
0100
0000
0010
0100
0001
0000
0010
1000
,
0100
0000
1000
0001
0010
0000
0100
0000
,
1000
0110
0000
0000
;

//---------------dance-single - ----------------
#NOTES:
     dance-single:
     :
     Hard:
     12:
     0.433083,0.421775,0.188353,0.179383,0.071753,338.000000,317.000000,21.000000,20.000000,0.000000,0.000000,0.433083,0.421775,0.188353,0.179383,0.071753,338.000000,317.000000,21.000000,20.000000,0.000000,0.000000:
// measure 0
0000
0000
0000
0000
,  // measure 1
0000
0000
0000
0000
,  // measure 2
0000
0000
0000
0000
,  // measure 3
0000
0000
0000
0000
,  // measure 4
0000
0000
0001
0001
0100
0010
1000
0001
,  // measure 5
1000
0000
0010
0010
1000
0001
0100
0010
,  // measure 6
0100
0000
1000
1000
0010
0001
0010
1000
,  // measure 7
0001
0000
0000
0000
0100
0000
0100
0000
0010
0000
1000
0000
1000
0001
0000
1000
,  // measure 8
0000
0001
1000
0000
0010
0000
0100
0000
0010
0000
0001
0000
0100
0000
0001
0000
,  // measure 9
0100
0010
1000
0010
1000
0100
0001
0100
,  // measure 10
0001
0010
0100
0010
0100
0001
1000
0001
,  // measure 11
0100
0010
0001
0010
0001
1000
0100
1000
,  // measure 12
0100
0000
0010
0001
0010
0001
1000
0100
,  // measure 13
1000
0100
0010
1000
0010
1000
0001
0010
,  // measure 14
0001
0000
0100
1000
0100
1000
0001
0010
,  // measure 15
0001
0000
1000
0000
0010
0000
0001
0000
0010
0000
0100
0000
0010
1000
0000
0010
,  // measure 16
0000
1000
0010
0000
0002
0000
0000
0000
2003
0000
0000
0000
3100
0000
0000
0000
,  // measure 17
0001
0000
0100
0000
1010
0000
0000
0000
0100
0000
0000
0000
0001
0000
0000
0001
,  // measure 18
0000
0200
0320
0031
,  // measure 19
1000
0000
0010
0000
0101
0000
0000
0000
0010
0000
0000
0000
1000
0000
0000
1000
,  // measure 20
0000
0002
0203
0310
,  // measure 21
1000
0000
0001
0000
1100
0000
0000
0000
0001
0000
0000
0000
0010
0000
0000
0010
,  // measure 22
0000
0020
0230
0301
,  // measure 23
0010
0000
0100
0000
0011
0000
0000
0000
1000
0000
0000
0000
0100
0000
0000
0100
,  // measure 24
0000
0100
0001
1000
0100
0000
0010
0100
,  // measure 25
0001
0000
1000
0100
0001
0000
1000
0000
,  // measure 26
0010
0000
0001
1000
0010
0000
1000
0100
,  // measure 27
0010
0000
0001
0010
0100
0000
0001
0000
,  // measure 28
0100
0000
0001
0100
0001
1000
0010
1000
,  // measure 29
0100
0001
0100
0001
0010
0100
1000
0100
,  // measure 30
0010
1000
0010
1000
0100
0010
0001
0010
,  // measure 31
1000
0000
0100
0000
1000
0000
0010
0000
0001
0000
0100
0000
0010
0100
0000
0010
,  // measure 32
0000
0100
0010
0000
1000
0000
1000
0000
0020
0000
0000
0000
0130
0000
0100
0000
,  // measure 33
0002
0000
1003
0100
0001
0100
1010
0000
,  // measure 34
1010
0000
0001
0001
0200
0000
0310
0010
,  // measure 35
2000
0000
3001
0010
1000
0010
0101
0000
,  // measure 36
0101
0000
0010
0010
2000
0000
3100
0100
,  // measure 37
0020
0000
0031
1000
0010
1000
0101
0000
,  // measure 38
1010
0000
0001
0001
0200
0000
0320
0000
,  // measure 39
1030
0000
0000
0000
0001
0000
0000
0000
0100
0001
0100
0001
0010
0000
0000
0000
,  // measure 40
0010
0000
0001
1000
0001
0100
0020
0001
,  // measure 41
0130
0000
1000
0010
0101
0000
1100
0001
,  // measure 42
1010
0000
0100
0010
0100
0001
2000
0100
,  // measure 43
3010
0000
0100
0001
0110
0000
0011
1000
,  // measure 44
0101
0000
1000
0100
0001
0010
0200
1000
,  // measure 45
0301
0000
1000
0010
1100
0000
0011
0100
,  // measure 46
1001
0000
0010
0001
0100
1000
0200
0001
,  // measure 47
0310
0000
1000
0100
0001
0000
0010
0100
,  // measure 48
1010
0000
0100
1000
0100
0001
0010
0010
,  // measure 49
0100
0100
0010
0001
0100
0001
1000
1000
,  // measure 50
0001
0001
0100
1000
0100
0001
0100
0100
,  // measure 51
0001
0000
0001
0000
1000
0000
0100
0000
1000
0000
0010
0000
0100
0000
0000
0001
,  // measure 52
0000
0100
0110
0000
0000
0000
0000
0000
;

//---------------dance-double - ----------------
#NOTES:
     dance-double:
     :
     Easy:
     6:
     0.253699,0.304616,0.233199,0.152476,0.000000,198.000000,172.000000,26.000000,17.000000,0.000000,0.000000,0.253699,0.304616,0.233199,0.152476,0.000000,198.000000,172.000000,26.000000,17.000000,0.000000,0.000000:
00000000
00000000
00000000
00000000
,
00000000
00000000
00000000
00000000
,
00000000
00000000
00000000
00000000
,
00000000
00000000
00000000
00000000
,
00000000
00010000
00010000
00001000
,
00001000
00000100
00000100
00000010
,
00000010
00000001
00000001
00000100
,
00000100
00001000
00001000
00020000
,
00030000
00100000
01000000
00100000
,
01000000
00010000
01000000
00010000
,
00100000
10000000
01000000
00100000
,
00010000
01000000
00010000
00100000
,
00000000
00001000
00010000
00001000
,
00000100
00000010
00000100
00000010
,
00000001
00000100
00001000
00000100
,
00010000
00001000
00010000
00200000
,
00300000
00010000
01010000
00001000
,
00001100
00010000
00000000
00001000
,
00000000
00001000
00001010
00000100
,
00011000
00000100
00000000
00001000
,
00000000
00010000
01100000
01000000
,
10010000
00100000
00000000
00010000
,
00000000
00001000
00001010
00000010
,
00000101
00000100
00000000
00000001
,
00000000
00002000
00003000
00000200
,
00000300
00020000
00030000
00100000
,
00100000
20000000
30000000
00020000
,
00030000
02000000
03000000
00100000
,
00100000
00010000
00001000
00010000
,
00001000
00000100
00001000
00000010
,
00000100
00000001
00000100
00000010
,
00000100
00001000
00010000
00100000
,
00010000
01010000
00100000
01010000
,
00100000
10000000
01000000
00100000
,
00110000
00001000
00010000
00001000
,
00000100
00001000
00000100
00000010
,
00000011
00000200
00000300
00000020
,
00000030
00001000
00000100
00001000
,
00110000
01000000
01000000
00010000
,
00100000
01000000
00020000
00030000
,
00000000
00001000
00011000
00010000
,
00001000
00100000
01010000
00100000
,
01100000
00010000
10010000
00100000
,
01000000
00010000
00011000
00001000
,
00001100
00001000
00000100
00001001
,
00000010
00000100
00000110
00000010
,
00000101
00000100
00001000
00011000
,
00100000
00010000
01010000
00100000
,
01100000
20000000
30010000
00200000
,
00310000
00002000
00013000
00001000
,
00000100
00000020
00000130
00000002
,
00000103
00002000
00003010
00010000
,
00001000
00011000
00000000
00000000
;

//---------------dance-double - ----------------
#NOTES:
     dance-double:
     :
     Medium:
     10:
     0.344673,0.374911,0.313921,0.098661,0.000000,269.000000,234.000000,35.000000,11.000000,0.000000,0.000000,0.344673,0.374911,0.313921,0.098661,0.000000,269.000000,234.000000,35.000000,11.000000,0.000000,0.000000:
00000000
00000000
00000000
00000000
,
00000000
00000000
00000000
00000000
,
00000000
00000000
00000000
00000000
,
00000000
00000000
00000000
00000000
,
00000000
00000000
00010000
00000000
00010000
00000000
00001000
00001000
,
00000100
00000000
00000010
00000000
00000010
00000000
00000001
00000001
,
00000010
00000000
00001000
00000000
00001000
00000000
00010000
00010000
,
00100000
00010000
01000000
00200000
,
00300000
00000000
00010000
10000000
00010000
00000000
00100000
00000000
,
00010000
00000000
00001000
00010000
00001000
00000000
00000100
00000000
,
00001000
00000000
00000001
00001000
00000001
00000000
00000010
00000000
,
00000100
00000000
00000010
00000100
00000010
00000000
00001000
00000000
,
00010000
00000000
00100000
00010000
00100000
00000000
01000000
00000000
,
10000000
00000000
01000000
10000000
01000000
00000000
00100000
00000000
,
00001000
00000000
00010000
00000100
00010000
00000000
00000100
00000000
,
00001000
00000000
00000010
00001000
00000010
00000000
00000002
00000000
,
00000003
00000100
00001010
00000100
,
00011000
00000000
00110000
00000000
01000000
00000000
00010000
00100000
,
00010000
00100000
10010000
01000000
,
00110000
00000000
00011000
00000000
00001000
00000000
00000100
00000010
,
00000100
00000010
00000110
00001000
,
00011000
00000000
00110000
00000000
01000000
00000000
10000000
00010000
,
00100000
00010000
00010100
00001000
,
00000110
00000000
00001001
00000000
00001000
00000000
00000010
00000100
,
00000001
00000002
00000103
00000200
,
00001300
00000000
00002000
00000000
00013000
00000000
00010000
00001000
,
00010000
02000000
13000000
20000000
,
30100000
00000000
00200000
00000000
00310000
00000000
00001000
00010000
,
00001000
00000000
00000100
00000001
00000100
00000000
00001000
00000000
,
00001000
00000000
00000010
00001000
00000010
00000000
00000001
00000000
,
00000100
00000000
00000001
00000100
00001000
00000000
00010000
00000000
,
00100000
00000000
00010000
01000000
10000000
00000000
00100000
00000000
,
00010000
00000000
01010000
00000000
00010000
00000000
00001000
00010000
,
00001000
00001100
00001010
00000101
,
00000110
00000000
00000100
00000000
00001000
00000000
00001000
00000100
,
00001000
00010100
00011000
01010000
,
10100000
00000000
00100000
00010000
00001000
00000000
00010000
00001000
,
00000100
00001010
00001100
00000110
,
00000101
00000000
00000010
00010000
00000100
00000000
00010000
00001000
,
00100000
00000000
01000000
00000000
20020000
00000000
00000000
30030000
,
00000000
00000000
00001000
00100000
00010000
00000000
01000000
00100000
,
10000000
00000000
00100000
01000000
00010000
00000000
00011000
00000000
,
00001100
00000000
00001000
00010000
00000100
00000000
00001000
00000010
,
00000100
00000000
00000001
00000100
00001000
00000000
00011000
00000000
,
00110000
00000000
01000000
00100000
10000000
00000000
00100000
00001000
,
00010000
00000000
00001000
00000100
00000010
00000000
00001100
00000000
,
00001001
00000000
00000010
00001000
00000100
00000000
00000010
00000001
,
00000100
00000000
00000010
00000100
00001000
00000000
00011000
00000000
,
00110000
00000000
10000000
00010000
10000000
00000000
00100000
00001000
,
00100000
00000000
00010000
00000100
00010000
00000000
00000200
00000000
,
00001300
00000000
00000010
00000001
00000010
00000000
00000100
00010000
,
00000100
00000000
00010000
00000010
00010000
00000000
00001000
00000000
,
00000100
00011000
00000000
00000000
;

//---------------dance-double - ----------------
#NOTES:
     dance-double:
     :
     Hard:
     11:
     0.416426,0.398343,0.251137,0.197322,0.013454,325.000000,297.000000,28.000000,22.000000,0.000000,0.000000,0.416426,0.398343,0.251137,0.197322,0.013454,325.000000,297.000000,28.000000,22.000000,0.000000,0.000000:
00000000
00000000
00000000
00000000
,
00000000
00000000
00000000
00000000
,
00000000
00000000
00000000
00000000
,
00000000
00000000
00000000
00000000
,
00000000
00000000
00010000
00010000
00001000
00001000
00000100
00000010
,
00000001
00000000
00000100
00000100
00000010
00000010
00001000
00010000
,
00100000
00000000
01000000
01000000
10000000
10000000
01000000
00100000
,
00010000
00000000
00100000
00010000
00001000
00000000
00022000
00000000
,
00033000
00000000
00010000
00100000
00010000
10000000
00010000
00100000
,
00010000
00000000
00000100
00010000
00000100
00001000
00000100
00010000
,
00000100
00000000
00000001
00000010
00000001
00000100
00000001
00001000
,
00000001
00000000
00001000
00000100
00001000
00000010
00000100
00001000
,
00000100
00000000
00010000
00010000
00001000
00000100
00000010
00000100
,
00000010
00001000
00000100
00010000
00010000
00100000
01000000
00100000
,
10000000
00000000
00100000
00100000
00010000
00001000
00000100
00001000
,
00000010
00000100
00000001
00000100
00000100
00000000
00002000
00000000
,
00003000
00000000
00011000
00000100
00010000
00000000
00011000
00000000
,
00100000
00001000
00101000
00000000
00000100
00000000
00001000
00000010
,
00000100
00000000
00000101
00000010
00000100
00000000
00000101
00000000
,
00001000
00000010
00001010
00000000
00001000
00000000
00010000
00001000
,
00100000
00000000
10010000
00100000
00010000
00000000
10010000
00000000
,
00100000
00010000
01010000
00000000
00010000
00000000
00001000
00010000
,
00000100
00000000
00001010
00000100
00000010
00000000
00001010
00000000
,
00000010
00000100
00000101
00000000
00001000
00000000
00010000
00001000
,
00010000
00000000
00200000
00001000
00310000
00000000
00020000
00100000
,
01030000
00000000
02000000
00100000
03010000
00000000
00100000
00000000
,
01000000
00000000
00020000
00100000
00031000
00000000
00002000
00000100
,
00003010
00000000
00000020
00000100
00000031
00000000
00000100
00000000
,
00000010
00000000
00010000
00001000
00010000
00001000
00100000
01000000
,
00100000
01000000
00001000
00010000
00001000
00010000
00000010
00000100
,
00000010
00000100
00000001
00000010
00000001
00000010
00001000
00000100
,
00001000
00000100
00000010
00000010
00001000
00001000
00020000
00000000
,
00031000
00000000
00001000
00010000
00100000
00000000
10000000
01000000
,
00100000
00000000
01000000
00010000
01000000
00100000
01010000
01010000
,
00100000
00000000
00010000
00001000
00000100
00000000
00000010
00000001
,
00000100
00000000
00001000
00000100
00001000
00000010
00000001
00001100
,
00001100
00000000
00000010
00010000
00001000
00000000
00000100
00001000
,
00010000
00000000
00100000
00010000
00100000
01000000
00010000
01100000
,
01100000
00000000
10000000
00100000
01000000
00000000
00100000
01000000
,
00001000
00000000
00000000
00000000
00000100
00000000
00000000
00000000
00000010
00000001
00000010
00000001
00000010
00000000
00000000
00000000
,
00001000
00000000
00020000
00000000
00031000
00000100
00002000
00000000
,
00103000
01000000
00200000
00000000
00310000
01000000
10000000
00100000
,
10010000
00000000
00002000
00000000
00003100
00000010
00000002
00000000
,
00001003
00000010
00000200
00000000
00000310
00001000
00000001
00000010
,
00001100
00000000
00200000
00000000
00310000
01000000
00020000
00000000
,
10030000
00100000
02000000
00000000
03100000
00010000
10000000
01000000
,
00110000
00000000
00002000
00000000
00013000
00000100
00000020
00000000
,
00000130
00000001
00002000
00000000
00003100
00010000
00001000
00100000
,
00001000
00000000
00011000
00000000
00110000
00000000
00010000
00100000
,
00001000
00000000
00010000
00000000
10010000
00000000
00100000
00010000
,
00001000
00000000
00011000
00000000
00001100
00000000
00000010
00001000
,
00000100
00000000
00000000
00000000
00010000
00000000
00001000
00000000
00010000
00000000
00000000
00000000
00001000
00000000
00000000
00010000
,
00000000
00011000
00000000
00000000
;
