#TITLE:C\C (シンデレラ\コンプレックス);
#SUBTITLE:;
#ARTIST:High-King;
#TITLETRANSLIT:CC (Cinderella Complex);
#SUBTITLETRANSLIT:;
#ARTISTTRANSLIT:High-King;
#GENRE:Hello! Project;
#CREDIT:SAIKIO;
#BANNER:CC (Cinderella Complex)-banner.png;
#BACKGROUND:bg.png;
#LYRICSPATH:;
#CDTITLE:Saikio Hello! Project.png;
#MUSIC:CC (Cinderella Complex).ogg;
#OFFSET:0.450000;
#SAMPLESTART:11.235006;
#SAMPLELENGTH:16.899979;
#SELECTABLE:YES;
#BPMS:0.000000=113.000000
;
#STOPS:
;
#BGCHANGES:0.500=CC (Cinderella Complex).avi=1.000=0=0=0=StretchNoLoop====,
99999=-nosongbg-=1.000=0=0=0 // don't automatically add -songbackground-
;
#KEYSOUNDS:;
#ATTACKS:;

//---------------dance-single - ----------------
#NOTES:
     dance-single:
     :
     Beginner:
     3:
     0.149660,0.162800,0.000000,0.000000,0.000000,125.000000,125.000000,0.000000,0.000000,0.000000,0.000000,0.149660,0.162800,0.000000,0.000000,0.000000,125.000000,125.000000,0.000000,0.000000,0.000000,0.000000:
0000
0000
0000
0000
,
0000
0000
0000
0010
,
0000
0000
0000
0100
,
0000
0000
0000
0010
,
0000
0000
0000
0100
,
0000
0000
1000
1000
,
1000
0000
0100
0100
,
0100
0000
0001
0001
,
0001
0000
0100
0000
,
0100
0000
0010
0010
,
0010
0000
0001
0001
,
0001
0000
1000
1000
,
1000
0000
0010
0000
,
0010
0000
0010
0000
,
0000
0000
0000
0000
,
0000
0000
1000
0000
,
0001
0000
0100
0000
,
1000
0000
0001
0000
,
0100
0000
1000
0000
,
0010
0000
0001
0000
,
0100
0000
0010
0000
,
0100
0000
1000
0000
,
0100
0000
0001
0000
,
0100
0000
0010
0000
,
0010
0000
1000
1000
,
0100
0000
0001
0001
,
0010
0000
0100
0100
,
0010
0000
1000
0000
,
0000
0000
0001
0000
,
0000
0000
0010
0000
,
0010
0000
0100
0010
,
0100
0000
0001
1000
,
0001
0000
1000
0000
,
0100
0000
1000
1000
,
1000
0000
0010
1000
,
0010
0000
0100
0001
,
0100
0000
0010
0000
,
0010
0000
0001
0001
,
0001
0000
1000
1000
,
0001
0000
0001
0001
,
1000
0000
0010
0000
,
0100
0000
0010
0010
,
0010
0000
0001
1000
,
0100
0000
1000
0001
,
0010
0000
0100
0000
,
1000
0000
0100
0000
,
0010
0000
1000
1000
,
1000
0000
0100
0100
,
0100
0000
0001
0001
,
0001
0000
0010
0000
,
0010
0000
1000
1000
,
0001
0000
0010
0010
,
0100
0000
0001
0001
,
0100
0000
1000
0000
,
0001
0000
1000
0000
,
0000
0000
0100
0000
;

//---------------dance-single - ----------------
#NOTES:
     dance-single:
     :
     Easy:
     6:
     0.222694,0.302343,0.159238,0.100572,0.000000,186.000000,167.000000,19.000000,12.000000,0.000000,0.000000,0.222694,0.302343,0.159238,0.100572,0.000000,186.000000,167.000000,19.000000,12.000000,0.000000,0.000000:
0000
0000
0000
0000
,
0000
0000
0000
0010
,
0010
0100
0000
0100
,
0100
0010
0000
0001
,
0001
1000
0000
0010
,
0200
0300
0010
1000
,
0100
0000
0010
0001
,
0100
0000
1000
0001
,
0100
0000
1001
0000
,
1001
0000
1000
0100
,
1100
0000
0001
0010
,
0011
0000
1000
0001
,
1001
0000
0200
0300
,
0020
0030
2000
0000
,
3000
0000
0010
0000
,
1000
1000
0001
0100
,
0001
0000
1000
0010
,
1000
0000
0001
0001
,
0100
1000
0010
0010
,
2000
3000
0100
0100
,
1000
0000
0010
0010
,
0100
0000
0001
1000
,
0001
0001
1000
0010
,
0100
0100
0020
0030
,
0200
0300
0001
0100
,
1000
0000
1000
0010
,
0001
0000
0100
1000
,
0001
0000
0020
1030
,
1000
0000
0200
0301
,
0001
0000
0010
0010
,
0100
0100
0001
0010
,
1000
1000
0010
0001
,
0100
0000
0100
0001
,
0100
0100
0010
1000
,
1100
0000
1000
0100
,
0001
0100
0001
0010
,
0100
0000
0010
1000
,
0010
0010
0100
0001
,
0100
1000
0011
1000
,
0011
0000
1001
1100
,
1001
0000
1000
0010
,
0100
0000
0001
0100
,
1000
0000
0010
0001
,
0100
0100
1000
0010
,
1000
0000
0100
0001
,
0010
0000
0010
1000
,
1000
0010
1000
0100
,
1100
0000
0001
0010
,
0011
0000
1000
0001
,
1001
0000
0101
0000
,
1100
0000
0001
0100
,
0110
0010
1000
0100
,
1100
0010
0100
0001
,
0011
0100
0020
0030
,
0200
0300
2000
0000
,
3000
0000
0100
0000
;

//---------------dance-single - ----------------
#NOTES:
     dance-single:
     :
     Medium:
     9:
     0.312490,0.325600,0.075429,0.159238,0.000000,261.000000,252.000000,9.000000,19.000000,0.000000,0.000000,0.312490,0.325600,0.075429,0.159238,0.000000,261.000000,252.000000,9.000000,19.000000,0.000000,0.000000:
0000
0000
0000
0000
,
0000
0000
0000
0020
,
0030
1000
0100
0000
0000
0000
0200
0000
,
0300
0001
0010
0000
0000
0000
2000
0000
,
3000
0001
0100
0000
0000
0000
0010
0000
,
1000
1000
0001
0001
0100
0010
0100
0000
,
0001
0000
0100
0000
1000
0010
1000
0000
,
0010
0000
0100
0000
0001
1000
0001
0000
,
0100
0010
1100
0001
,
1100
0000
0001
0000
0100
0001
0100
0000
,
0001
0000
1000
0000
0000
0100
1000
0100
,
1000
0000
0010
0000
0001
1000
0001
0000
,
0010
0100
1001
0100
,
1100
0010
2000
3000
,
0010
1000
0002
0003
,
0100
0100
0001
0001
1000
0010
1000
0000
,
0100
0000
1000
0000
0001
1000
0100
0000
,
1000
0010
0100
0001
,
0100
0100
0010
1000
,
0100
0000
0000
0000
0001
0010
0001
0000
,
1000
0000
0100
0000
1000
0001
0100
0000
,
1000
0000
0010
0000
1000
1000
0001
0000
,
0100
0000
0010
0000
0001
0001
1000
0000
,
0010
0100
0002
1003
,
2000
0000
3010
0000
0001
0100
1000
0000
,
0010
0000
0100
0000
1000
0100
0001
0000
,
1000
0000
0100
0000
0001
0010
1000
0000
,
0001
0100
0020
0030
,
0200
0300
0002
0000
,
0000
0003
0000
0000
1000
1000
0001
0001
,
0100
0100
0010
0000
1000
0010
1000
0000
,
0001
0000
0100
0000
0001
1000
0100
0000
,
0020
0000
0130
0000
0001
1000
0100
0000
,
1000
0000
0010
0000
0100
0001
0100
0001
,
0100
0000
1000
0000
0001
0010
0001
0000
,
1000
0000
0100
0000
0001
1000
0100
0000
,
1000
0000
0010
0000
0100
0100
0001
0000
,
1000
0000
0010
0000
2000
0000
3010
0100
,
0001
0000
0100
0000
1010
0001
1010
0000
,
0100
0000
0000
0000
0001
0001
0100
0100
,
0001
0000
0101
0000
0010
0001
1000
0000
,
0010
0000
0100
0000
0001
0100
1000
0000
,
0100
0000
0010
0000
1000
0010
0001
0010
,
1000
0000
0010
0000
1000
0100
0001
0100
,
1000
0000
0100
0000
0001
1000
0100
0000
,
1000
0010
0200
0301
,
2000
0000
3010
0000
0001
1000
0001
0000
,
0010
0000
0101
0000
0010
1000
0010
0000
,
0100
0000
1010
0000
0100
0001
0100
0000
,
0010
0100
0002
0103
,
2000
0000
3100
0000
1000
1000
0001
0100
,
0010
0000
1000
0000
0000
0001
1000
0100
,
0010
0000
0001
0000
1000
0100
1000
0000
,
0001
0100
0020
0130
,
0200
0000
0310
0000
2000
0000
0000
3000
,
0100
0100
0010
0000
0100
0000
0000
0000
;

//---------------dance-single - ----------------
#NOTES:
     dance-single:
     :
     Hard:
     12:
     0.477715,0.488401,0.159238,0.159238,0.389715,399.000000,380.000000,19.000000,19.000000,0.000000,0.000000,0.477715,0.488401,0.159238,0.159238,0.389715,399.000000,380.000000,19.000000,19.000000,0.000000,0.000000:
// measure 0
0000
0000
0000
0000
,  // measure 1
0000
0000
0000
0000
0000
0000
0000
0000
0000
0000
0000
0010
0200
0000
0000
0000
,  // measure 2
0300
0000
0001
0000
1000
0000
0010
0000
1000
0000
0000
0001
2000
0000
0000
0000
,  // measure 3
3000
0000
0010
0000
0001
0000
0010
0000
0100
0000
0000
1000
0200
0000
0000
0000
,  // measure 4
0300
0000
0001
0000
1000
0000
0010
0000
1000
0000
0000
0001
0100
0000
0000
0000
,  // measure 5
1010
0000
0000
1010
0000
0000
0101
0000
0000
0101
0000
0000
1000
0000
0000
0010
0000
0000
1000
0000
0010
0000
1000
0000
,  // measure 6
0010
0000
0000
0000
0000
0000
1000
0000
0000
0000
0000
0000
0001
0000
0000
0100
0000
0000
0001
0000
0100
0000
0001
0000
,  // measure 7
0100
0000
0000
0000
0000
0000
0010
0000
0000
0000
0000
0000
1000
0000
0000
0001
0000
0000
1000
0000
0001
0000
1000
0000
,  // measure 8
0001
0000
0010
0001
1000
0020
0030
1000
,  // measure 9
0001
0000
0000
0200
0000
0000
0300
0000
0000
0001
0000
0000
1000
0000
0000
0010
0000
0000
0100
0000
1000
0000
0100
0000
,  // measure 10
1000
0000
0000
0000
0000
0000
0010
0000
0000
1000
0000
0000
0000
0000
0000
1000
0000
0001
0000
0010
0000
0001
0000
0010
,  // measure 11
0000
0000
0100
0000
0000
0000
0001
0000
0000
0000
0000
0000
0010
0000
0000
0100
0000
0000
1000
0000
0010
0000
0100
0000
,  // measure 12
0010
0000
0100
0001
1000
0002
0003
0100
,  // measure 13
0010
0000
0200
0000
0000
0300
0001
0000
0010
0000
2000
0000
0000
0000
3000
0000
,  // measure 14
0002
0203
2300
3000
,  // measure 15
0001
0001
1000
1000
0100
0010
1000
0001
,  // measure 16
0100
0000
0010
0000
1000
0100
1000
0001
,  // measure 17
0100
0000
0000
1000
0000
0000
0001
1000
0001
0010
0000
0000
,  // measure 18
1000
0000
0000
0001
0000
0000
1000
0010
1000
0100
0000
0000
,  // measure 19
0001
0000
0100
0000
0010
1000
0001
1000
,  // measure 20
0100
0000
0010
0000
0001
0100
0010
0100
,  // measure 21
0001
0000
1000
0000
0001
0100
0100
0010
,  // measure 22
1000
0000
0001
0000
0100
0010
0100
0001
,  // measure 23
1000
0000
0000
0000
0100
0000
0000
0000
1000
0000
0000
1000
0001
0000
0000
0000
,  // measure 24
0100
0000
0000
0000
0000
0000
0000
0000
0000
0100
0000
0000
0010
0000
0000
0000
0000
0000
0000
0000
0001
0000
0000
0000
1000
0000
0000
0000
0001
0000
0000
0000
1000
0000
0000
0000
0001
0000
0000
0000
0100
0000
0000
0000
1000
0000
0000
0000
,  // measure 25
0001
0000
0000
0100
0000
0010
0001
0010
0001
1000
0010
0001
,  // measure 26
0010
0000
0000
0100
0000
1000
0001
0100
1000
0100
1000
0100
,  // measure 27
0001
0000
0000
0000
1000
0000
0000
0010
2000
0000
0000
0000
0010
0000
0000
0000
,  // measure 28
0010
0000
0000
0000
3010
0000
0000
0100
0002
0000
0000
0000
0100
0000
0000
0000
,  // measure 29
0100
0000
0103
0000
1001
0100
0011
0000
,  // measure 30
0110
0000
1000
0000
0101
0000
0000
0000
0010
0000
0000
1000
0001
0000
0000
0010
,  // measure 31
0001
0000
0000
0110
0000
0000
0000
0000
0000
0000
0000
0000
0001
0000
1000
0000
0010
0000
1000
0000
0100
0000
1000
0000
,  // measure 32
0010
0000
0100
0000
0000
0000
0001
0000
0000
0000
0000
0000
1000
0000
0000
0100
0000
0000
0001
0000
0000
0100
0000
0000
,  // measure 33
1000
0000
0000
0010
0000
0100
0001
0100
0010
0001
0000
0010
,  // measure 34
1000
0000
0100
0000
1000
0000
0100
0000
1000
0000
0000
1000
0010
0000
0000
0010
,  // measure 35
0100
0000
0000
0101
0000
0000
0000
0000
0000
0000
0000
0000
0001
0000
0010
0000
0001
0000
0100
0000
0000
0000
0000
0000
,  // measure 36
1000
0000
0100
0000
0000
0000
0000
0000
0000
0000
0000
0000
0100
0000
0000
0010
0000
0000
0001
0000
0000
0010
0000
0000
,  // measure 37
1000
0000
0000
0000
0000
0000
0001
0000
0000
0000
0000
0000
0000
0000
0000
0000
0000
0000
0000
0000
0000
1000
0000
0000
0100
0000
0000
0000
0000
0000
0000
0000
0000
0000
0000
0000
0010
0000
0000
0000
0001
0000
0000
0000
1000
0000
0000
0000
,  // measure 38
0100
0000
0000
0000
0010
0000
0000
0000
1010
0000
0000
0001
1100
0000
0000
0001
,  // measure 39
1010
0100
0000
0000
0100
1000
0101
0010
,  // measure 40
1001
1000
0010
0000
1000
0010
0100
1000
,  // measure 41
0100
0000
0000
0100
0000
0000
0000
0000
0000
0000
0001
0000
1000
0000
0100
0000
0010
0000
0001
0000
1000
0000
0100
0000
,  // measure 42
0010
0000
0010
0000
0001
0000
0001
0000
0100
0000
0000
0100
0001
0000
0000
0001
,  // measure 43
0010
0000
0100
0000
1001
0000
0000
0000
0010
0000
0000
0010
1000
0000
0000
1000
,  // measure 44
0010
0001
1100
0000
0010
1000
0010
0100
,  // measure 45
1000
0000
0000
0000
0000
0000
0100
0000
0000
0000
0000
0000
0000
0000
0000
0000
0000
0000
0000
0000
0000
0010
0000
0000
0200
0000
0000
0000
0000
0000
0000
0000
0000
0000
0000
0000
0310
0000
0000
0000
0001
0000
0000
0000
0100
0000
0000
0000
,  // measure 46
0010
0000
0000
0000
0000
0000
0000
0000
0000
1000
0000
0000
0100
0000
0000
0000
0000
0000
0000
0000
0000
0000
0000
0000
1000
0000
0000
0000
0000
0000
0001
0000
0000
0000
0000
0000
1000
0000
0000
0000
0010
0000
0000
0000
1000
0000
0000
0000
,  // measure 47
0100
0000
0000
0001
0000
0000
0010
0000
0000
0100
0000
0000
0001
0000
0000
1000
0000
0000
0001
0000
0010
0000
0001
0000
,  // measure 48
0100
0000
0000
0010
0000
0000
1000
0000
0000
0001
0000
0000
1000
0000
0000
0010
0000
0000
0100
0000
0001
0000
0100
0000
,  // measure 49
0010
0000
1000
0000
0001
0000
0001
1000
0100
0000
2000
0000
3100
0000
0010
0001
,  // measure 50
1000
0000
0000
0002
0000
0000
0103
0000
0000
0100
0000
0000
0010
0000
0000
0100
0000
0000
0010
0000
0100
0000
0001
0000
,  // measure 51
0010
0000
0000
0100
0000
0000
0010
0000
0000
1100
0000
0000
0000
0000
0000
0001
0000
1000
0000
0100
0000
1000
0000
0010
,  // measure 52
0000
0000
0000
0000
0100
0000
0000
0000
0000
0000
0000
0000
1000
0000
0000
0000
0000
0000
0010
0000
0000
0000
0000
0000
0001
0000
0000
0000
0000
0000
1000
0000
0000
0000
0000
0000
0010
0000
0000
0000
0000
0000
1000
0000
0000
0010
0000
0000
,  // measure 53
1000
0000
0100
0000
0100
0000
0001
0100
0010
0000
0200
0000
0301
0000
0000
0010
,  // measure 54
0001
0000
0200
0000
1300
0000
0000
0001
0100
0000
2000
0000
0000
0000
3000
0000
,  // measure 55
0100
0100
0010
0010
0110
0000
0000
0000
;

//---------------dance-double - ----------------
#NOTES:
     dance-double:
     :
     Easy:
     6:
     0.213116,0.255829,0.142476,0.184381,0.000000,178.000000,161.000000,17.000000,22.000000,0.000000,0.000000,0.213116,0.255829,0.142476,0.184381,0.000000,178.000000,161.000000,17.000000,22.000000,0.000000,0.000000:
00000000
00000000
00000000
00000000
,
00000000
00000000
00000000
00200000
,
00310000
00100000
00000000
00002000
,
00003100
00000001
00000000
00020000
,
00031000
01000000
00000000
00010000
,
10000000
10000000
00010000
00100000
,
00011000
00000000
00001000
00000010
,
00001100
00000000
00000100
00000001
,
00000110
00000000
00000200
00000300
,
00000020
00000030
00000001
00000100
,
00000101
00000000
00001000
00010000
,
00100000
00000000
00010000
01000000
,
10100000
00000000
02000000
03000000
,
00200000
00300000
20000000
30000000
,
00000000
00000000
00020000
00030000
,
00001000
00010000
00001000
00001000
,
00000100
00000000
00000010
00000001
,
00000100
00000000
00000010
00001000
,
00010000
00100000
01000000
00010000
,
00001000
00000000
00000100
00000100
,
00001000
00000000
00010000
00010000
,
00100000
00000000
10000000
01000000
,
00100000
00010000
00001000
00010000
,
00001000
00000100
00000020
00000030
,
00000002
00000003
00000001
00000100
,
00001000
00000000
00010000
01000000
,
10000000
00000000
10000000
00100000
,
00010000
00000000
00002000
00003000
,
00000100
00000000
00000020
00000030
,
00000001
00000000
00000010
00000010
,
00000100
00000100
00010000
00000010
,
00011000
00000000
00001000
01000000
,
00011000
00000000
00001000
00000100
,
00000001
00000000
00000010
00000100
,
00001000
00000000
00002000
00013000
,
00110000
00000000
02000000
03010000
,
10010000
00000000
00100000
00010000
,
00001000
00000000
00000100
00001000
,
00000010
00000001
00000010
00000101
,
00001000
00000000
00000010
00000100
,
00011000
00000000
00100000
00010000
,
02000000
03000000
00100000
10000000
,
00010000
00000000
10010000
00100000
,
00011000
00000000
00011000
00000100
,
00001001
00000000
00000010
00000100
,
00002000
00003000
00010000
00100000
,
00010000
01000000
00010000
00010000
,
00001000
00000100
00000010
00000010
,
00000001
00000100
00000010
00000010
,
00001000
00010000
00200000
00300000
,
02000000
03000000
00010000
10000000
,
11000000
00100000
00000000
00001000
,
00000100
00000000
00000010
00000001
,
00000101
00000000
00000020
00000030
,
00000200
00000300
00002000
00003000
,
00000000
00000000
01000000
00000000
;

//---------------dance-double - ----------------
#NOTES:
     dance-double:
     :
     Medium:
     10:
     0.289742,0.348858,0.100572,0.192762,0.000000,242.000000,230.000000,12.000000,23.000000,0.000000,0.000000,0.289742,0.348858,0.100572,0.192762,0.000000,242.000000,230.000000,12.000000,23.000000,0.000000,0.000000:
00000000
00000000
00000000
00000000
,
00000000
00000000
00000000
00200000
,
00300000
01000000
00010000
00000000
00000000
00000000
00002000
00000000
,
00003000
00000100
00000001
00000000
00000000
00000000
00000020
00000000
,
00000030
00001000
00000100
00000000
00000000
00000000
00020000
00000000
,
00030000
00000000
00000000
00000000
00010000
10000000
00010000
00000000
,
00100000
00000000
00010000
00000000
00001000
00010000
00001000
00000000
,
00000100
00000000
00000010
00000000
00001000
00000001
00001000
00000000
,
00000010
00001000
00000020
00000030
,
00000200
00000000
00000300
00000000
00000010
00001000
00010000
00000000
,
00100000
00000000
01000000
00000000
00000000
00010000
01000000
00000000
,
10000000
00000000
00000000
00000000
00100000
00010000
00001000
00000000
,
00000010
00001000
00200000
00310000
,
02000000
03100000
20000000
00000000
,
30000000
00000000
00000000
00000000
,
00001000
00001000
00010000
00000000
00100000
00010000
01000000
00000000
,
00010000
00000000
10000000
00000000
00100000
00010000
00001000
00000000
,
00010000
00000000
00001000
00000100
,
00000001
00000010
00000100
00001000
,
00010000
00010000
00001000
00000000
00100000
00010000
01000000
00000000
,
00100000
00000000
10000000
00000000
00010000
00100000
00001000
00000000
,
00010000
00000000
00001000
00000000
00000100
00000100
00000010
00000000
,
00000001
00000000
00000100
00000000
00000001
00000001
00001000
00000000
,
00000100
00001000
00200000
00300000
,
00020000
00000000
00030000
00000000
10000000
01000000
00010000
00000000
,
00001000
00000000
00000100
00000000
00001000
00000100
00000001
00000000
,
00000100
00000000
00000010
00000000
00000001
00000010
00001000
00000000
,
00010000
00100000
00020000
00030000
,
02000000
03000000
20000000
00000000
,
00000000
00000000
30000000
00000000
00010000
00010000
00001000
00000000
,
00010000
00000000
00001000
00000000
00000100
00001000
00000010
00000000
,
00001010
00000000
00000010
00000000
00000001
00000100
00000010
00000000
,
00001100
00000000
00000100
00000000
00010000
00010000
00100000
00000000
,
00010000
00000000
01000000
00000000
10000000
00010000
00100000
00000000
,
00001000
00010000
01010000
00011000
,
00001010
00000100
00000011
00000110
,
00001100
00000000
00010000
00000000
00100000
00010000
01000000
00000000
,
10000000
00100000
00020000
00031000
,
00000100
00000000
00001000
00000000
00000010
00000100
00000001
00000000
,
00000100
00000000
00001100
00000000
00010000
00001000
00010000
00001000
,
00010000
00000000
00110000
00000000
10000000
10000000
00010000
00000000
,
00100000
00010000
02000000
03010000
,
10000000
10000000
00100000
00000000
10000000
00010000
10000000
00000000
,
00100000
00000000
01010000
00000000
00001000
00010000
00001000
00100000
,
00001000
00000000
00011000
00000000
00000100
00000100
00000010
00000000
,
00000001
00000100
00002000
00003001
,
00000200
00000000
00001300
00000000
00010000
00001000
00010000
00000000
,
00100000
00000000
00010000
00000000
10000000
01000000
00010000
00000000
,
00100000
00000000
00001000
00000000
00010000
00001000
00000100
00000000
,
00000010
00000001
00000020
00001030
,
00000200
00000000
00000310
00000000
00010000
00001000
00010000
00000000
,
00100000
00000000
00010000
00000000
00000000
01000000
00100000
00000000
,
10000000
00000000
00000000
00000000
00100000
00010000
00001000
00000000
,
00010000
01000000
00200000
10300000
,
02000000
03100000
20000000
30000000
,
01000000
00100000
00100000
00000000
01000000
00000000
00000000
00000000
;

//---------------dance-double - ----------------
#NOTES:
     dance-double:
     :
     Hard:
     12:
     0.410667,0.441886,0.192762,0.142476,0.226286,343.000000,320.000000,23.000000,17.000000,0.000000,0.000000,0.410667,0.441886,0.192762,0.142476,0.226286,343.000000,320.000000,23.000000,17.000000,0.000000,0.000000:
00000000
00000000
00000000
00000000
,
00000000
00000000
00000000
00000000
00000000
00000000
00000000
00000000
00000000
00000000
00000000
00100000
02000000
00000000
00000000
00000000
,
03000000
00000000
00010000
00000000
01000000
00000000
00010000
00000000
00000100
00000000
00000000
00000010
00000200
00000000
00000000
00000000
,
00000300
00000000
00000001
00000000
00000100
00000000
00000010
00000000
00001000
00000000
00000000
00000010
00002000
00000000
00000000
00000000
,
00003000
00000000
00010000
00000000
00100000
00000000
00010000
00000000
01000000
00000000
00000000
10000000
00010000
00000000
00000000
00000000
,
01010000
00000000
00000000
01010000
00000000
00000000
00100000
00000000
00000000
00000000
00000000
00000000
00010000
00000000
00000000
00001000
00000000
00000000
00010000
00000000
00001000
00000000
00010000
00000000
,
00001000
00000000
00000000
00000000
00000000
00000000
00000100
00000000
00000000
00000000
00000000
00000000
00000010
00000000
00000000
00000100
00000000
00000000
00000010
00000000
00000001
00000000
00000010
00000000
,
00000001
00000000
00000000
00000000
00000000
00000000
00000100
00000000
00000000
00000000
00000000
00000000
00000010
00000000
00000000
00001000
00000000
00000000
00000100
00000000
00001000
00000000
00000100
00000000
,
00001000
00010000
00002000
00013000
,
00200000
00000000
00000000
00000000
00000000
00000000
00310000
00000000
00000000
00000000
00000000
00000000
01000000
00000000
00000000
00010000
00000000
00000000
10000000
00000000
00010000
00000000
10000000
00000000
,
00010000
00000000
00000000
00000000
00000000
00000000
00100000
00000000
00000000
00000000
00000000
00000000
00000000
00000000
00000000
00001000
00000000
00010000
00000000
00001000
00000000
00010000
00000000
00001000
,
00000000
00000000
00010000
00000000
00000000
00000000
00000000
00000000
00000000
00000000
00000000
00000000
00001000
00000000
00000000
00000100
00000000
00000000
00000010
00000000
00001000
00000000
00000010
00000000
,
00001000
00000100
00000020
00001030
,
00020000
01030000
20000000
30000000
,
01000000
00000000
00010000
00000000
02000000
00000000
00000000
03000000
,
00100000
00100000
00010000
00000000
00001000
00010000
00001000
00010000
,
00000100
00000000
00000010
00000000
00000001
00000100
00000010
00000100
,
00000010
00000000
00001100
00000000
00010000
00100000
01000000
00000000
,
10000000
00000000
00010000
00000000
00100000
00010000
00001000
00000000
,
00000100
00000000
00001000
00000000
00010000
00001000
00000100
00000010
,
00000100
00000000
00000010
00000000
00000001
00001000
00000100
00001000
,
00000010
00000000
00010000
00000000
00100000
00100000
01000000
00010000
,
10000000
00000000
00100000
00000000
00100000
00010000
00001000
00010000
,
00000100
00001000
00001100
00000010
,
00000011
00000000
00000000
00000000
00000100
00000000
00000000
00000000
00000010
00000000
00000000
00000010
00000100
00000000
00000000
00000000
,
00001000
00000000
00000000
00000000
00011000
00000000
00000000
00000000
00100000
00000000
00000000
00100000
00010000
00000000
00000000
00000000
,
01000000
00000000
00000000
00000000
11000000
00000000
00000000
00000000
00010000
00000000
00000000
00010000
00001000
00000000
00000000
00000000
,
00000100
00001100
00000020
00000130
,
00000001
00000100
00002000
00103000
,
02000000
00000000
03000000
00000000
00100000
00100000
00010000
00001000
,
00010000
00000100
00010000
00000000
00001010
00000000
00011000
00000000
,
01010000
00000000
00000000
00000000
00000000
00000000
00000000
00000000
00000000
00010000
00000000
00000000
00000000
00000000
00000000
00000000
00000000
00000000
00000000
00000000
00000000
00000000
00000000
00000000
00010000
00000000
00000000
00000000
00001000
00000000
00000000
00000000
00010000
00000000
00000000
00000000
00001000
00000000
00000000
00000000
00000000
00000000
00000000
00000000
00000000
00000000
00000000
00000000
,
00001000
00000000
00000110
00000000
00001000
00000100
00000010
00000000
,
00000001
00000100
00000010
00000000
00000010
00001000
00000100
00000010
,
00001000
00000100
00001000
00001000
00001100
00000000
00011000
00000000
,
00110000
00000000
00000000
00000000
00000000
00000000
00000000
00000000
00000000
00100000
00000000
00000000
00000000
00000000
00000000
00000000
00000000
00000000
00000000
00000000
00000000
00000000
00000000
00000000
00010000
00000000
00000000
00000000
01000000
00000000
00000000
00000000
00100000
00000000
00000000
00000000
01000000
00000000
00000000
00000000
00000000
00000000
00000000
00000000
00000000
00000000
00000000
00000000
,
10000000
00000000
01010000
00000000
00100000
00010000
00001000
00000000
,
00000010
00000000
00000001
00000000
00000100
00000000
00000100
00000010
,
00001000
00000000
00000000
00000000
00000100
00000000
00000000
00000000
00011000
00000000
00000000
00100000
00010000
00000000
00000000
10000000
,
01000000
00000000
00000000
01000000
00000000
00000000
00000000
00000000
00110000
00000000
00100000
00000000
01010000
00000000
00001000
00000000
,
00011000
00000000
00000000
00000110
00000000
00000000
00001000
00000010
00001000
00000100
00000000
00000000
,
00000100
00000000
00000000
00001000
00000000
00000000
00100000
01000000
00010000
01000000
00000000
00000000
,
10000000
00000000
01000000
00000000
01000000
00000000
00010000
00000000
00002000
00000000
00000000
00000000
00013000
00000000
00000000
00010000
,
00001000
00000000
00000000
00000000
00100000
00000000
00000000
00000000
00020000
00000000
00000000
00030000
01000000
00000000
00000000
00100000
,
00010000
00000000
10010000
00000000
00100000
00010000
00001000
00000000
,
00000010
00000000
00000000
00000100
00000000
00000000
00000000
00000000
00000000
00000000
00000000
00000000
00001000
00000000
00000000
00000000
00000000
00000000
00000100
00000000
00000010
00000000
00000100
00000000
,
00000010
00000000
00000000
00000000
00000000
00000000
00001000
00000000
00000000
00000000
00000000
00000000
00010000
00000000
00000000
00001000
00000000
00000000
00100000
00000000
00010000
00000000
00100000
00000000
,
00010000
00000000
00000000
10000000
00000000
00000000
01000000
00000000
00000000
00100000
00000000
00000000
01000000
00000000
00000000
00001000
00000000
00000000
00010000
00000000
00001000
00000000
00010000
00000000
,
00001000
00000000
00000000
00000100
00000000
00000000
00000001
00000000
00000000
00000100
00000000
00000000
00000010
00000000
00000000
00001000
00000000
00000000
00000010
00000000
00001000
00000000
00000010
00000000
,
00001000
00000100
00000010
00001000
00000020
00000000
00001030
00010000
,
02000000
00000000
00000000
00000000
00000000
00000000
03010000
00000000
00000000
00100000
00000000
00000000
01000000
00000000
00000000
00010000
00000000
00000000
01000000
00000000
00010000
00000000
01000000
00000000
,
00010000
00000000
00000000
00100000
00000000
00000000
00010000
00000000
00000000
00010000
00000000
00000000
00000000
00000000
00000000
00001000
00000000
00000100
00000000
00001000
00000000
00000010
00000000
00001000
,
00000000
00000000
00000010
00000000
00000000
00000000
00000000
00000000
00000000
00001000
00000000
00000000
00000010
00000000
00000000
00000100
00000000
00000000
00000001
00000000
00000100
00000000
00000001
00000000
,
00000100
00000000
00000010
00000000
00001000
00000000
00000000
00000100
00001000
00000000
00000100
00000000
00010000
00000000
00000000
00001000
,
00010000
00001000
00100000
00000000
01000000
20000000
00000000
00000000
,
30100000
00100000
01000000
00000000
01100000
00000000
00000000
00000000
;
