#VERSION:0.83;
#TITLE:Blossoms of Summer Night;
#SUBTITLE:;
#ARTIST:HOYO-MiX;
#TITLETRANSLIT:Blossoms of Summer Night;
#SUBTITLETRANSLIT:;
#ARTISTTRANSLIT:HOYO-MiX;
#GENRE:GAME SOUNDTRACK;
#ORIGIN:;
#CREDIT:SAIKIO;
#BANNER:Blossoms of Summer Night-banner.png;
#BACKGROUND:bg.png;
#PREVIEWVID:;
#JACKET:Blossoms of Summer Night-jacket.png;
#CDIMAGE:;
#DISCIMAGE:;
#LYRICSPATH:;
#CDTITLE:Genshin Impact.png;
#MUSIC:Blossoms of Summer Night.ogg;
#OFFSET:0.016000;
#SAMPLESTART:17.764050;
#SAMPLELENGTH:13.280029;
#SELECTABLE:YES;
#BPMS:0.000=144.950;
#STOPS:;
#DELAYS:;
#WARPS:;
#TIMESIGNATURES:0.000=4=4;
#TICKCOUNTS:0.000=4;
#COMBOS:0.000=1;
#SPEEDS:0.000=1.000=0.000=0;
#SCROLLS:0.000=1.000;
#FAKES:;
#LABELS:0.000=Song Start;
#BGCHANGES:0.000=Blossoms of Summer Night.avi=1.000=0=0=0=StretchNoLoop====,
99999=-nosongbg-=1.000=0=0=0 // don't automatically add -songbackground-
;
#KEYSOUNDS:;
#ATTACKS:
;

//---------------dance-single - ----------------
#NOTEDATA:;
#CHARTNAME:;
#STEPSTYPE:dance-single;
#DESCRIPTION:;
#CHARTSTYLE:;
#DIFFICULTY:Beginner;
#METER:2;
#RADARVALUES:0.111404,0.200331,0.049989,0.019996,0.000000,78.000000,73.000000,5.000000,2.000000,0.000000,0.000000,0.000000,0.000000,0.000000,0.111404,0.200331,0.049989,0.019996,0.000000,78.000000,73.000000,5.000000,2.000000,0.000000,0.000000,0.000000,0.000000,0.000000;
#CREDIT:;
#NOTES:
0000
0000
0000
0000
,
0000
0000
0000
0000
,
0000
0000
0000
0010
,
0000
0000
0000
0010
,
0000
0000
0000
0100
,
0000
0000
0000
0100
,
0000
0000
0000
0020
,
0000
0000
0000
0000
,
0000
0030
0000
0200
,
0000
0000
0300
0000
,
0100
0100
0000
0010
,
0000
0100
0000
0010
,
0000
0000
0000
0001
,
0000
1000
0000
0001
,
0000
0000
0000
1000
,
0000
0100
0000
1000
,
0000
0000
0000
0010
,
0000
0010
0000
0000
,
0001
0001
0000
0010
,
0000
0001
0000
0010
,
0000
0000
0000
0100
,
0000
1000
0000
0001
,
0000
0000
0000
0010
,
0000
0001
0000
0100
,
0000
0000
0000
1000
,
0000
1000
0000
1000
,
0000
1000
0000
0100
,
0100
0100
0000
0000
,
0000
0000
0000
0010
,
0000
0000
0000
0010
,
0000
0000
0000
0001
,
0000
0000
0000
0001
,
0000
0000
0000
0100
,
0000
0000
0000
0100
,
0000
0000
0000
1000
,
0000
0000
0000
1000
,
0000
0000
0000
0010
,
0000
0000
0000
0001
,
0000
0000
0000
0100
,
0000
0000
0000
1000
,
0000
0000
0000
0100
,
0000
0000
0000
0010
,
0000
0000
0000
0001
,
0000
0000
0000
0010
,
0000
0000
0000
0000
,
0000
0000
0000
0000
,
0000
0000
0000
0000
,
0000
0000
0000
1001
,
0000
1000
0000
1000
,
1000
0000
0000
1001
,
0000
0001
0000
0001
,
0001
0000
0000
0110
,
0000
0100
0000
0010
,
0000
0100
0000
0001
,
0001
0000
0000
1000
,
1000
0000
0000
1001
,
0000
1001
0000
0100
,
0000
0010
0000
0000
;

//---------------dance-single - ----------------
#NOTEDATA:;
#CHARTNAME:;
#STEPSTYPE:dance-single;
#DESCRIPTION:;
#CHARTSTYLE:;
#DIFFICULTY:Easy;
#METER:5;
#RADARVALUES:0.162821,0.286187,0.129971,0.039991,0.000000,114.000000,101.000000,13.000000,4.000000,0.000000,0.000000,0.000000,0.000000,0.000000,0.162821,0.286187,0.129971,0.039991,0.000000,114.000000,101.000000,13.000000,4.000000,0.000000,0.000000,0.000000,0.000000,0.000000;
#CREDIT:;
#NOTES:
0000
0000
0000
0000
,
0000
0000
0000
0000
,
0000
0000
0000
0110
,
0000
0000
0000
0010
,
0000
0000
0000
0110
,
0000
0000
0000
0100
,
0000
0000
0000
0020
,
0000
0000
0000
0000
,
0000
0030
0000
0100
,
0000
0100
0000
0000
,
1000
0001
0000
0010
,
0000
1000
0000
1000
,
0100
0010
0000
0001
,
0000
0100
0000
0001
,
0010
0100
0000
0001
,
0000
1000
0000
0010
,
1000
0100
0000
1001
,
0000
1000
0000
0000
,
0001
1000
0000
0001
,
1000
0001
1000
0100
,
1000
0100
0000
1000
,
0001
1000
0001
0010
,
0001
0010
0000
0100
,
0010
0100
0010
1000
,
0001
0100
0000
1010
,
0000
0101
0000
1100
,
0000
0011
0000
0100
,
0010
0110
0000
0000
,
0000
0000
0000
0010
,
0000
0000
0000
0010
,
0000
0000
0000
0100
,
0000
0000
0000
0100
,
0000
0000
0000
0001
,
0000
0000
0000
0001
,
0000
0000
0000
1000
,
0000
0000
0000
1000
,
0000
0000
0000
0200
,
0000
0000
0000
0300
,
0000
0000
0000
0010
,
0000
0010
0000
0010
,
0000
0010
0000
0020
,
0000
0000
0000
0030
,
0000
0000
0000
0200
,
0000
0000
0000
0000
,
0000
0000
0300
0000
,
0000
0000
0000
0000
,
0000
0000
0000
0000
,
0000
0000
0000
0001
,
1000
0001
0000
1000
,
0100
0010
0000
0100
,
0010
0001
0000
1000
,
0001
1000
0000
0100
,
1000
0100
1000
0010
,
0001
0001
0010
1001
,
0000
0110
0000
0101
,
0000
1100
0000
0100
,
0010
0100
0000
0010
,
0100
0110
0000
0000
;

//---------------dance-single - ----------------
#NOTEDATA:;
#CHARTNAME:;
#STEPSTYPE:dance-single;
#DESCRIPTION:;
#CHARTSTYLE:;
#DIFFICULTY:Medium;
#METER:8;
#RADARVALUES:0.272797,0.429281,0.149967,0.159965,0.000000,191.000000,176.000000,15.000000,16.000000,0.000000,0.000000,0.000000,0.000000,0.000000,0.272797,0.429281,0.149967,0.159965,0.000000,191.000000,176.000000,15.000000,16.000000,0.000000,0.000000,0.000000,0.000000,0.000000;
#CREDIT:;
#NOTES:
0000
0000
0000
0000
,
0000
0000
0000
0000
,
0000
0000
0000
0000
0000
0000
0100
0100
,
0000
0000
0000
0000
0000
0000
0010
0010
,
0000
0000
0000
0000
0000
0000
0100
0100
,
0000
0000
0000
0000
0000
0000
0010
0010
,
0000
0000
0000
0020
,
0000
0100
0000
0100
,
0000
0130
0000
0100
,
0100
0000
0100
0000
0000
0000
0000
0010
,
0100
0010
0100
0000
0010
0000
1000
0000
,
0100
0000
0001
0000
0010
0000
0100
0100
,
0100
0010
0000
0001
,
0010
0000
1000
0000
0100
0000
0010
0010
,
0010
0100
0000
1000
,
0100
0001
0010
1000
,
0100
0001
0100
1001
,
0010
0000
1001
0000
0100
0000
0000
0010
,
0010
0010
0010
0000
0010
0000
0100
0001
,
0100
0000
0010
1000
0010
0000
1000
0000
,
0100
0000
0010
0000
0001
0000
1000
0010
,
1000
0000
0001
0100
0001
0000
0010
0000
,
0001
0000
0100
0000
1000
0000
0010
0100
,
0010
0000
0001
1000
0001
0000
1000
0000
,
0100
0010
0001
0101
,
1000
1100
0001
0011
,
1000
0000
1010
0000
0001
0000
0100
0010
,
0100
0010
0100
0000
0000
0000
0000
0000
,
0000
0000
0000
0020
,
0000
0032
0000
0013
,
0000
0001
0000
0100
,
0100
0010
0000
0001
,
0000
0010
0000
0200
,
0000
2300
0000
3100
,
0000
1000
0000
0010
,
0010
0100
0000
0001
,
0000
0100
0000
0020
,
0000
0100
0000
0130
,
0000
0001
0000
0010
,
0000
0100
0000
1000
,
0000
0100
0000
0020
,
0000
0000
0000
0032
,
0000
0000
0000
0203
,
0000
0000
0000
0000
0000
0300
0010
0000
,
0000
0010
0010
0000
,
0010
0000
0000
0000
,
0000
0000
0000
0000
,
0000
0000
0000
1001
,
1000
0000
1001
0000
0100
0010
0100
0000
,
0001
0010
0100
0000
0010
0000
1100
0000
,
1000
0000
0110
0000
1000
0010
0100
0000
,
0010
0001
0010
0000
0100
0000
0101
0000
,
1100
0000
0011
0000
1010
0000
0001
1000
,
0100
1000
0100
0000
0010
0000
0002
0000
,
0203
2300
3200
0320
,
0032
0000
0203
0000
0310
0000
1000
0001
,
1000
0000
0100
0010
0100
0000
0001
0000
,
0100
0110
0000
0000
;

//---------------dance-single - ----------------
#NOTEDATA:;
#CHARTNAME:;
#STEPSTYPE:dance-single;
#DESCRIPTION:;
#CHARTSTYLE:;
#DIFFICULTY:Hard;
#METER:12;
#RADARVALUES:0.401340,0.600993,0.179960,0.199956,0.089980,281.000000,263.000000,18.000000,20.000000,0.000000,0.000000,0.000000,0.000000,0.000000,0.401340,0.600993,0.179960,0.199956,0.089980,281.000000,263.000000,18.000000,20.000000,0.000000,0.000000,0.000000,0.000000,0.000000;
#CREDIT:;
#NOTES:
0000
0000
0000
0000
,
0000
0000
0000
0000
,
0000
0000
0000
0000
0000
0000
0100
0110
,
0000
0000
0000
0000
0000
0000
0010
0110
,
0000
0000
0000
0000
0000
1000
0100
0110
,
0000
0000
0000
0000
0000
0001
0010
0110
,
0000
0000
0000
0020
,
1000
0100
0001
0100
,
1000
0000
0130
0000
0000
0000
0100
0010
,
0100
0001
0100
0000
0010
0000
0000
1000
,
1000
0001
0001
0000
0100
0000
0020
0000
,
2030
0000
3100
0000
0010
0001
0010
0100
,
1000
0100
1000
0000
0010
0010
0200
0000
,
0302
0000
0103
0000
0010
1000
0010
0100
,
0001
0100
0001
0000
0100
0001
0101
0000
,
1100
0000
0011
0000
1000
1000
0100
0010
,
0100
0000
0001
0000
0010
0000
0010
0000
0100
0000
0000
0000
1000
0000
1000
0100
,
1000
0000
0010
0000
0100
0000
0100
0001
0100
0000
0010
0000
0000
0000
0100
0000
,
0100
0000
0010
0000
0010
0000
0000
0000
0110
0000
0000
0000
1000
0000
0100
1000
,
0100
0000
1000
0000
0010
1000
0000
0010
0100
0000
0001
0000
0100
0000
0010
0100
,
0010
0000
0100
0000
0001
0100
0000
0010
0100
0000
0001
0000
1000
0000
0100
0010
,
0001
0000
0100
0000
0010
0100
0000
0010
0100
0000
0001
0000
1000
0000
0001
1000
,
0001
0000
1000
0000
0010
0001
0000
0100
0001
0000
0010
0000
0200
0000
0000
0000
,
0320
0000
2030
0000
3100
0010
0000
0001
,
0100
0100
0010
1000
0001
0100
0010
0100
,
0001
1000
0100
1000
0100
1000
0010
0100
,
0010
0100
0001
0100
0001
0100
0100
0010
,
0010
0100
0010
0000
0000
0000
0000
0000
,
0000
0000
0000
0020
,
0000
0230
0000
0301
,
0000
0100
0100
0010
,
1000
0100
0010
0001
,
0000
0100
0010
0200
,
0000
2300
0000
3001
,
0000
0010
0100
0010
,
0010
1000
0100
0001
,
0000
0100
0001
2000
,
0000
3002
0000
0013
,
0000
0010
0100
1000
,
1000
0100
0010
0001
,
0010
0100
0001
0200
,
0000
0000
0000
0320
,
0000
0000
0000
0031
,
0000
0000
0000
0010
,
0000
0000
0000
0000
0100
0000
0000
0000
0000
0010
0000
0000
0000
0000
0000
0000
,
0010
0000
0000
0000
,
0000
0000
0000
0000
,
0000
0000
0000
0012
,
0203
0000
0320
0000
1030
0100
1000
0010
,
0100
0001
0100
0000
0010
0010
0101
0000
,
1010
0000
1100
0000
0001
0010
0001
1000
,
0010
0100
0010
0000
0001
0100
2010
0000
,
0001
0000
3010
0000
0100
0100
0010
0001
,
0010
1000
0100
1000
0100
0010
0101
0001
,
0010
1000
1100
0010
0100
0010
0110
0001
,
0100
0000
1000
0000
1001
0000
0100
0000
0010
0000
0100
0000
0001
0000
1000
0001
,
1000
0000
0001
0000
0010
0000
0100
0010
0100
0000
0001
0000
0100
0000
0000
1000
,
0000
0100
0110
0000
0000
0000
0000
0000
;

//---------------dance-double - ----------------
#NOTEDATA:;
#CHARTNAME:;
#STEPSTYPE:dance-double;
#DESCRIPTION:;
#CHARTSTYLE:;
#DIFFICULTY:Easy;
#METER:6;
#RADARVALUES:0.207097,0.372043,0.179960,0.089980,0.000000,145.000000,127.000000,18.000000,9.000000,0.000000,0.000000,0.000000,0.000000,0.000000,0.207097,0.372043,0.179960,0.089980,0.000000,145.000000,127.000000,18.000000,9.000000,0.000000,0.000000,0.000000,0.000000,0.000000;
#CREDIT:;
#NOTES:
00000000
00000000
00000000
00000000
,
00000000
00000000
00000000
00000000
,
00000000
00000000
00000000
00000110
,
00000000
00000000
00000000
00001000
,
00000000
00000000
00000000
00010000
,
00000000
00000000
00000000
01100000
,
00000000
00000000
00000000
00200000
,
00000000
00000000
00000000
00000000
,
00000000
00300000
00000000
00010000
,
00000000
00001000
00000000
00000000
,
00000100
00000010
00000110
00000001
,
00000001
00000100
00000100
00001000
,
00010000
00100000
00000000
10000000
,
10000000
01000000
01000000
00100000
,
00010000
00001000
00000000
00000100
,
00000100
00000010
00000010
00000001
,
00000100
00001000
00010000
00011000
,
00000000
00011000
00000000
00100000
,
00010000
01000000
00000000
20000000
,
30010000
00100000
00010000
00001000
,
00000100
00000010
00000000
00000002
,
00001003
00000100
00001000
00010000
,
00100000
00010000
00000000
02000000
,
03100000
00010000
00001000
00000100
,
00000010
00000001
00000100
00000110
,
00001000
00001100
00010000
00011000
,
00100000
01100000
01000000
10000000
,
00010000
00100000
00000000
00000000
,
00000000
00000000
00000000
00200000
,
00000000
00300000
00000000
00010000
,
00000000
00000000
00000000
00001000
,
00000000
00001000
00000000
00001000
,
00000000
00000000
00000000
00000020
,
00000000
00000030
00000000
00000100
,
00000000
00000000
00000000
00000001
,
00000000
00000100
00000000
00001000
,
00000000
00000000
00000000
00020000
,
00000000
00030000
00000000
00100000
,
00000000
00000000
00000000
01000000
,
00000000
10000000
00000000
00100000
,
00000000
00010000
00000000
00002000
,
00000000
00003000
00000000
00000100
,
00000000
00000000
00000000
00000002
,
00000000
00000003
00000000
00000000
,
00000000
00000001
00000000
00000000
,
00000000
00000000
00000000
00000000
,
00000000
00000000
00000000
00000000
,
00000000
00000000
00000000
00011000
,
00010000
00011000
00100000
00010000
,
01000000
10000000
00000000
01010000
,
00010000
01010000
00100000
00010000
,
00001000
00000100
00000000
00001010
,
00001000
00001010
00000100
00000010
,
00000001
00000100
00000010
00000110
,
00001000
00000100
00010000
00011000
,
00100000
00010000
01000000
00100000
,
00100000
01000000
01000000
00010000
,
00001000
00011000
00000000
00000000
;

//---------------dance-double - ----------------
#NOTEDATA:;
#CHARTNAME:;
#STEPSTYPE:dance-double;
#DESCRIPTION:;
#CHARTSTYLE:;
#DIFFICULTY:Medium;
#METER:8;
#RADARVALUES:0.262799,0.400662,0.219952,0.169963,0.000000,184.000000,162.000000,22.000000,17.000000,0.000000,0.000000,0.000000,0.000000,0.000000,0.262799,0.400662,0.219952,0.169963,0.000000,184.000000,162.000000,22.000000,17.000000,0.000000,0.000000,0.000000,0.000000,0.000000;
#CREDIT:;
#NOTES:
00000000
00000000
00000000
00000000
,
00000000
00000000
00000000
00000000
,
00000000
00000000
00000000
01100000
,
00000000
00010000
00000000
00001000
,
00000000
00000100
00000000
00000110
,
00000000
00000100
00000000
00001000
,
00000000
00010000
00000000
00200000
,
00000000
00010000
00000000
00010000
,
00000000
00310000
00000000
00001000
,
00000100
00000000
00000001
00000000
00000010
00000000
00000000
00000010
,
00000010
00000010
00000010
00000000
00000110
00000000
00001000
00000000
,
00001000
00010000
00100000
01000000
,
10000000
10100000
00000000
00010000
,
00010000
00001000
00000100
00000010
,
00000001
00000101
00000000
00002000
,
00013000
00100000
00010000
01000000
,
10000000
00100000
00010000
00011000
,
00000000
00000000
00011000
00000000
00000000
00000000
00000000
00100000
,
00100000
00100000
00100000
00000000
01100000
00000000
00020000
00000000
,
00032000
00000000
00003020
00000000
00000130
00000000
00001000
00000100
,
00000010
00000001
00000000
00000020
,
00002030
00000000
00023000
00000000
00130000
00000000
01000000
00100000
,
01000000
10000000
00100000
00020000
,
00032000
00003200
00000310
00000000
,
00000001
00000001
00000100
00001100
,
00001000
00011000
00010000
00110000
,
01000000
00000000
01100000
00000000
00010000
00000000
01000000
00100000
,
01000000
00100000
01000000
00000000
00000000
00000000
00000000
00000000
,
00000000
00000000
00000000
00000020
,
00000000
00000030
00000000
00000000
00000000
00000000
00001000
00000000
,
00000000
00010000
00000000
00100000
,
00000000
01000000
00000000
10000000
,
00000000
00100000
00000000
00002000
,
00000000
00003000
00000000
00000000
00000000
00000000
00000100
00000000
,
00000000
00000010
00000000
00000001
,
00000000
00000100
00000100
00001000
,
00000000
00010000
00000000
00200000
,
00000000
00000000
00000000
00320000
,
00000000
00000000
00030000
00001000
,
00000000
00000100
00000000
00000001
,
00000000
00000010
00000000
00000200
,
00000000
00000000
00000000
00002300
,
00000000
00000000
00003000
00010000
,
00000000
00000000
00000000
00100000
,
00000000
01000000
01000000
00000000
,
00100000
00000000
00000000
00000000
,
00000000
00000000
00000000
00000000
,
00000000
00000000
00000000
00011000
,
00010100
00000000
00001000
00000000
00010000
00100000
00010000
00000000
,
01000000
10000000
00100000
00110000
,
00011000
00000000
00000100
00000000
00001000
00000010
00001000
00000000
,
00000010
00000001
00000010
00001100
,
00011000
00000000
00101000
00000000
00010000
00000000
00100000
10000000
,
00100000
00000000
01000000
00000000
00010000
00000000
00001000
00010000
,
00001000
00000000
00000100
00001000
00000100
00000000
00000010
00001000
,
00000010
00000000
00000001
00000100
00000001
00000000
00000110
00000000
,
00001000
00010100
00010000
00100000
,
00010000
00001000
00011000
00000000
00000000
00000000
00000000
00000000
;

//---------------dance-double - ----------------
#NOTEDATA:;
#CHARTNAME:;
#STEPSTYPE:dance-double;
#DESCRIPTION:;
#CHARTSTYLE:;
#DIFFICULTY:Hard;
#METER:12;
#RADARVALUES:0.379916,0.543755,0.289936,0.399912,0.034992,266.000000,237.000000,29.000000,40.000000,0.000000,0.000000,0.000000,0.000000,0.000000,0.379916,0.543755,0.289936,0.399912,0.034992,266.000000,237.000000,29.000000,40.000000,0.000000,0.000000,0.000000,0.000000,0.000000;
#CREDIT:;
#NOTES:
// measure 0
00000000
00000000
00000000
00000000
,  // measure 1
00000000
00000000
00000000
00000000
,  // measure 2
00000000
00000000
00000000
00000000
00000000
00000000
00000110
00000100
,  // measure 3
00000000
00000000
00001000
00000000
00000000
00000000
01100000
01100000
,  // measure 4
00000000
00000000
00010000
00000000
00000000
00010000
00001000
00011000
,  // measure 5
00000000
00000000
00000100
00000000
00000000
00000000
00000110
00000110
,  // measure 6
00000000
00000001
00000000
00000020
,  // measure 7
00001000
00000100
00000001
00000100
,  // measure 8
00001000
00000000
00000130
00000000
00001000
00000000
00010000
00100000
,  // measure 9
01000000
10000000
00100000
00000000
01000000
00000000
00000000
01100000
,  // measure 10
00100000
01000000
00100000
00000000
01100000
00000000
00020000
00000000
,  // measure 11
00032000
00000000
00003200
00000000
00000310
00000010
00000100
00000010
,  // measure 12
00000001
00001000
00000100
00000000
00001000
00000100
00002000
00000000
,  // measure 13
00023000
00000000
00230000
00000000
01300000
01000000
10000000
01000000
,  // measure 14
00100000
00010000
01000000
00000000
00010000
00100000
00020000
00000000
,  // measure 15
00032000
00000000
00003200
00000000
00000310
00000010
00000001
00000010
,  // measure 16
00000100
00000010
00010000
00001000
00010000
00000000
00011000
00011000
,  // measure 17
00100000
00000000
00011000
00011000
00000100
00000000
00000000
00001000
,  // measure 18
00001000
00000010
00000010
00000000
00000110
00000000
00000021
00000000
,  // measure 19
00000230
00000000
00002300
00000000
00003100
00010000
00001000
00100000
,  // measure 20
01000000
00100000
10000000
00000000
00010000
00010000
20100000
00000000
,  // measure 21
30200000
00000000
02300000
00000000
03010000
00001000
00000100
00000010
,  // measure 22
00000100
00000001
00000010
00001000
00010000
00001000
00101000
00000000
,  // measure 23
00010100
00000000
00001010
00000000
00001000
00001000
00000000
00000100
,  // measure 24
00001000
00000000
00000010
00000000
00000100
00000000
00000001
00000000
00000100
00000000
00000000
00000000
00000010
00000000
00001000
00000010
,  // measure 25
00001000
00000000
00000000
00000000
00010000
00000000
00001000
00010000
00001000
00000000
00000000
00000000
00100000
00000000
01000000
00100000
,  // measure 26
01000000
00100000
01000000
00010000
10000000
00100000
00010000
00001000
,  // measure 27
00000100
00001000
00000010
00000000
00000000
00000000
00000000
00000000
,  // measure 28
00000000
00000000
00000000
00000020
,  // measure 29
00000000
00000032
00000000
00001003
,  // measure 30
00000000
00001000
00001000
00010000
,  // measure 31
00000000
00100000
00100000
01000000
,  // measure 32
00000000
10000000
01000000
00200000
,  // measure 33
00000000
20300000
00000000
30010000
,  // measure 34
00000000
00010000
00010000
00001000
,  // measure 35
00000010
00000010
00000000
00000100
,  // measure 36
00000000
00000100
00000001
00000020
,  // measure 37
00000000
00002030
00000000
00003200
,  // measure 38
00000000
00010300
00010000
00200000
,  // measure 39
00320000
02030000
23000000
30200000
,  // measure 40
00320000
00032000
00003100
00000200
,  // measure 41
00000000
00000300
00000000
00000020
,  // measure 42
00000000
00000030
00000000
00000002
,  // measure 43
00000000
00000003
00000000
00000100
,  // measure 44
00000000
00000000
00000000
00000000
00000100
00000000
00000000
00000000
00000000
00000100
00000000
00000000
00000000
00000000
00000000
00000000
,  // measure 45
00000010
00000000
00000000
00000000
,  // measure 46
00000000
00000000
00000000
00000000
,  // measure 47
00000000
00000000
00000000
00011000
,  // measure 48
00101000
00000000
01100000
00000000
00010000
01000000
10000000
01000000
,  // measure 49
00010000
00001000
00000100
00000000
00001000
00001000
00010100
00000000
,  // measure 50
00001100
00000000
00000011
00000000
00000010
00000100
00000010
00001000
,  // measure 51
00010000
00100000
00100000
00000000
00010000
00100000
00011000
00000000
,  // measure 52
00110000
00000000
10010000
00000000
00100000
00010000
01000000
00010000
,  // measure 53
00001000
00000100
00000010
00000100
00000001
00000010
00002000
00000000
,  // measure 54
00023000
00230000
20300000
32000000
,  // measure 55
03200000
00000000
00000000
00000000
00320000
00000000
00000000
00000000
00031000
00000000
00000000
00000000
00001000
00000000
00010000
00001000
,  // measure 56
00010000
00000000
00000100
00000000
00001000
00000000
00000100
00001000
00000100
00000000
00000000
00000000
00000100
00000000
00000000
00000100
,  // measure 57
00000000
00011000
00011000
00000000
00000000
00000000
00000000
00000000
;
