#TITLE:마지막처럼;
#SUBTITLE:;
#ARTIST:BLACKPINK;
#TITLETRANSLIT:As If It's Your Last;
#SUBTITLETRANSLIT:;
#ARTISTTRANSLIT:BLACKPINK;
#GENRE:K-POP;
#CREDIT:SAIKIO;
#BANNER:As If It's Your Last-banner.png;
#BACKGROUND:bg.png;
#LYRICSPATH:;
#CDTITLE:Saikio Simfiles.png;
#MUSIC:As If It's Your Last.ogg;
#OFFSET:-0.003000;
#SAMPLESTART:48.884048;
#SAMPLELENGTH:16.400061;
#SELECTABLE:YES;
#BPMS:0.000000=125.010010
;
#STOPS:100.000000=0.960000,
198.000000=2.880000
;
#BGCHANGES:0.000=As If It's Your Last.avi=1.000=0=0=0=StretchNoLoop====,
99999=-nosongbg-=1.000=0=0=0 // don't automatically add -songbackground-
;
#KEYSOUNDS:;
#ATTACKS:;

//---------------dance-single - ----------------
#NOTES:
     dance-single:
     :
     Beginner:
     2:
     0.135230,0.175008,0.000000,0.000000,0.000000,124.000000,124.000000,0.000000,0.000000,0.000000,0.000000,0.135230,0.175008,0.000000,0.000000,0.000000,124.000000,124.000000,0.000000,0.000000,0.000000,0.000000:
0000
0000
0000
0000
,
0000
0000
1000
0000
,
1000
0000
1000
0000
,
0000
0000
0001
0000
,
0001
0000
0001
0000
,
0000
0010
0010
0000
,
0000
0100
0100
0000
,
0000
0001
0000
0100
,
0000
0000
1000
1000
,
0000
0000
0010
0000
,
0010
0000
0010
0000
,
0000
0000
0100
0000
,
0100
0000
0100
0000
,
0000
0000
0001
0001
,
0000
0000
1000
1000
,
0000
0000
0100
0000
,
0001
0000
0010
0000
,
1000
0000
0000
0000
,
0100
0000
0000
0000
,
0001
0000
0000
0000
,
0100
0000
0000
0000
,
1000
0000
0000
0000
,
0010
0000
0000
0000
,
0001
0000
0000
0000
,
0010
0010
0010
0010
,
0000
1000
0000
0100
,
0000
1000
0000
0100
,
0000
0010
0000
0001
,
0000
0010
0010
0010
,
0000
0100
0000
1000
,
0000
0100
0000
0001
,
0000
0010
0000
1000
,
0000
0010
0000
0100
,
0100
0000
1000
0001
,
0000
0000
0001
1000
,
0000
0010
0000
0010
,
0000
0100
0000
0100
,
0000
0000
0010
0100
,
0000
0000
0100
0010
,
0000
0000
0001
0000
,
1000
0000
0100
0000
,
0100
0000
0010
0010
,
0010
0000
1000
0000
,
0000
0000
0100
0100
,
0100
0000
0001
0000
,
0000
0000
0001
0001
,
1000
0000
1000
1000
,
0001
0000
0100
0000
,
0010
0000
0100
0100
,
0100
0000
0010
0001
,
0000
0100
0000
0001
,
0000
0100
0000
1000
,
0000
0010
0000
1000
,
0000
0010
0000
0100
,
0000
0001
0000
0100
,
0000
1000
0000
0010
,
0000
0001
0000
0100
,
0000
1000
0000
0000
,
0001
0100
0000
0000
,
1000
0100
0000
0000
,
1000
0000
1000
0000
,
0100
0000
0100
0000
,
1000
0010
0000
0000
,
0001
0010
0000
0000
,
0100
0000
0100
0000
,
0010
0000
0100
0000
;

//---------------dance-single - ----------------
#NOTES:
     dance-single:
     :
     Easy:
     5:
     0.219203,0.275013,0.068705,0.053438,0.000000,201.000000,192.000000,9.000000,7.000000,0.000000,0.000000,0.219203,0.275013,0.068705,0.053438,0.000000,201.000000,192.000000,9.000000,7.000000,0.000000,0.000000:
0000
0000
0000
0000
,
0000
0000
0010
0000
,
0010
0100
0010
0000
,
1000
0000
0100
0000
,
0100
0001
0100
0000
,
0010
0000
1000
1000
,
0000
0100
0000
0010
,
0000
0010
0001
0000
,
0100
0010
1000
0000
,
1000
0000
1000
0001
,
1000
0001
0010
0000
,
0001
0000
0001
1000
,
0001
0100
0010
0000
,
0001
0100
1000
0000
,
1000
0100
0010
0000
,
0001
0100
0010
0000
,
1000
0000
1000
1000
,
2000
0000
3000
0000
,
0100
0000
0000
0001
,
0100
0010
0000
1000
,
0000
0000
0010
0100
,
0002
0000
0003
0100
,
0100
0010
0000
1000
,
0000
0100
0010
0000
,
2000
3000
0100
0100
,
0000
0010
0000
0010
,
0000
1000
0100
0001
,
0000
0010
0001
0100
,
0000
1000
0100
1000
,
0010
0100
0000
0010
,
0001
0100
0000
0010
,
0000
0001
0010
0100
,
0000
1000
0010
0001
,
0100
0000
0010
0001
,
0100
0110
0001
0010
,
1000
1001
0001
0100
,
1000
0020
0030
1000
,
0100
0000
0010
0001
,
1000
1001
1000
0010
,
0100
0110
0001
0010
,
0100
0200
0300
0001
,
0010
0000
0010
0010
,
0010
0000
0100
0001
,
0100
0000
1000
1000
,
1000
0000
0001
0100
,
0010
0000
1000
0100
,
0001
0000
0001
0010
,
1000
0000
0001
1000
,
0001
0000
0010
0100
,
0010
0000
0110
0010
,
0000
1000
0100
0001
,
0010
0100
0000
0001
,
0010
0100
0000
1000
,
0100
1000
0100
0010
,
0000
0001
0010
0100
,
0010
0001
0000
1000
,
0010
0001
0000
0001
,
1000
0100
0001
0000
,
0010
0001
0100
1100
,
0010
1000
0100
0101
,
0010
0001
1000
0200
,
0300
0001
0010
0000
,
0010
1000
0100
1010
,
0100
0001
0010
0011
,
1000
0010
0100
0020
,
0030
1000
0100
0000
;

//---------------dance-single - ----------------
#NOTES:
     dance-single:
     :
     Medium:
     9:
     0.330440,0.325015,0.068705,0.053438,0.000000,303.000000,294.000000,9.000000,7.000000,0.000000,0.000000,0.330440,0.325015,0.068705,0.053438,0.000000,303.000000,294.000000,9.000000,7.000000,0.000000,0.000000:
0000
0000
0000
0000
,
0010
0000
0100
0001
,
0100
0000
0010
0100
1000
0000
0000
0000
,
0100
0000
1000
0100
,
1000
0000
0010
0000
0100
0010
0001
0000
,
0000
0010
0010
0000
0100
0000
1000
0000
,
1000
0000
0001
0001
0010
0000
0100
0000
,
0100
1000
0001
0010
,
0100
0000
1000
0000
0001
0100
0001
0000
,
0010
0000
0100
0000
0001
0000
0100
0010
,
0001
0000
0010
0100
1000
0000
0100
0000
,
0001
0000
0001
0000
0010
0000
1000
0001
,
1000
0000
0100
0010
0100
0000
0010
0000
,
0100
0000
1000
1000
0100
0000
0010
0000
,
0100
0000
0100
0100
0010
0000
0010
0000
,
0100
0001
0100
1000
,
0100
0000
0010
0000
0001
0100
0010
0000
,
0200
0000
0010
0000
0000
0300
0010
0100
,
0000
0001
0000
0100
0000
0000
0010
0000
,
1000
0100
0010
0001
,
0000
0100
0010
0001
,
2000
3100
0001
0010
,
0020
0000
0031
0000
0100
0000
0010
0100
,
0000
0001
0100
0010
,
1000
0000
0100
0000
0001
0000
0010
0100
,
0000
0000
0010
0000
0000
0100
1000
0100
,
0000
0001
0010
0001
0000
0010
0000
0100
,
0000
0100
0010
1000
0000
0100
0000
0010
,
0000
0001
0000
0010
0000
0100
0000
0010
,
0000
1000
0000
0100
0000
0001
0100
1000
,
0000
1000
0010
0001
0000
0010
0000
0100
,
0000
0010
1000
0100
0000
0001
0000
0010
,
0000
1000
0000
1000
0000
0001
0000
0100
,
0000
0010
0000
0010
1000
0100
1000
0000
,
0010
0000
0011
0000
1000
0100
1000
0000
,
0010
0000
0011
0000
0100
0000
0100
0001
,
1000
0200
0310
0000
,
0010
0000
0000
0000
0001
0010
0100
0000
,
0010
0000
1100
0000
0001
0010
0100
0000
,
0010
0000
1100
0000
0010
0000
0010
0100
,
0001
1000
0020
0130
,
0100
0000
0100
0010
,
0100
0000
0001
0000
0001
0100
1000
0000
,
0100
0000
1000
0000
0010
0000
1000
0100
,
0001
0000
0010
0000
0001
0000
0010
0100
,
1000
0000
0001
0000
1000
0010
1000
0000
,
0001
0000
0100
0000
0001
0010
0001
0000
,
0100
0000
1000
0001
0010
0000
1000
0001
,
1000
0000
0100
0000
0010
0000
0010
0100
,
0010
0100
0110
0010
,
0100
0000
0100
0001
0000
0100
1000
0100
,
0000
0001
0000
0100
0000
0010
1000
0001
,
0000
0010
0000
0100
0000
0001
0000
0010
,
0000
1000
0000
0010
0000
0100
0000
0001
,
0000
1000
0100
1000
0000
0001
0010
0001
,
0000
0100
0000
1000
0000
0100
0000
0010
,
0000
0001
0000
0100
0000
0010
0000
0100
,
0000
1000
0001
1000
0010
0000
0100
0000
,
0010
0100
1000
0000
0100
0000
1010
0000
,
0100
0010
0001
0000
0010
0000
0101
0000
,
0010
0000
0100
0010
1000
0000
0100
0000
,
0020
0130
0010
0100
,
0001
0100
0010
0000
1000
0000
1100
0000
,
1000
0010
0100
0000
0001
0000
0011
0000
,
0010
0000
1000
0100
0010
0000
0001
0000
,
0200
0310
0010
0000
;

//---------------dance-single - ----------------
#NOTES:
     dance-single:
     :
     Hard:
     11:
     0.429682,0.375017,0.206116,0.122143,0.072522,394.000000,367.000000,27.000000,16.000000,0.000000,0.000000,0.429682,0.375017,0.206116,0.122143,0.072522,394.000000,367.000000,27.000000,16.000000,0.000000,0.000000:
// measure 0
0000
0000
0000
0000
,  // measure 1
0010
0000
0001
0000
0010
0000
0000
0000
1000
0000
0000
0010
0000
0000
0001
0000
,  // measure 2
0010
0000
0000
0100
0000
0000
0001
0000
0100
0000
0001
0000
0010
0000
0000
0000
,  // measure 3
0100
0000
1000
0000
0100
0000
0000
0000
0010
0000
0000
0001
0000
0000
0010
0000
,  // measure 4
0100
0000
0000
1000
0000
0000
0100
0000
0010
0000
0010
0000
0100
0000
0000
0000
,  // measure 5
0001
0000
1000
0000
0100
0000
1000
0000
0010
0000
0000
1000
0000
0000
1010
0000
,  // measure 6
0000
0000
0010
0000
0001
0000
0100
0000
0001
0000
0000
0100
0000
0000
0101
0000
,  // measure 7
0000
0000
0100
0000
0010
0000
1000
0000
0100
0000
0000
0010
0000
0000
0001
0000
,  // measure 8
0200
0000
0310
0000
0001
0100
0010
0001
,  // measure 9
0100
0000
0001
0000
0010
0000
0100
0000
0100
0000
0000
0010
0000
0000
0100
0000
,  // measure 10
0010
0000
0000
1000
0000
0000
0100
0000
0020
0000
0000
0000
0130
0000
0000
0000
,  // measure 11
1000
0000
0001
0000
1000
0000
0010
0000
0100
0000
0000
0100
0000
0000
0010
0000
,  // measure 12
1000
0000
0000
1000
0000
0000
0100
0000
0010
0000
0001
0000
0010
0000
0000
0000
,  // measure 13
1000
0000
0100
0000
0001
0000
0001
0000
0100
0000
0000
0001
0000
0000
0011
0000
,  // measure 14
0000
0000
0001
0000
1000
0000
0100
0000
0010
0000
0000
0100
0000
0000
1100
0000
,  // measure 15
0000
0001
0100
0010
0100
1000
0100
0000
,  // measure 16
0010
0000
1000
0000
0100
0010
0001
0000
,  // measure 17
0200
0000
0010
0010
0310
0000
0001
0100
,  // measure 18
0000
0010
0000
1000
0000
0010
0100
0001
,  // measure 19
0000
0010
0000
1000
0000
0100
0000
0002
,  // measure 20
0000
0103
0010
1000
,  // measure 21
0100
1000
0010
1000
0000
0001
0010
0100
,  // measure 22
0000
0200
0000
0310
0000
0010
1000
2000
,  // measure 23
0000
3010
0001
0100
0000
0010
0000
0200
,  // measure 24
0000
0300
0010
0001
0100
0010
0100
1000
,  // measure 25
0100
0000
0010
0000
0000
0100
1000
0010
,  // measure 26
0000
0100
0010
0001
0000
0100
0000
1100
,  // measure 27
0000
0001
0010
0100
0000
0011
0000
0101
,  // measure 28
0000
0010
0100
2000
0000
3100
0000
0010
,  // measure 29
0000
0001
0000
0110
0000
0001
1000
0100
,  // measure 30
0000
0100
0001
0020
0000
0031
0000
1001
,  // measure 31
0000
0100
1000
0001
0000
1000
0000
0110
,  // measure 32
0000
0100
0010
1000
0000
0001
0100
0010
,  // measure 33
1000
0000
0000
1000
0000
0000
0100
0000
0001
0000
0010
0000
0001
0000
0100
0000
,  // measure 34
1000
0000
1001
0000
0001
0010
0001
0100
,  // measure 35
1000
0000
1001
0000
0010
1000
0100
0010
,  // measure 36
1000
0000
0000
1000
0000
0000
0001
0000
0020
0000
0000
0000
0030
0000
0100
0000
,  // measure 37
0010
0000
1000
0000
0100
1000
0100
0001
,  // measure 38
0010
0000
0110
0000
0100
1000
0100
0001
,  // measure 39
0010
0000
0110
0000
0001
0001
1000
0100
,  // measure 40
0010
0000
0000
0010
0000
0000
0100
0000
0001
0000
0000
0000
0100
0000
0010
0000
,  // measure 41
0200
0300
0010
0010
,  // measure 42
0010
0000
0001
0010
0100
0010
1000
0100
,  // measure 43
0010
0000
0001
0001
0100
0000
0100
0010
,  // measure 44
0010
0000
1000
0000
0100
1000
0001
1000
,  // measure 45
0100
0000
0010
0001
0010
0100
1000
0100
,  // measure 46
0010
0000
0100
0001
1000
0010
0100
0010
,  // measure 47
1000
0000
0001
0100
0002
0000
1003
0001
,  // measure 48
1000
0000
1001
0000
0010
0100
1000
0100
,  // measure 49
0001
0100
0110
0010
,  // measure 50
0000
0001
0010
0100
0000
0100
1000
0010
,  // measure 51
0000
0001
0000
0101
0000
0010
1000
0100
,  // measure 52
0000
1010
0000
1100
0000
0001
0100
2000
,  // measure 53
0000
3010
0000
1000
0000
1001
0000
0110
,  // measure 54
0000
0010
1000
0100
0000
0010
0001
0200
,  // measure 55
0000
0310
0000
0101
0000
0010
0100
0001
,  // measure 56
0000
1000
0000
1010
0000
0001
0100
0010
,  // measure 57
0000
0000
1000
0000
0100
0000
1000
0000
0001
0000
0000
0001
0000
0000
0100
0000
,  // measure 58
0010
0001
0010
0100
1000
0000
1001
0000
,  // measure 59
0010
0001
0010
0100
1000
0000
1001
0000
,  // measure 60
1000
0000
1000
0000
0001
0000
0010
0000
1000
0000
0000
0100
0000
0000
0010
0000
,  // measure 61
0200
0000
0300
0010
0100
0000
0001
0000
,  // measure 62
1000
0100
0001
0010
1000
0000
0110
0000
,  // measure 63
1000
0100
0001
0010
1000
0000
0110
0000
,  // measure 64
0010
0000
0010
0000
1000
0000
0100
0000
0001
0000
0000
0010
0000
0000
0001
0000
,  // measure 65
0020
0000
0030
0100
0010
0000
0000
0000
;

//---------------dance-double - ----------------
#NOTES:
     dance-double:
     :
     Easy:
     5:
     0.236652,0.275013,0.068705,0.076339,0.000000,217.000000,208.000000,9.000000,10.000000,0.000000,0.000000,0.236652,0.275013,0.068705,0.076339,0.000000,217.000000,208.000000,9.000000,10.000000,0.000000,0.000000:
00000000
00000000
00000000
00000000
,
00000000
00000000
00010000
00001000
,
00000100
00001000
00010000
00000000
,
00001000
00000000
00000010
00000001
,
00000100
00001000
00010000
00000000
,
00100000
00010000
10000000
10000000
,
00000000
00100000
00010000
00001000
,
00000000
00001000
00000100
00000010
,
00000002
00000003
00000100
00000000
,
00000010
00001000
00000100
00000100
,
00000001
00001000
00000020
00000030
,
00010000
00000000
00100000
01000000
,
10000000
01000000
20000000
30000000
,
00100000
00010000
00010000
00000100
,
00000000
00001000
00000100
00000010
,
00000000
00000001
00000100
00001000
,
00010000
00001000
00100000
00000000
,
20000000
30000000
01000000
00000000
,
00100000
00010000
00000000
01000000
,
10000000
00100000
00010000
00001000
,
00000000
00000100
00001000
00000010
,
00000002
00000003
00000100
00000001
,
00000100
00001000
00000000
00001000
,
00010000
01000000
10000000
00000000
,
00020000
00031000
00010000
00001000
,
00000000
00000000
00010000
00100000
,
00010000
00001000
00000100
00001000
,
00000000
00000010
00000001
00000100
,
00000000
00000010
00001000
00001000
,
00010000
00100000
00000000
00010000
,
01000000
10000000
00100000
00010000
,
00000000
00010000
00001000
00001000
,
00000000
00000100
00000010
00000001
,
00000100
00000000
00000010
00000100
,
00001000
00011000
01000000
00100000
,
00010000
00011000
00100000
00100000
,
01000000
00100000
02000000
03000000
,
00100000
00000000
01000000
00010000
,
00001000
00001100
00000100
00001000
,
00010000
01010000
00100000
00010000
,
00001000
00000100
00000010
00000100
,
00000020
00000030
00000010
00000010
,
00000010
00000000
00001000
00001000
,
00010000
00000000
00010000
10000000
,
00010000
00000000
00100000
00100000
,
00100000
00000000
00010000
00001000
,
00000100
00000000
00000010
00000001
,
00000100
00000000
00001000
00010000
,
00001000
00000000
00010000
00100000
,
00100000
00000000
01100000
00000000
,
00100000
00010000
00001000
00000100
,
00010000
00001000
00000000
00000100
,
00000010
00000001
00000000
00000001
,
00000100
00001000
00010000
01000000
,
00000000
00100000
00010000
01000000
,
00100000
00100000
00000000
01000000
,
00010000
00001000
00000000
00000100
,
00000100
00001000
00000010
00000000
,
00000010
00000001
00000100
00001100
,
00100000
00010000
01000000
11000000
,
00010000
00001000
00001000
00000100
,
00000020
00000030
00000100
00000000
,
00010000
00100000
10000000
10100000
,
00001000
00000010
00000001
00001010
,
00000100
00001000
00010000
00100000
,
02000000
03000000
00100000
00000000
;

//---------------dance-double - ----------------
#NOTES:
     dance-double:
     :
     Medium:
     9:
     0.327169,0.326255,0.068705,0.083973,0.000000,300.000000,291.000000,9.000000,11.000000,0.000000,0.000000,0.327169,0.326255,0.068705,0.083973,0.000000,300.000000,291.000000,9.000000,11.000000,0.000000,0.000000:
00000000
00000000
00000000
00000000
,
00100000
00010000
00001000
00000100
,
00001000
00000000
00000010
00001000
00000010
00000000
00000000
00000000
,
00000100
00000001
00000010
00000100
,
00001000
00000000
00100000
00010000
00100000
00000000
01000000
00000000
,
00000000
00100000
00010000
10000000
,
10000000
00000000
00010000
01000000
00010000
00000000
00001000
00000000
,
00010000
00001000
00000100
00001000
,
00000020
00000000
00000130
00000000
00000001
00000010
00000100
00000000
,
00010000
00001000
00010000
00000100
,
00010000
00000000
00010000
01000000
10000000
00000000
00100000
00000000
,
00010000
00001000
00000010
00000100
,
00001000
00000000
00001000
00000100
00000001
00000000
00000010
00000000
,
00000100
00000000
00001000
00000000
00010000
00001000
00010000
00000000
,
00100000
00010000
00100000
01000000
,
01000000
00000000
00010000
00100000
00001000
00000000
00001000
00000000
,
00000010
00000000
00000100
00000000
00000010
00000010
00000100
00000000
,
00000000
00002000
00013000
00100000
,
00100000
00010000
00000000
01000000
,
10000000
00100000
00010000
00001000
,
00000100
00000000
00000100
00000010
,
00000002
00000103
00000010
00001000
,
00000200
00001300
00010000
01000000
,
10000000
00100000
00010000
00001000
,
00020000
00032000
00023000
00031000
,
00000000
00000000
00100000
00000000
00000000
00100000
00010000
00100000
,
00000000
00010000
00001000
00010000
00000000
00000100
00000000
00001000
,
00000000
00000010
00001000
00000010
00000000
00000100
00000000
00000001
,
00000000
00000100
00000010
00000100
00000000
00001000
00000000
00010000
,
00000000
00100000
00000000
00010000
00000000
00010000
10000000
00100000
,
00000000
00010000
00000100
00001000
00000000
00000100
00000000
00001000
,
00000000
00000010
00001000
00000001
00000000
00000100
00000000
00001000
,
00000000
00000010
00001000
00000010
00000000
00000100
00001000
00000000
,
00010000
00000000
00001000
00000000
00100000
00010000
00001000
00000000
,
00000100
00000000
00001100
00000000
00000100
00001000
00010000
00000000
,
00010000
00000000
00110000
00000000
00010000
10000000
00010000
00000000
,
00100000
00000000
00010000
00000000
01000000
00000000
00000000
00100000
,
02000000
00000000
03000000
00000000
00010000
00001000
00000010
00000000
,
00000100
00000000
00000110
00000000
00001000
00010000
01000000
00000000
,
00100000
00000000
01100000
00000000
00010000
00000000
00001000
00010000
,
00001000
00000000
00000100
00000000
00000010
00000000
00000000
00000100
,
00000020
00000030
00000010
00000010
,
00000010
00000001
00000100
00001000
,
00010000
00000000
00100000
00000000
01000000
00000000
01000000
00010000
,
10000000
00000000
00010000
00000000
00100000
00010000
00001000
00000000
,
00010000
00000000
00000100
00000000
00000100
00001000
00010000
00000000
,
00100000
00000000
00010000
00000000
00100000
00010000
00001000
00000000
,
00000100
00000000
00010000
00000000
00001000
00000000
00001000
00010000
,
00001000
00000100
00001000
00000010
,
00000100
00010000
01100000
00100000
,
00000000
10000000
01000000
00100000
00000000
00100000
00010000
00001000
,
00000000
00010000
00000000
00001000
00000000
00000100
00000001
00000010
,
00000000
00000010
00000000
00000001
00000000
00000100
00000010
00001000
,
00000000
00000100
00000000
00001000
00000000
00010000
00000000
00100000
,
00000000
00010000
10000000
00010000
00000000
00100000
00010000
00100000
,
00000000
00010000
00000000
00001000
00000000
00001000
00000010
00001000
,
00000000
00000010
00000000
00000100
00000000
00000001
00000100
00000001
,
00000000
00000100
00000100
00000000
00000010
00000000
00001000
00000000
,
00000010
00001000
00000100
00000000
00001000
00000000
00011000
00000000
,
00100000
00010000
01000000
00000000
00010000
00000000
00011000
00000000
,
00001000
00000100
00000010
00000001
,
00000010
00000000
00000000
00000010
00000200
00000000
00000300
00000000
,
00000001
00000010
00001000
00000000
00000100
00000000
00001100
00000000
,
00010000
00100000
10000000
00000000
01000000
00000000
11000000
00000000
,
10000000
00000000
01000000
10000000
00010000
00000000
00100000
00000000
,
01000000
00000000
00000000
01000000
00200000
00000000
00300000
00000000
;

//---------------dance-double - ----------------
#NOTES:
     dance-double:
     :
     Hard:
     12:
     0.414414,0.401163,0.167947,0.167947,0.072522,380.000000,358.000000,22.000000,22.000000,0.000000,0.000000,0.414414,0.401163,0.167947,0.167947,0.072522,380.000000,358.000000,22.000000,22.000000,0.000000,0.000000:
00000000
00000000
00000000
00000000
,
00100000
00000000
00010000
00000000
00100000
00000000
00000000
00000000
00001000
00000000
00000000
00010000
00000000
00000000
00000100
00000000
,
00001000
00000000
00000000
00000010
00000000
00000000
00000100
00000000
00000001
00000000
00000000
00000000
00000010
00000000
00000000
00000000
,
00000100
00000000
00000010
00000000
00000001
00000000
00000000
00000000
00001000
00000000
00000000
00000100
00000000
00000000
00010000
00000000
,
00001000
00000000
00000000
00100000
00000000
00000000
00010000
00000000
01000000
00000000
10000000
00000000
00010000
00000000
00000000
00000000
,
00100000
00000000
00010000
00000000
01000000
00000000
00010000
00000000
00100000
00000000
00000000
10000000
00000000
00000000
10000000
00000000
,
00000000
00000000
00100000
00000000
00010000
00000000
01000000
00000000
00100000
00000000
00000000
00010000
00000000
00000000
00010000
00000000
,
00000000
00000000
00001000
00000000
00010000
00000000
00000100
00000000
00000010
00000000
00000000
00000010
00000000
00000000
00000100
00000000
,
00001000
00000000
00000010
00000000
00000100
00000001
00000010
00000000
,
00000100
00000000
00001000
00000000
00000100
00000000
00000000
00000000
00001000
00000000
00000000
00010000
00000000
00000000
01000000
00000000
,
00100000
00000000
00000000
10000000
00000000
00000000
01000000
00000000
00200000
00000000
00000000
00000000
00300000
00000000
00010000
00000000
,
00010000
00000000
00001000
00000000
00000100
00000000
00000010
00000000
00000100
00000000
00000000
00001000
00000000
00000000
00000010
00000000
,
00000100
00000000
00000000
00000001
00000000
00000000
00000010
00000000
00001000
00000000
00000100
00000000
00000010
00000000
00000000
00000000
,
00000010
00000000
00000100
00000000
00001000
00000000
00010000
00000000
00100000
00000000
00000000
00100000
00000000
00000000
01000000
00000000
,
00000000
00000000
00010000
00000000
01000000
00000000
10000000
00000000
00100000
00000000
00000000
01000000
00000000
00000000
01000000
00000000
,
00000000
00001000
00010000
00000100
00001000
00000010
00000100
00000000
,
00000002
00000000
00000013
00000000
00000100
00001000
00010000
00000000
,
00002000
00003100
00000200
00000310
,
00000010
00000000
00000001
00000000
00000000
00001000
00010000
00100000
,
00000000
00010000
00000000
01000000
00000000
10000000
00000000
02000000
,
00000000
00000000
00000000
03000000
00000000
00000000
00000000
00000000
00100000
00000000
00000000
00000000
10000000
00000000
00000000
00000000
,
00010000
00000000
00010000
00001000
00000000
00000100
00001000
00000100
,
00000000
00000001
00000000
00000100
00000000
00000100
00000001
00000020
,
00000000
00000130
00000000
00001000
00000000
00000100
00000000
00002000
,
00000000
00023000
00230000
10300000
,
01100000
00000000
00000010
00000000
00000000
00000100
00001000
00000100
,
00000000
00000010
00000001
00000100
00000000
00002000
00000000
00013000
,
00000000
00100000
01000000
00100000
00000000
01010000
00000000
00110000
,
00000000
00010000
10000000
01000000
00000000
00100000
00000000
00020000
,
00000000
00031000
00000000
00001100
00000000
00000010
00001000
00000100
,
00000000
00000001
00000010
00001000
00000000
00000010
00000000
00001100
,
00000000
00001000
00000010
00000100
00000000
00000011
00000000
00001100
,
00000000
00000100
00001000
00010000
00000000
00100000
00001000
00010000
,
00001000
00000000
00000000
00010000
00000000
00000000
00100000
00000000
00010000
00000000
01000000
00000000
00100000
00000000
00010000
00000000
,
00100000
00000000
00011000
00000100
00001000
00000010
00000100
00001000
,
00000100
00000000
00011000
00000000
00010000
01000000
10000000
00100000
,
01000000
00000000
00000000
01000000
00000000
00000000
00010000
00000000
00200000
00000000
00300000
00000000
00000000
00000000
00010000
00000000
,
02000000
03000000
00100000
00000000
00001000
00000010
00001000
00000001
,
00000100
00000000
00001100
00001000
00010000
01000000
00010000
10000000
,
00100000
00000000
00110000
00000000
01000000
00001000
00010000
00001000
,
00000100
00000000
00000000
00000100
00000000
00000000
00000020
00000000
00001030
00000000
00000000
00000000
00000000
00000000
00000100
00000000
,
00000020
00000030
00000010
00000010
,
00000010
00000000
00001000
00010000
00100000
01000000
00100000
10000000
,
00010000
00000000
10000000
00010000
01000000
00000000
00010000
00010000
,
20000000
00000000
30100000
00000000
00010000
00001000
00000100
00000010
,
00000100
00000000
00001000
00000100
00000010
00000001
00000100
00000010
,
00001000
00000000
00000100
00001000
00010000
00001000
00010000
00100000
,
01000000
00000000
00100000
00010000
00001000
00000000
00000010
00001000
,
00010000
00000000
00001000
00000000
00010000
00001000
00010000
00100000
,
00010000
00000100
00000110
00100000
,
00000000
00010000
00100000
00010000
00000000
00001000
00000100
00000010
,
00000000
00002000
00000000
00013000
00000000
00100000
10000000
01000000
,
00000000
01100000
00000000
00110000
00000000
00100000
00010000
00001000
,
00000000
00000100
00000000
00020000
00000000
00031000
00000000
00001100
,
00000000
00001000
00000010
00000001
00000000
00000100
00001000
00010000
,
00000000
00100000
00000000
00011000
00000000
00010000
00100000
01000000
,
00000000
01010000
00000000
10100000
00000000
01000000
00100000
00010000
,
00000000
00000000
00100000
00000000
00010000
00000000
00001000
00000000
00010000
00000000
00000000
00001000
00000000
00000000
00100000
00000000
,
00010000
00100000
01000000
10000000
01000000
00000000
00110000
00010000
,
00001000
00000100
00000010
00000001
00000010
00000000
00001010
00000000
,
00000100
00000000
00000010
00000000
00000100
00000000
00001000
00000000
00010000
00000000
00000000
00001000
00000000
00000000
00000010
00000000
,
00000200
00000300
00000000
00000001
00000020
00000030
00000000
00000000
,
00000010
00001000
00000010
00000001
00000100
00000000
00011000
00001000
,
00100000
00010000
00100000
10000000
01000000
00000000
00011000
00000000
,
00100000
00000000
00010000
00000000
00100000
00000000
01000000
00000000
00010000
00000000
00000000
00001000
00000000
00000000
00010000
00000000
,
00200000
00000000
00300000
00000000
00000000
00000000
00100000
00000000
02000000
00000000
00000000
03000000
00000000
00000000
00000000
00000000
;
