#VERSION:0.83;
#TITLE:SAKE BOMB;
#SUBTITLE:;
#ARTIST:Ryuko Pegasasu ft. 0P2C;
#TITLETRANSLIT:;
#SUBTITLETRANSLIT:;
#ARTISTTRANSLIT:;
#GENRE:TOUHOU EURO REMIX;
#ORIGIN:;
#CREDIT:;
#BANNER:SAKE BOMB.png;
#BACKGROUND:SAKE BOMB-bg.png;
#PREVIEWVID:;
#JACKET:SAKE BOMB-jacket.png;
#CDIMAGE:;
#DISCIMAGE:;
#LYRICSPATH:SAKE BOMB.lrc;
#CDTITLE:SAKE BOMB-cdtitle.png;
#MUSIC:SAKE BOMB.ogg;
#OFFSET:-0.003361;
#SAMPLESTART:88.937454;
#SAMPLELENGTH:15.620000;
#SELECTABLE:YES;
#BPMS:0.000=143.000;
#STOPS:;
#DELAYS:;
#WARPS:;
#TIMESIGNATURES:0.000=4=4;
#TICKCOUNTS:0.000=4;
#COMBOS:0.000=1;
#SPEEDS:0.000=1.000=0.000=0;
#SCROLLS:0.000=1.000;
#FAKES:;
#LABELS:0.000=Song Start,
8.000=Lead-in,
48.000=Intro,
80.000=A Melo,
144.000=B Melo,
212.000=Sabi,
276.000=Lead-out,
292.000=Song End;
#BGCHANGES:8.000=wires1.avi=1.000=1=0=1===CrossFade==,
24.000=symbols1.avi=1.000=0=0=1=====,
40.000=text8.avi=1.000=0=0=1=====,
48.000=taiqi1.avi=1.000=0=0=1=====,
56.000=taiqi2.avi=1.000=0=0=1=====,
64.000=taiqi3.avi=1.000=0=0=1=====,
72.000=taiqi2.avi=1.000=0=0=1=====,
80.000=blizzard5.avi=1.000=0=0=1=====,
96.000=circle4.avi=1.000=0=0=1=====,
112.000=vortex1.avi=1.000=0=0=1=====,
128.000=beads2.avi=1.000=0=0=1=====,
136.000=taiqi3.avi=1.000=0=0=1=====,
144.000=blizzard6.avi=1.000=0=0=1=====,
152.000=wheel1.avi=1.000=0=0=1=====,
160.000=cards1.avi=1.000=0=0=1=====,
168.000=cards3.avi=1.000=0=0=1=====,
176.000=blizzard4.avi=1.000=0=0=1=====,
184.000=tunnel9.avi=1.000=0=0=1=====,
192.000=circle4.avi=1.000=0=0=1=====,
200.000=tunnel14r.avi=1.000=0=0=1=====,
208.000=taiqi1.avi=1.000=0=0=1=====,
212.000=light6.avi=1.000=0=0=1=====,
228.000=thunder2.avi=1.000=0=0=1=====,
244.000=blinds2.avi=1.000=0=0=1=====,
252.000=colors1.avi=1.000=0=0=1=====,
260.000=tunnel14.avi=1.000=0=0=1=====,
276.000=taiqi1.avi=1.000=0=0=1=====,
284.000=taiqi2.avi=1.000=0=0=1=====,
292.000=SAKE BOMB-bg.png=1.000=0=0=1=====,
99999=-nosongbg-=1.000=0=0=0 // don't automatically add -songbackground-
;
#KEYSOUNDS:;
#ATTACKS:
;

//---------------dance-single - ----------------
#NOTEDATA:;
#CHARTNAME:;
#STEPSTYPE:dance-single;
#DESCRIPTION:;
#CHARTSTYLE:;
#DIFFICULTY:Hard;
#METER:12;
#RADARVALUES:0.594955,0.637965,0.498812,0.356295,0.201900,526.000000,463.000000,63.000000,45.000000,0.000000,0.000000,0.000000,0.000000,0.000000,0.594955,0.637965,0.498812,0.356295,0.201900,526.000000,463.000000,63.000000,45.000000,0.000000,0.000000,0.000000,0.000000,0.000000;
#CREDIT:BlindedVanguard573;
#NOTES:
0000
0000
0000
0000
,
0000
0000
0000
0000
,
1001
0000
0001
0000
0100
0100
0000
1000
,
0000
0100
0000
0010
0000
1000
0001
1000
,
0001
0000
1000
0000
0100
0100
0000
0001
,
0000
0100
0000
0010
0000
0001
1000
0001
,
1001
0000
0001
0000
0100
1000
0000
0001
,
0000
0010
0000
1000
0000
0001
1000
0001
,
1001
0000
1000
0000
0100
0001
0000
1000
,
0000
0010
0000
0001
0000
1000
0001
1000
,
2002
0000
0000
0000
0000
0000
0000
3003
,
1001
0000
0001
0100
0000
0001
0100
0000
0010
1000
0000
0010
1000
0000
0000
0000
,
0102
0000
0000
0000
1003
0100
1000
0100
0010
0000
0001
0000
0000
0000
1000
0000
,
0010
0000
0010
0000
0000
0000
0100
0001
1000
0000
0100
0000
0010
0000
0001
1000
,
0001
0000
0000
0000
1000
0010
1000
0010
0100
0000
0001
0000
0000
0000
1000
0001
,
1000
1000
0001
0100
0010
0100
1000
0100
,
1001
0000
0000
0000
1000
0100
1000
0100
0010
0000
0001
0000
0000
0000
1000
0000
,
0010
0000
0010
0000
0000
0000
0100
0001
1000
0000
0100
0000
0010
0000
0001
1000
,
0001
0000
0000
0000
1000
0010
1000
0010
0100
0000
0001
0000
0000
0000
1000
0001
,
1000
1000
0001
0010
1000
0010
0100
0010
,
1002
0000
1003
0001
0100
1000
0100
0010
,
2000
0000
3100
1000
0002
0000
0103
0001
,
1000
0000
0000
0010
0000
0000
0100
0000
1000
0000
0100
0000
0001
0000
0010
0000
,
0200
0000
0310
0001
0200
0000
0310
1000
,
0002
0000
0003
1000
0100
0001
0100
1000
,
0020
0000
0130
0001
0020
0000
0030
0001
,
1000
0000
0000
0010
0000
0000
0001
0000
1000
0000
0100
0000
0001
0000
0010
0000
,
0200
0000
0310
0010
0001
0001
1000
1000
,
2001
0000
3100
1000
0010
0001
0010
0100
,
0002
0000
0103
0001
2000
0000
3100
1000
,
0001
0000
0000
0100
0000
0000
1000
0000
0100
0000
0000
0010
0000
0000
1000
0000
,
1010
0000
1001
0001
0011
0000
1001
1000
,
1200
0000
1300
0100
0010
0001
1000
0010
,
1010
0000
0101
0000
1002
0000
0103
1000
,
0200
0000
0000
0000
0310
0000
1000
0000
0001
0000
0010
0000
0100
0000
1000
0020
,
0000
0000
0130
0100
0001
0001
1000
1000
,
2001
0000
0000
0100
0000
0000
3001
0000
0002
0000
0000
0100
0000
0000
1003
0000
,
0001
0000
0010
0000
1000
0000
0010
0001
0000
0000
1000
0000
0001
0000
1000
0000
,
0002
0000
0000
0010
0000
0000
1003
0000
2000
0000
0000
0100
0000
0000
3001
0000
,
1000
0000
0001
0000
0100
0000
0001
0020
0000
0000
0030
0000
0011
0000
0001
0000
,
0101
0000
1010
1000
1100
0000
1000
0100
,
0001
0000
0100
0000
1000
0000
0001
2000
0000
0000
3000
0000
0001
0000
0010
0000
,
1000
0000
0000
0000
0001
0000
0100
0000
1000
0000
0010
0000
0100
0000
0001
2000
,
0000
0000
3001
0001
1000
1000
1001
0100
,
1002
0000
0000
0100
0000
0000
1003
0000
2000
0000
0000
0100
0000
0000
3001
0000
,
1000
0000
0010
0000
0001
0000
0010
1000
0000
0000
0001
0000
1000
0000
0001
0000
,
2000
0000
0000
0010
0000
0000
3001
0000
0002
0000
0000
0100
0000
0000
1003
0000
,
0001
0000
1000
0000
0100
0000
1000
0020
0000
0000
0030
0000
1010
0000
1000
0000
,
1100
0000
0011
0001
0101
0000
0001
0100
,
1000
0000
0100
0000
0001
0000
1000
0002
0000
0000
0003
0000
1000
0000
0010
0000
,
0001
0000
0000
0000
1000
0000
0100
0000
0001
0000
0010
0000
0100
0000
1000
0002
,
0000
0000
1003
1000
0001
0001
1001
0100
,
1001
0000
0001
0000
0100
0000
0010
1000
0000
0010
1000
0000
0001
0000
1000
0000
,
1100
0000
0000
0101
0000
0000
1200
0000
0000
0000
0301
0000
0100
0000
1000
0000
,
0001
0100
0010
2000
0001
0000
3010
0000
,
0101
0000
0000
1100
0000
0000
0201
0000
0000
0000
1300
0000
0100
0000
0001
0000
,
1000
0100
0010
0001
2000
0000
3001
0000
,
1010
0000
0000
0101
0000
0000
1020
0000
0000
0000
0031
0000
0010
0000
1000
0000
,
0001
0010
0100
2000
0001
0000
3100
0000
,
0011
0000
0000
1100
0000
0000
0021
0000
0000
0000
1030
0000
0010
0000
0001
0000
,
1000
0010
0110
0100
0101
0001
1001
1000
,
1001
0000
1000
0000
0100
0000
0001
0000
0100
0000
0000
1100
0000
0000
1000
0000
,
0001
0000
0000
0101
0000
0000
0100
0000
0010
0000
0000
0110
0000
0000
0000
0000
,
0010
0000
1000
0000
0001
0000
0010
0000
0100
0000
0000
1100
0000
0000
1000
0000
,
0001
0000
0000
0101
0000
0000
0100
0000
0010
0000
0000
0110
0000
0000
0000
0000
,
0010
1000
0100
0001
1000
0010
0001
0000
,
0100
1000
0001
0010
1000
0001
0010
0100
,
2000
0100
0001
3010
,
1000
0010
0101
0001
1001
1000
1100
0100
,
0210
0000
0010
0000
0001
0301
0000
0100
,
0010
0001
0000
0100
0010
1000
0000
0001
,
2000
0000
0010
0000
0100
3100
0000
1000
,
0010
0010
0101
0101
1100
1100
0110
0110
,
2002
3003
0000
0000
;

//---------------dance-single - ----------------
#NOTEDATA:;
#CHARTNAME:;
#STEPSTYPE:dance-single;
#DESCRIPTION:;
#CHARTSTYLE:;
#DIFFICULTY:Beginner;
#METER:3;
#RADARVALUES:0.176451,0.202989,0.015835,0.071259,0.000000,156.000000,154.000000,2.000000,9.000000,0.000000,0.000000,0.000000,0.000000,0.000000,0.176451,0.202989,0.015835,0.071259,0.000000,156.000000,154.000000,2.000000,9.000000,0.000000,0.000000,0.000000,0.000000,0.000000;
#CREDIT:BlindedVanguard573;
#NOTES:
0000
0000
0000
0000
,
0000
0000
0000
0000
,
1000
0000
0000
0000
,
0000
0000
0000
0000
,
0001
0000
0000
0000
,
0000
0000
0000
0000
,
0010
0000
0000
0000
,
0000
0000
0000
0000
,
0100
0000
0000
0000
,
0000
0000
0000
0000
,
2002
0000
0000
0000
,
3003
0000
0000
0000
,
1000
1000
1000
0000
,
0010
0000
0100
0000
,
0001
0001
0001
0000
,
0100
0000
0010
0000
,
1000
1000
1000
0000
,
0001
0000
1000
0000
,
0100
0100
0100
0000
,
0010
0000
0100
0000
,
1000
0000
0010
0000
,
0100
0000
0001
0000
,
1000
0000
0100
0000
,
0010
0010
0010
0000
,
0100
0000
1000
0000
,
0001
0000
0100
0000
,
0010
0000
0100
0000
,
0001
0001
0001
0000
,
1000
0000
0100
0000
,
0010
0010
0010
0000
,
0100
0000
1000
0000
,
0001
0001
0001
0000
,
0100
0000
0010
0000
,
0100
0100
0100
0000
,
0001
0001
0001
0000
,
1000
1000
1000
0000
,
0001
0000
0010
0000
,
0100
0100
0100
0000
,
1000
0000
0001
0000
,
0010
0010
0010
0000
,
0001
0000
1000
0000
,
0100
0100
0100
0000
,
1000
0000
0010
0000
,
1000
1000
1000
1000
,
1000
0000
0001
0000
,
0100
0100
0100
0000
,
0001
0000
1000
0000
,
0010
0010
0010
0000
,
1000
0000
0001
0000
,
0010
0010
0010
0000
,
0001
0000
1000
0000
,
0100
0100
0100
0100
,
0200
0000
0300
0000
,
0010
0000
0001
0000
,
1000
1000
1000
0000
,
0001
0000
0100
0000
,
0010
0010
0010
0000
,
0100
0000
0001
0000
,
1000
1000
1000
0000
,
0100
0000
0010
0000
,
0100
0100
0100
0000
,
1000
1000
1000
0000
,
0010
0000
0100
0000
,
0001
0001
0001
0000
,
0100
0000
0010
0000
,
1000
1000
1000
0000
,
0001
0001
0001
0000
,
0010
0000
0100
0100
,
0100
0000
0010
0010
,
0020
0000
0030
0000
,
0002
0000
0003
0000
,
0200
0000
0300
0000
,
2000
0000
3000
0000
,
2002
3003
0000
0000
;

//---------------dance-single - ----------------
#NOTEDATA:;
#CHARTNAME:;
#STEPSTYPE:dance-single;
#DESCRIPTION:;
#CHARTSTYLE:;
#DIFFICULTY:Easy;
#METER:6;
#RADARVALUES:0.302002,0.318983,0.110847,0.000000,0.000000,267.000000,253.000000,14.000000,0.000000,0.000000,0.000000,0.000000,0.000000,0.000000,0.302002,0.318983,0.110847,0.000000,0.000000,267.000000,253.000000,14.000000,0.000000,0.000000,0.000000,0.000000,0.000000,0.000000;
#CREDIT:BlindedVanguard573;
#NOTES:
0000
0000
0000
0000
,
0000
0000
0000
0000
,
1001
1001
0000
0000
,
0001
0000
0100
0000
,
0010
1000
0010
1000
,
0001
0100
0010
1000
,
1001
1001
0000
0000
,
0100
0000
0010
0000
,
1000
0100
0001
0100
,
1000
0010
0100
0001
,
1001
1001
0000
0000
,
0001
0010
0100
1000
,
0001
0100
0001
0100
,
1000
0100
1000
0100
,
0010
0100
0010
0100
,
0001
0010
0100
1000
,
0001
0010
0001
0010
,
1000
0010
1000
0010
,
0001
1000
0001
1000
,
0010
0100
0001
1000
,
0001
0000
0010
0001
,
1000
0000
1001
0000
,
1000
0010
0100
0001
,
1000
0100
0010
0001
,
1000
0000
0001
0000
,
0100
0100
0100
0000
,
0010
1000
0100
1000
,
0001
0010
0001
1000
,
1001
0000
0001
0100
,
1000
0000
0100
0000
,
0010
1000
0001
0100
,
0001
0010
0100
1000
,
0001
0000
1000
0010
,
0100
0100
0100
0000
,
0010
1000
0100
0001
,
0100
1000
0001
1000
,
0001
0100
1000
0100
,
0010
0100
0001
0000
,
1000
0100
0001
0100
,
0010
0100
1000
0000
,
0001
0001
1000
1000
,
0010
0100
0010
0000
,
1000
0100
0001
0100
,
1000
1000
0001
0001
,
1000
0010
0001
0010
,
0100
0001
1000
0000
,
0001
0010
1000
0010
,
0100
1000
0001
0000
,
1000
1000
0001
0001
,
0100
0010
0100
0000
,
0001
0010
1000
0010
,
0001
0100
0010
1000
,
1001
1001
0000
0000
,
1000
0100
0001
0100
,
1000
0100
0010
0001
,
1000
0010
0001
0010
,
1000
0010
0100
0001
,
1000
0100
0001
0100
,
1000
0010
0100
0001
,
1000
0010
0001
0010
,
1000
0010
0100
0001
,
1000
0100
0001
0100
,
1000
1000
0001
0001
,
1000
0010
0001
0010
,
1000
1000
0001
0001
,
0010
0100
0010
0010
,
0001
1000
0001
0001
,
1000
0010
0100
1000
,
0100
0001
1000
0001
,
1001
1001
0000
0000
,
0100
0000
0010
0000
,
1000
1000
0001
0001
,
0010
0100
0010
0100
,
1001
1001
0000
0000
;

//---------------dance-single - ----------------
#NOTEDATA:;
#CHARTNAME:;
#STEPSTYPE:dance-single;
#DESCRIPTION:;
#CHARTSTYLE:;
#DIFFICULTY:Medium;
#METER:9;
#RADARVALUES:0.482977,0.463975,0.348377,0.245447,0.023753,427.000000,383.000000,44.000000,31.000000,0.000000,0.000000,0.000000,0.000000,0.000000,0.482977,0.463975,0.348377,0.245447,0.023753,427.000000,383.000000,44.000000,31.000000,0.000000,0.000000,0.000000,0.000000,0.000000;
#CREDIT:BlindedVanguard573;
#NOTES:
0000
0000
0000
0000
,
0000
0000
0000
0000
,
0101
0000
1100
0000
0001
0100
0000
1000
,
0000
0100
0000
0001
0000
1000
0000
0001
,
1000
0000
0010
0000
0001
0010
0000
1000
,
0000
0100
0000
0010
0000
0001
0000
1000
,
0001
0000
1001
0000
0001
0100
0000
1000
,
0000
0100
0000
0010
0000
1000
0000
0001
,
1000
0000
0001
0000
0100
0010
0000
0010
,
0100
0001
1000
0100
1000
0001
0100
0010
,
1001
1001
0000
0000
,
1000
0000
0000
0100
0000
0000
0010
0000
0000
0001
0000
0000
1000
0000
0000
0000
,
0101
0000
1100
0000
1000
0001
0000
1000
,
0010
1000
0000
0001
0010
0001
0000
1000
,
0001
0000
1001
0000
0001
0100
0000
0001
,
1000
0100
0010
0010
0100
0100
0010
0010
,
0100
0000
1001
0000
1000
0010
0000
0001
,
0010
1000
0000
0001
1000
0001
0000
0100
,
0010
0000
1001
0000
1000
0100
0000
0001
,
0100
1000
0001
0001
1000
1000
0001
0001
,
1002
0000
0103
0000
0001
0100
0010
0000
,
2000
3100
0002
0103
,
1000
0010
1000
0000
0001
0010
0001
0000
,
0010
1100
0010
0101
,
2001
0000
3100
0000
1000
0010
0100
0000
,
0002
0003
0010
0000
2000
0000
3010
0000
,
0100
1000
0001
0000
0100
0001
1000
0000
,
0020
0000
0130
0100
0010
0010
0100
0100
,
0010
0000
0101
0000
1000
0100
0001
0000
,
0200
0310
0002
1003
,
0001
0100
0010
0000
0010
0100
0001
0000
,
1000
0100
0010
0000
0010
0100
1000
0000
,
0102
0000
1003
0000
0010
0100
0010
0000
,
1100
0101
2001
3100
,
2000
3010
0002
0103
,
2000
0000
3001
0001
1000
1000
0010
0010
,
0100
1010
0100
0011
,
1000
0010
0100
0010
2000
0000
3001
0000
,
1000
0101
1000
0011
,
1000
0100
0010
0100
2000
0000
3001
0100
,
0001
0000
1000
0100
1000
0000
0001
1000
,
0001
0000
0011
0000
1100
0000
1000
0010
,
0100
0000
1000
0100
0010
0000
1000
0100
,
0010
0000
0001
0001
1000
1000
0100
0100
,
0010
0101
0010
1100
,
0001
0100
0010
0100
0002
0000
1003
0000
,
0001
1010
0001
1100
,
0001
0010
0100
0010
0002
0000
1003
0010
,
1000
0000
0001
0010
0001
0000
1000
0001
,
1000
0000
1100
0000
0011
0000
0001
0100
,
0010
0000
0001
0010
0100
0000
0001
0010
,
0100
0000
1000
1000
0001
0001
0010
0010
,
0100
0000
1001
0000
0000
1000
0001
0000
,
1000
0000
0000
0010
0000
0000
1000
0000
0000
0000
0001
0000
0100
0000
0000
0000
,
0001
0010
1000
0000
1000
0010
0001
0000
,
1000
0000
0000
0100
0000
0000
1000
0000
0000
0000
0001
0000
0010
0000
0000
0000
,
0001
0100
1000
0100
0001
0000
1001
0000
,
1000
0000
0000
0010
0000
0000
0100
0000
0000
0000
0001
0000
0100
0000
0000
0000
,
0010
1000
0100
0000
0010
0001
0100
0000
,
0001
0000
0000
0010
0000
0000
0100
0000
0000
0000
1000
0000
0001
0000
1000
0000
,
0001
0000
0101
0000
1100
0000
1000
0001
,
0000
1000
0010
0100
0001
0000
0101
0000
,
0001
0100
1000
0000
1000
0100
0010
0000
,
1000
0100
0010
0001
1000
0000
1001
0000
,
1000
0010
0001
0000
0001
0010
0100
0000
,
0001
0010
0001
0010
0100
0100
0100
0000
,
1000
0010
1000
0010
0100
0100
0100
0000
,
0001
1000
0001
0000
0100
0010
0100
0000
,
0101
1010
0011
1100
,
1002
0203
0320
2030
,
3002
0023
0230
2300
,
3002
0203
2300
3200
,
0320
0000
1030
1000
0001
0001
0010
0010
,
0110
1001
0000
0000
;

//---------------dance-double - ----------------
#NOTEDATA:;
#CHARTNAME:;
#STEPSTYPE:dance-double;
#DESCRIPTION:;
#CHARTSTYLE:;
#DIFFICULTY:Hard;
#METER:12;
#RADARVALUES:0.570071,0.637965,0.340459,0.348377,0.154394,504.000000,461.000000,43.000000,44.000000,0.000000,0.000000,0.000000,0.000000,0.000000,0.570071,0.637965,0.340459,0.348377,0.154394,504.000000,461.000000,43.000000,44.000000,0.000000,0.000000,0.000000,0.000000,0.000000;
#CREDIT:BlindedVanguard573;
#NOTES:
00000000
00000000
00000000
00000000
,
00000000
00000000
00000000
00000000
,
00011000
00000000
00001000
00000000
00100000
00010000
00000000
01000000
,
00000000
00001000
00000000
00010000
00000000
00000010
00001000
00000001
,
00001001
00000000
00000001
00000000
00000100
00000010
00000000
00010000
,
00000000
00001000
00000000
00100000
00000000
00010000
01000000
00001000
,
00011000
00000000
00010000
00000000
00000010
00001000
00000000
00000100
,
00000000
00010000
00000000
00001000
00000000
00100000
00010000
10000000
,
10010000
00000000
10000000
00000000
01000000
00100000
00000000
00001000
,
00000000
00010000
00000000
00000010
00000000
00001000
00000100
00010000
,
00022000
00033000
00000000
00000000
,
00001000
00100000
00000000
00010000
01000000
00000000
00100000
10000000
00000000
00001000
00010000
00000000
00011000
00000000
00000000
00000000
,
00000011
00000000
00000000
00000000
00000001
00000100
00000001
00000100
00001000
00000000
00010000
00000000
00000000
00000000
01000000
00000000
,
10000000
00000000
10000000
00000000
00000000
00000000
00010000
01000000
00001000
00000000
00100000
00000000
00001000
00000000
00000010
00000001
,
00002000
00000000
00000000
00000000
00003001
00000010
00000001
00000010
00001000
00000000
00010000
00000000
00100000
00000000
01000000
00010000
,
10000000
10000000
01000000
00010000
00001000
00010000
01000000
10000000
,
11000000
00000000
00000000
00000000
10000000
00100000
10000000
00100000
00010000
00000000
00001000
00000000
00000000
00000000
00000010
00000000
,
00000001
00000000
00000001
00000000
00000000
00000000
00001000
00000010
00010000
00000000
00000100
00000000
00010000
00000000
01000000
10000000
,
00020000
00000000
00000000
00000000
10030000
01000000
10000000
01000000
00010000
00000000
00001000
00000000
00000100
00000000
00000010
00001000
,
00000001
00000001
00000010
00001000
00010000
00001000
00000010
00000001
,
00001002
00000000
00000103
00000000
00000001
00000100
00001000
00010000
,
00000020
00000000
00000130
00000100
00000002
00000000
00001003
00000000
,
00000001
00000010
00001000
00000010
00001000
00010000
00100000
01000000
,
00020000
00000000
10030000
01000000
00020000
00000000
00031000
00000100
,
00000002
00000000
00001003
00000000
00000001
00000010
00001000
00000010
,
00000200
00000000
00010300
00001000
02000000
00000000
03100000
00000000
,
10000000
00100000
01000000
10000000
01000000
00001000
00010000
00000100
,
00001000
00000010
00000100
00000100
00000010
00000010
00001000
00000001
,
00001001
00000000
00000000
00000001
00000000
00000000
00000100
00000000
00001000
00000000
00000100
00000000
00000010
00000000
00010000
00000000
,
00001000
00000000
00000000
00100000
00000000
00000000
00010000
00000000
02000000
00000000
00000000
00000000
13000000
00000000
01000000
00000000
,
00001000
00000000
00000000
00010000
00000000
00000000
00000100
00000000
00001000
00000000
00000010
00000000
00000100
00000000
00000001
00000000
,
00000011
00000000
00000010
00000100
00010100
00000000
00001000
01000000
,
02100000
00000000
03010000
00000000
10000000
01000000
00010000
10000000
,
10100000
00110000
00001020
00000031
,
00000100
00000010
00000100
00000010
00010000
00001000
00010000
00001000
,
00100000
00010000
01000000
10000000
01000000
00001000
00010000
00000100
,
00000010
00000000
00000000
00000001
00000000
00000000
00000100
00000000
00001000
00000000
00000000
00000100
00000000
00000000
00000010
00000000
,
00010000
00001000
00000100
00000001
00002000
00000000
00003001
00001000
,
00000001
00000000
00000000
00000100
00000000
00000000
00001000
00000000
00010000
00000000
00000000
01000000
00000000
00000000
10000000
00000000
,
00010000
01000000
10000000
01000000
00002000
00000000
00013000
00000100
,
00001000
00000000
00000010
00010000
00001000
00000000
00100000
00010000
,
01000000
10000000
01000000
00001000
00200000
00000000
00310000
10000000
,
01000000
00000000
00010000
00001000
00000100
00000010
00001000
00000001
,
00000020
00000000
00000130
00000100
00010000
00010000
00001000
00100000
,
01000000
00000000
00000000
10000000
00000000
00000000
00100000
00000000
00010000
00000000
00000000
00100000
00000000
00000000
01000000
00000000
,
00001000
00010000
00100000
10000000
00020000
00000000
10030000
00010000
,
10000000
00000000
00000000
00100000
00000000
00000000
00010000
00000000
00001000
00000000
00000000
00000010
00000000
00000000
00000001
00000000
,
00001000
00000010
00000001
00000010
00020000
00000000
00031000
00100000
,
00010000
00000000
01000000
00001000
00010000
00000000
00000100
00001000
,
00000010
00000001
00000010
00010000
00000200
00000000
00001300
00000001
,
00000010
00000000
00001000
00010000
00100000
01000000
00010000
10000000
,
02000000
00000000
03100000
00100000
00001000
00001000
00010000
00000100
,
00000110
00000000
00001001
00000000
00000000
00000001
00001000
00000000
,
00000001
00000000
00000000
00000100
00000000
00000000
00001010
00000000
00000000
00000000
00001000
00000000
00000010
00000000
00000001
00000000
,
00000010
00010000
00001000
00200000
00010000
00000000
01000000
00000000
,
00310000
00000000
00000000
01000000
00000000
00000000
00110000
00000000
00000000
00000000
00010000
00000000
00100000
00000000
10000000
00000000
,
00100000
00001000
00010000
00000020
00001000
00000000
00000130
00000000
,
00000001
00000000
00000000
00000101
00000000
00000000
00001010
00000000
00000000
00000000
00001000
00000000
00000100
00000000
00000010
00000000
,
00001000
00010000
00100000
02000000
00010000
00000000
10000000
00000000
,
03010000
00000000
00000000
01010000
00000000
00000000
10100000
00000000
00000000
00000000
10000000
00000000
01000000
00000000
00010000
00000000
,
00001000
00010000
01000000
10000000
00100000
00010000
00001000
00000010
,
00000011
00000000
00000001
00000000
00000100
00000000
00000001
00000000
00001000
00000000
00000000
00001100
00000000
00000000
00000100
00000000
,
00010000
00000000
00000000
00011000
00000000
00000000
00001000
00000000
01000000
00000000
00000000
01010000
00000000
00000000
00000000
00000000
,
00010000
00000000
01000000
00000000
10000000
00000000
01000000
00000000
00001000
00000000
00000000
00011000
00000000
00000000
00010000
00000000
,
00000100
00000000
00000000
00001100
00000000
00000000
00001000
00000000
00000010
00000000
00000000
00001001
00000000
00000000
00000000
00000000
,
00000001
00000010
00001000
00000010
00000100
00010000
00001000
00000000
,
00100000
00010000
01000000
10000000
01000000
00001000
00010000
00000100
,
00000020
00000001
00001000
00000031
,
00000010
00000001
00000101
00000100
00001100
00001000
00011000
00010000
,
02010000
00000000
23000000
00000000
30200000
02300000
00000000
03020000
,
20030000
32000000
00000000
03020000
00032000
00003200
00000310
00001000
,
00001002
00000000
00000023
00000000
00002030
00023000
00000000
00230000
,
01300000
00010000
01010000
01010000
00011000
00011000
00001100
00001100
,
00002002
00003003
00000000
00000000
;

//---------------para-single - ----------------
#NOTEDATA:;
#CHARTNAME:Freestyle [Hard];
#STEPSTYPE:para-single;
#DESCRIPTION:;
#CHARTSTYLE:;
#DIFFICULTY:Hard;
#METER:5;
#RADARVALUES:0.404932,0.488767,0.506730,0.110847,0.071259,358.000000,294.000000,64.000000,14.000000,0.000000,0.000000,0.000000,0.000000,0.000000,0.404932,0.488767,0.506730,0.110847,0.071259,358.000000,294.000000,64.000000,14.000000,0.000000,0.000000,0.000000,0.000000,0.000000;
#CREDIT:Riakodoadm;
#NOTES:
00000
00000
00000
00000
,
00000
00000
00000
00000
,
01000
00000
00100
00000
00010
00000
00000
00101
,
00000
00101
00000
00101
00000
00000
00000
00000
,
00010
00000
00100
00000
01000
00000
00000
10100
,
00000
10100
00000
10100
00000
00000
00000
00000
,
01000
00000
00100
00000
00010
00000
00000
00101
,
00000
00101
00000
00101
00000
00000
00000
00000
,
00010
00000
00100
00000
01000
00000
00000
10100
,
00000
10100
00000
10100
00000
00000
00000
00000
,
10001
00100
00000
00000
,
00100
00100
00100
00100
,
00010
00000
01000
00000
00010
01000
00000
00100
,
00000
00010
00000
00001
00000
10010
00000
00000
,
10000
00000
00100
00000
10000
00100
00000
00010
,
00000
01000
00000
10001
00000
01010
00000
00000
,
01000
00000
00010
00000
01000
00010
00000
00100
,
00000
01000
00000
10000
00000
01001
00000
00000
,
00001
00000
00100
00000
00001
00100
00000
01000
,
00000
00010
00000
10001
00000
01010
00000
00000
,
00100
00000
00000
00000
00100
00000
01000
00100
,
00010
00000
00001
00000
00010
00001
10000
00000
,
01000
00000
00100
00000
01000
10000
01000
00000
,
00100
00000
00010
00001
00010
00000
00100
00000
,
01010
00000
00100
00001
,
10000
00000
00100
01000
10000
00000
00100
00010
,
00001
00000
00010
00000
01000
00000
00100
00100
,
00100
00000
10000
00000
01000
00000
00100
00100
,
00100
00000
00000
00000
00100
00000
00010
00100
,
01000
00000
10000
00000
01000
10000
00001
00000
,
00010
00000
00100
00000
00010
00001
00010
00000
,
00100
00000
01000
10000
01000
00000
00100
00000
,
01010
00000
00000
00000
01000
00100
00010
00000
,
00101
00000
01010
00000
10100
00000
01000
00100
,
00010
00000
01000
00000
00010
00000
00100
00100
,
00100
00000
00001
00000
00010
00000
00100
00100
,
10000
01000
00100
00010
00001
00000
00100
00000
,
00010
00000
00000
00000
01000
00000
00000
10100
00000
00000
00000
00000
00001
00000
00000
00000
,
00001
00010
00100
01000
10000
00000
00100
00000
,
01000
00000
00000
00000
00010
00000
00000
00101
00000
00000
00000
00000
10000
00000
00000
00000
,
10100
00001
00101
10000
,
10100
00001
00101
00000
,
00010
00100
01000
00000
01000
00100
00010
00000
,
20002
00000
30003
00100
,
10000
00000
00000
01000
00000
00000
00100
00000
00001
00000
00000
00010
00000
00000
00100
00000
,
01000
00000
00000
00010
00000
00000
01000
00000
10000
00000
00000
00000
00100
00000
00000
00000
,
00001
00000
00000
00010
00000
00000
00100
00000
10000
00000
00000
01000
00000
00000
00100
00000
,
00010
00000
00000
00000
01000
00000
00000
00001
00000
00000
00000
00000
00001
00000
00000
00000
,
00101
10000
10100
00001
,
00101
10000
10100
00000
,
01000
00100
00010
00000
00010
00100
01000
00000
,
20002
00000
30003
00100
,
10001
10001
00000
00000
,
01000
00000
00000
01000
00000
00000
02000
00000
00000
00000
03100
00000
00000
00000
00000
00000
,
10100
00000
01010
00202
00000
00303
00000
00000
,
00010
00000
00000
00010
00000
00000
00020
00000
00000
00000
00130
00000
00000
00000
00000
00000
,
00101
00000
01010
20200
00000
30300
00000
00000
,
01000
00000
00000
01000
00000
00000
02000
00000
00000
00000
03100
00000
00000
00000
00000
00000
,
10100
00000
01010
00202
00000
00303
00000
00000
,
00010
00000
00000
00010
00000
00000
00020
00000
00000
00000
00130
00000
00000
00000
00000
00000
,
00101
01010
10100
01010
,
10001
00000
00000
00000
00100
00000
00000
00000
01000
00000
00000
00100
00000
00000
00010
00000
,
00001
00000
00000
01000
00000
00000
10000
00000
00010
00000
00000
00001
00000
00000
00000
00000
,
10001
00000
00000
00000
00100
00000
00000
00000
00010
00000
00000
00100
00000
00000
01000
00000
,
10000
00000
00000
00010
00000
00000
00001
00000
01000
00000
00000
10000
00000
00000
00000
00000
,
00001
00000
00010
00000
00100
01000
10000
00000
,
10000
00000
01000
00000
00100
00010
00001
00000
,
01010
10100
01010
00101
,
01010
10001
01010
10001
,
00010
00000
01000
00000
00010
01000
00000
00100
,
00000
00010
00000
00001
00000
10010
00000
00000
,
10000
00000
00100
00000
10000
00100
00000
00010
,
00000
01000
00000
10001
00000
01010
00000
00000
;

//---------------para-single - ----------------
#NOTEDATA:;
#CHARTNAME:Freestyle [Normal];
#STEPSTYPE:para-single;
#DESCRIPTION:;
#CHARTSTYLE:;
#DIFFICULTY:Medium;
#METER:2;
#RADARVALUES:0.233005,0.287015,0.118765,0.213777,0.000000,206.000000,191.000000,15.000000,27.000000,0.000000,0.000000,0.000000,0.000000,0.000000,0.233005,0.287015,0.118765,0.213777,0.000000,206.000000,191.000000,15.000000,27.000000,0.000000,0.000000,0.000000,0.000000,0.000000;
#CREDIT:Riakodoadm;
#NOTES:
00000
00000
00000
00000
,
00000
00000
00000
00000
,
00200
00300
00200
00300
,
00020
00030
00020
00030
,
00002
00003
00002
00003
,
02000
03000
02000
03000
,
00200
00300
00200
00300
,
02000
03000
02000
03000
,
20000
30000
20000
30000
,
00020
00030
00020
00030
,
10001
10001
00000
00000
,
00200
00000
00000
00300
,
00010
01000
00010
00000
,
01000
00010
00010
01000
,
00010
01000
00010
00000
,
00100
00010
00001
00000
,
01000
00010
01000
00000
,
00010
01000
01000
00010
,
01000
00010
01000
00000
,
00100
01000
10000
00000
,
01000
00100
00010
00000
,
00010
00100
01000
00000
,
00020
01030
00100
00000
,
02000
03010
00100
00000
,
01000
00100
00010
00000
,
00010
00100
01000
00000
,
00020
01030
00100
00000
,
02000
03010
00100
00000
,
01000
00100
00010
00000
,
00010
00100
01000
00000
,
00020
01030
00100
00000
,
02000
03010
00100
00000
,
00010
00100
01000
00000
,
01000
00100
00010
00000
,
02000
03010
00100
00000
,
00020
01030
00100
00000
,
00001
00010
00100
00000
,
10000
01000
00100
00000
,
00010
00100
01000
00000
,
01000
00100
00010
00000
,
10001
00000
10001
00000
,
01010
00000
01010
00000
,
10000
00000
00001
00000
,
01000
00010
00100
00000
,
10000
01000
00100
00000
,
00001
00010
00100
00000
,
01000
00100
00010
00000
,
00010
00100
01000
00000
,
10001
00000
10001
00000
,
01010
00000
01010
00000
,
00001
00000
10000
00000
,
00010
01000
00100
00000
,
10001
00000
00000
00000
,
00010
00000
00000
00010
00000
00000
00000
00000
,
00001
00010
00100
00000
,
01000
00000
00000
01000
00000
00000
00000
00000
,
10000
01000
00100
00000
,
00010
00000
00000
00010
00000
00000
00000
00000
,
00001
00010
00100
00000
,
01000
00000
00000
01000
00000
00000
00000
00000
,
10000
01000
00100
00000
,
00100
00100
00010
01000
,
10001
00000
10001
00000
,
00100
00100
01000
00010
,
10001
00000
10001
00000
,
10000
01000
00100
00010
,
00001
00010
00100
01000
,
20000
00000
00000
30000
,
00002
00000
00000
00003
,
00010
01000
00010
00000
,
01000
00010
00010
01000
,
00010
01000
00010
00000
,
00100
00010
00001
00000
;

//---------------dance-double - ----------------
#NOTEDATA:;
#CHARTNAME:;
#STEPSTYPE:dance-double;
#DESCRIPTION:;
#CHARTSTYLE:;
#DIFFICULTY:Easy;
#METER:6;
#RADARVALUES:0.295215,0.289984,0.031671,0.071259,0.000000,261.000000,257.000000,4.000000,9.000000,0.000000,0.000000,0.000000,0.000000,0.000000,0.295215,0.289984,0.031671,0.071259,0.000000,261.000000,257.000000,4.000000,9.000000,0.000000,0.000000,0.000000,0.000000,0.000000;
#CREDIT:BlindedVanguard573;
#NOTES:
00000000
00000000
00000000
00000000
,
00000000
00000000
00000000
00000000
,
00001000
00010000
00001000
00200000
,
00310000
01000000
00100000
10000000
,
00010000
10000000
00010000
10000000
,
00100000
01000000
00001000
00010000
,
00000100
00001000
00000100
00010000
,
00001000
00100000
00010000
01000000
,
00100000
01000000
00100000
01000000
,
00010000
00100000
00001000
00010000
,
00022000
00000000
00000000
00033000
,
00001000
00100000
00010000
10000000
,
00010000
01000000
00001000
00001000
,
00010000
00010000
00000100
00001000
,
00000010
00000100
00000001
00000001
,
00001000
00001000
00000100
00010000
,
00001000
00100000
00010000
00010000
,
01000000
01000000
00100000
10000000
,
00010000
01000000
00001000
00001000
,
00010000
00010000
00000100
00001000
,
00000001
00000000
00000100
00000010
,
00001000
00000000
00000001
00000000
,
00001000
00000100
00000001
00000100
,
00010000
00001000
00100000
00010000
,
10000000
00000000
00010000
01000000
,
00100000
00100000
01000000
00000000
,
00010000
00100000
10000000
00100000
,
00010000
01000000
00100000
10000000
,
10000000
00000000
00100000
01000000
,
00010000
00000000
10000000
00000000
,
00010000
00100000
10000000
00100000
,
00001000
00010000
00000100
00001000
,
00000001
00000000
00001000
00000010
,
00000100
00000100
00000010
00000000
,
00001000
00000100
00000001
00000100
,
00001000
00000010
00000100
00000001
,
00001000
00000100
00000001
00000100
,
00010000
00001000
00100000
00000000
,
00010000
01000000
10000000
01000000
,
00001000
00010000
00000100
00000000
,
00000010
00000010
00000100
00000100
,
00001000
00000001
00001000
00000000
,
00000001
00000100
00001000
00010000
,
00001000
00000100
00000010
00001000
,
00000001
00000010
00001000
00010000
,
00001000
00000010
00000001
00000000
,
00000001
00000100
00001000
00010000
,
01000000
00010000
00001000
00000000
,
00000010
00000010
00000001
00000001
,
00001000
00000100
00010000
00000000
,
00001000
00001000
00100000
00100000
,
00010000
01000000
00100000
10000000
,
00010000
10010000
00000000
00000000
,
10000000
01000000
00010000
01000000
,
10000000
00001000
00010000
00000000
,
00000100
00001000
00000010
00000100
,
00000001
00001000
00001001
00000000
,
00000001
00000010
00001000
00000010
,
00000001
00010000
00001000
00000000
,
00100000
00010000
01000000
00100000
,
10000000
00010000
10000000
00010000
,
10000000
01000000
00010000
00010000
,
01000000
01000000
00100000
00100000
,
00001000
00010000
00000100
00000100
,
00000010
00000010
00000001
00000001
,
00001000
00000010
00001000
00000010
,
00000100
00001000
00000100
00001000
,
00010000
00100000
01000000
00001000
,
00010000
00000100
00001000
00000010
,
00000200
00000300
00000020
00000030
,
00001000
00000100
00000001
00000100
,
00000020
00000030
00000200
00000300
,
00010000
00001000
00100000
00010000
,
20020000
30030000
00000000
00000000
;

//---------------dance-double - ----------------
#NOTEDATA:;
#CHARTNAME:;
#STEPSTYPE:dance-double;
#DESCRIPTION:;
#CHARTSTYLE:;
#DIFFICULTY:Medium;
#METER:10;
#RADARVALUES:0.458093,0.463975,0.308789,0.261283,0.023753,405.000000,366.000000,39.000000,33.000000,0.000000,0.000000,0.000000,0.000000,0.000000,0.458093,0.463975,0.308789,0.261283,0.023753,405.000000,366.000000,39.000000,33.000000,0.000000,0.000000,0.000000,0.000000,0.000000;
#CREDIT:BlindedVanguard573;
#NOTES:
00000000
00000000
00000000
00000000
,
00000000
00000000
00000000
00000000
,
00011000
00000000
00001000
00000000
00100000
00010000
00000000
01000000
,
00000000
00001000
00000000
00010000
00000000
00000100
00000000
00001000
,
00000010
00000000
00000100
00000000
00000001
00000100
00000000
00001000
,
00000000
00000100
00000000
00000010
00000000
00010000
00000000
00001000
,
00010000
00000000
00001000
00000000
00100000
00010000
00000000
01000000
,
00000000
00100000
00000000
10000000
00000000
00010000
00000000
01000000
,
00001000
00000000
00010000
00000000
00000100
00001000
00000000
00000010
,
00000000
00000100
00000000
00000001
00000000
00001000
00000000
00000001
,
00002002
00003003
00000000
00000000
,
00000001
00000000
00000000
00000100
00000000
00000000
00000010
00000000
00000000
00001000
00000000
00000000
00000001
00000000
00000000
00000000
,
00000101
00000000
00001100
00000000
00000001
00000100
00000000
00001000
,
00000100
00000010
00000000
00010000
00001000
00010000
00000000
00001000
,
00100000
00000000
00110000
00000000
00010000
01000000
00000000
00100000
,
10000000
00010000
00100000
00000000
01000000
00000000
10000000
00000000
,
10100000
00000000
00110000
00000000
10000000
00100000
00000000
00010000
,
00100000
01000000
00000000
00001000
00010000
00001000
00000000
00010000
,
00000100
00000000
00001100
00000000
00001000
00000010
00000000
00000100
,
00000001
00001000
00000100
00000000
00000010
00000000
00000001
00000000
,
00001000
00000000
00000010
00000000
00000100
00000001
00001000
00000000
,
00000200
00010300
00002000
00103000
,
00010000
01000000
10000000
00000000
10000000
01000000
00100000
00000000
,
10100000
01010000
00110000
11000000
,
20000000
00000000
30100000
00000000
00010000
00100000
01000000
00000000
,
00002000
00013000
00000200
00001300
,
00000010
00000100
00000010
00000000
00001000
00000001
00001000
00000000
,
00000011
00001100
00000101
00001010
,
00001000
00000000
00000100
00000000
00000010
00000001
00001000
00000000
,
00000020
00010030
00002000
01003000
,
00010000
00100000
10000000
00000000
10000000
00100000
01000000
00000000
,
11000000
00110000
01010000
10100000
,
20000000
00000000
31000000
00000000
00010000
01000000
00100000
00000000
,
00002000
00013000
00000020
00001030
,
00000100
00000010
00000100
00000000
00001000
00000001
00001000
00000000
,
00000101
00001010
00000011
00001100
,
00000001
00000100
00001000
00000000
00001000
00000100
00000010
00000000
,
00001010
00001100
00020100
00031000
,
00100000
00010000
01000000
00000000
00100000
10000000
01000000
00000000
,
11000000
00110000
20010000
31000000
,
10000000
00100000
00010000
00000000
00010000
00100000
01000000
00000000
,
00001000
00010000
00001000
00010000
00000200
00000000
00001300
00000000
,
00000010
00000100
00000010
00000000
00001000
00000001
00001000
00000000
,
00000001
00000010
00000100
00000010
00001000
00000010
00000001
00001000
,
00000001
00000010
00001000
00000000
00001000
00000010
00000100
00000000
,
00001100
00001010
00020010
00031000
,
01000000
00010000
00100000
00000000
01000000
10000000
00100000
00000000
,
10100000
01010000
20010000
30100000
,
10000000
01000000
00010000
00000000
00010000
01000000
00100000
00000000
,
00001000
00010000
00001000
00010000
00000020
00000000
00001030
00000000
,
00000100
00000010
00000100
00000000
00001000
00000001
00001000
00000000
,
00000001
00000100
00000010
00000100
00001000
00000100
00000001
00001000
,
00001001
00001001
00000000
00000000
,
00000001
00000000
00000000
00000100
00000000
00000000
00001000
00000000
00000000
00000000
00000000
00000000
00000100
00000000
00000000
00000000
,
00000010
00001000
00000100
00000000
00010000
00001000
00100000
00000000
,
00010000
00000000
00000000
01000000
00000000
00000000
00100000
00000000
00000000
00000000
00000000
00000000
01000000
00000000
00000000
00000000
,
00010000
00100000
10000000
00100000
00020000
00000000
10030000
00000000
,
10000000
00000000
00000000
01000000
00000000
00000000
00010000
00000000
00000000
00000000
00000000
00000000
01000000
00000000
00000000
00000000
,
00100000
00010000
01000000
00000000
00001000
00010000
00000010
00000000
,
00001000
00000000
00000000
00000100
00000000
00000000
00000010
00000000
00000000
00000000
00000000
00000000
00000100
00000000
00000000
00000000
,
00001000
00000010
00000001
00000010
00002000
00000000
00003001
00000000
,
00001000
00000100
00001000
00000100
00000010
00000000
00001000
00000010
,
00000001
00000000
00001000
00000010
00000200
00000000
00000301
00000000
,
00001000
00000100
00001000
00000100
00010000
00000000
00100000
00010000
,
01000000
00000000
00100000
10000000
02000000
00000000
03100000
00000000
,
01000000
10000000
01000000
10000000
00100000
10000000
00100000
00000000
,
01000000
00010000
01000000
00010000
00100000
00010000
00100000
00010000
,
20000000
00100000
00010000
31000000
,
10000000
01000000
00010000
00000000
10000000
00100000
00010000
00001000
,
00000200
00000320
00000032
00002003
,
00003010
00000100
00000001
00000000
00000010
00000100
00001000
00000000
,
00000002
00000203
00002300
00023000
,
01030000
10000000
00010000
01000000
00100000
10000000
00010000
00000000
,
20020000
30030000
00000000
00000000
;

//---------------para-single - ----------------
#NOTEDATA:;
#CHARTNAME:Freestyle [Expert];
#STEPSTYPE:para-single;
#DESCRIPTION:;
#CHARTSTYLE:;
#DIFFICULTY:Challenge;
#METER:8;
#RADARVALUES:0.687705,0.840954,0.498812,0.015835,0.324624,608.000000,545.000000,63.000000,2.000000,0.000000,0.000000,0.000000,0.000000,0.000000,0.687705,0.840954,0.498812,0.015835,0.324624,608.000000,545.000000,63.000000,2.000000,0.000000,0.000000,0.000000,0.000000,0.000000;
#CREDIT:BlindedVanguard573;
#NOTES:
// measure 0
00000
00000
00000
00000
,  // measure 1
00000
00000
00000
00000
,  // measure 2
00010
00000
01000
00000
00100
00100
00000
01010
,  // measure 3
00000
10001
00000
01010
00000
00010
01000
00001
,  // measure 4
10000
01000
00100
00000
00001
00010
00100
00000
,  // measure 5
00010
01000
00100
00010
00001
00100
01000
10000
,  // measure 6
01000
00000
00010
00000
00100
00100
00000
01010
,  // measure 7
00000
10001
00000
01010
00000
01000
00010
10000
,  // measure 8
00001
00010
00100
00000
10000
01000
00100
00000
,  // measure 9
01000
00010
00100
01000
10000
00100
00010
00001
,  // measure 10
10001
01010
00100
00000
00000
00000
00000
00000
,  // measure 11
00010
01000
00000
00100
10000
00000
00010
01000
00000
00001
00100
00010
01000
00000
00000
00000
,  // measure 12
00100
00000
01010
00000
10000
01000
00100
00001
00010
00000
00100
00000
00010
00000
00001
00000
,  // measure 13
10000
00000
00010
00000
01000
00000
00100
00010
00001
00000
00100
00000
00010
00000
10000
01000
,  // measure 14
00100
00000
01010
00000
00001
00010
00100
10000
01000
00000
00100
00000
01000
00000
10000
00000
,  // measure 15
00001
00000
01000
00000
00010
00000
00100
01000
10000
00000
00100
00000
01000
00000
00001
00010
,  // measure 16
00100
00000
01010
00000
10000
01000
00100
00001
00010
00000
00100
00000
00010
00000
00001
00000
,  // measure 17
10000
00000
00010
00000
01000
00000
00100
00010
00001
00000
00100
00000
00010
00000
10000
01000
,  // measure 18
00100
00000
01010
00000
00001
00010
00100
10000
01000
00000
00100
00000
01000
00000
10000
00000
,  // measure 19
00001
00000
01000
00000
00010
00000
00100
01000
10000
00000
00100
00000
01000
00000
00001
00010
,  // measure 20
00100
00001
00100
00001
,  // measure 21
00100
10000
00100
10000
,  // measure 22
00100
00010
00001
00000
00100
00010
01000
00000
,  // measure 23
00100
01000
10000
00000
01000
00010
00100
01010
,  // measure 24
10001
00000
01010
00000
00100
00001
00010
00000
,  // measure 25
00001
00010
00100
01000
10000
00000
00000
00000
10000
01000
00100
00010
00001
00000
00000
00000
,  // measure 26
10000
00100
01000
00010
00100
00001
00100
00010
,  // measure 27
01000
00000
00100
00000
01010
00000
10001
00000
01010
00000
00100
00000
01010
00000
00100
01010
,  // measure 28
10001
00001
00100
00001
,  // measure 29
00100
10000
00100
10000
,  // measure 30
00100
00010
00001
00000
00100
00010
01000
00000
,  // measure 31
00100
01000
10000
00000
01000
00010
00100
01010
,  // measure 32
10001
00000
01010
00000
00100
00001
00010
00000
,  // measure 33
00001
00010
00100
01000
10000
00000
00000
00000
10000
01000
00100
00010
00001
00000
00000
00000
,  // measure 34
10000
00100
01000
00010
00100
00001
00100
00010
,  // measure 35
01000
00000
00100
00000
01010
00000
10001
00000
01010
00000
00100
00000
01010
00000
00100
01010
,  // measure 36
10001
00000
00000
00100
00000
00000
01000
00000
00010
00000
00000
00100
00000
00000
00001
00000
,  // measure 37
10000
00000
00010
00000
01000
00000
00100
00010
00001
00000
01000
00000
00010
00000
00100
01010
,  // measure 38
10001
00000
00000
00100
00000
00000
00010
00000
01000
00000
00000
00100
00000
00000
10000
00000
,  // measure 39
00001
00000
01000
00000
00010
00000
00100
01000
10000
00000
00010
00000
01000
00000
00100
00000
,  // measure 40
00101
00000
01000
00100
10010
00000
10000
01000
,  // measure 41
00100
00000
00001
00000
00010
00000
00100
01000
10000
00000
00000
00000
00010
00000
01000
00000
,  // measure 42
00001
00100
00010
01000
00100
10000
00010
01000
,  // measure 43
00100
00000
01010
00000
10001
00000
01010
00000
00100
00010
00001
00100
01000
10000
00001
00000
,  // measure 44
10001
00000
00000
00100
00000
00000
00010
00000
01000
00000
00000
00100
00000
00000
10000
00000
,  // measure 45
00001
00000
01000
00000
00010
00000
00100
01000
10000
00000
00010
00000
01000
00000
00100
01010
,  // measure 46
10001
00000
00000
00100
00000
00000
01000
00000
00010
00000
00000
00100
00000
00000
00001
00000
,  // measure 47
10000
00000
00010
00000
01000
00000
00100
00010
00001
00000
01000
00000
00010
00000
00100
00000
,  // measure 48
10100
00000
00010
00100
01001
00000
00001
00010
,  // measure 49
00100
00000
10000
00000
01000
00000
00100
00010
00001
00000
00000
00000
01000
00000
00010
00000
,  // measure 50
10000
00100
01000
00010
00100
00001
01000
00010
,  // measure 51
00100
00000
01010
00000
10001
00000
01010
00000
00100
01000
10000
00100
00010
00001
10000
00000
,  // measure 52
00100
00000
01010
00000
10001
00000
00010
01000
00000
00100
01010
00000
10001
00000
01010
00000
,  // measure 53
00100
00010
00001
00100
01000
10000
00001
00010
,  // measure 54
00100
01000
10000
01000
00100
00010
00001
00000
,  // measure 55
00100
01000
10000
00100
00010
00001
10000
01000
,  // measure 56
00100
00010
00001
00010
00100
01000
10000
00000
,  // measure 57
00100
00001
00010
00100
00010
00001
00100
00010
,  // measure 58
01000
00100
10000
00100
00010
00001
10000
00000
,  // measure 59
00100
10000
01000
00100
01000
10000
00100
01000
,  // measure 60
00010
00100
00001
00100
01000
10000
00001
10000
,  // measure 61
00100
00010
00001
00000
01000
00000
00010
00000
00100
00000
00000
00101
00000
00000
00100
00000
,  // measure 62
00010
00000
00000
01010
00000
00000
01000
00000
00100
00000
00000
10100
00000
00000
00000
00000
,  // measure 63
00100
01000
10000
00000
00010
00000
01000
00000
00100
00000
00000
10100
00000
00000
00100
00000
,  // measure 64
01000
00000
00000
01010
00000
00000
00010
00000
00100
00000
00000
00101
00000
00000
00000
00000
,  // measure 65
00001
00010
00100
01000
10000
00000
00010
00000
01000
00000
00100
00000
01010
00000
00000
00000
,  // measure 66
10000
01000
00100
00010
00001
00000
01000
00000
00010
00000
00100
00000
01010
00000
10001
01010
,  // measure 67
00200
00000
00000
00300
,  // measure 68
00100
00010
00001
01000
00010
10000
00100
01000
10000
00100
01000
00010
00100
00010
00001
01000
,  // measure 69
00100
00000
00000
00000
01000
00010
00100
00001
00010
00000
00100
00000
01000
00000
10000
00000
,  // measure 70
00001
00000
01000
00000
00010
00000
00100
01000
10000
00000
00010
00000
01000
00000
00100
00010
,  // measure 71
00001
00000
00000
00000
10000
01000
00100
00010
00001
00000
10000
00000
00010
00000
01000
00000
,  // measure 72
00001
00100
00010
01000
00100
01010
10001
01010
,  // measure 73
00200
00300
00000
00000
;
