#VERSION:0.83;
#TITLE:Rings of Saturn;
#SUBTITLE:;
#ARTIST:BVG with Stevie Handbrake;
#TITLETRANSLIT:;
#SUBTITLETRANSLIT:;
#ARTISTTRANSLIT:;
#GENRE:STELLAR EUROBEAT;
#ORIGIN:;
#CREDIT:;
#BANNER:Rings of Saturn.png;
#BACKGROUND:Rings of Saturn-bg.png;
#PREVIEWVID:;
#JACKET:Rings of Saturn-jacket.png;
#CDIMAGE:;
#DISCIMAGE:;
#LYRICSPATH:Rings of Saturn.lrc;
#CDTITLE:Rings of Saturn-cdtitle.png;
#MUSIC:Rings of Saturn.ogg;
#OFFSET:-0.005116;
#SAMPLESTART:52.517761;
#SAMPLELENGTH:15.620000;
#SELECTABLE:YES;
#BPMS:0.000=160.000;
#STOPS:;
#DELAYS:;
#WARPS:;
#TIMESIGNATURES:0.000=4=4;
#TICKCOUNTS:0.000=4;
#COMBOS:0.000=1;
#SPEEDS:0.000=1.000=0.000=0;
#SCROLLS:0.000=1.000;
#FAKES:;
#LABELS:0.000=Song Start,
40.000=Intro 1,
72.000=A Melo,
104.000=B Melo,
140.000=Sabi 1,
172.000=Sabi 2,
208.000=Intro 2,
240.000=Intro 3,
272.000=Lead-out,
276.000=Song End;
#BGCHANGES:16.000=tunnel6.avi=1.000=0=0=1=====,
24.000=circle1.avi=1.000=0=0=1=====,
32.000=tunnel9.avi=1.000=0=0=1=====,
40.000=ring13.avi=1.000=0=0=1=====,
56.000=ring1.avi=1.000=0=0=1=====,
68.000=ring2.avi=1.000=0=0=1=====,
72.000=cube1.avi=1.000=0=0=1=====,
84.000=wheel1.avi=1.000=0=0=1=====,
88.000=circle7.avi=1.000=0=0=1=====,
100.000=cross1.avi=1.000=0=0=1=====,
104.000=fire4.avi=1.000=0=0=1=====,
112.000=rocket1.avi=1.000=0=0=1=====,
120.000=star5.avi=1.000=0=0=1=====,
132.000=blackhole1.avi=1.000=0=0=1=====,
140.000=ring12.avi=1.000=0=0=1=====,
148.000=ring5.avi=1.000=0=0=1=====,
156.000=cube11.avi=1.000=0=0=1=====,
172.000=ring6.avi=1.000=0=0=1=====,
180.000=ring2.avi=1.000=0=0=1=====,
188.000=tunnel9.avi=1.000=0=0=1=====,
204.000=countdown1.avi=1.000=0=0=1=====,
208.000=ring8.avi=1.000=0=0=1=====,
224.000=ring2.avi=1.000=0=0=1=====,
240.000=ring9.avi=1.000=0=0=1=====,
256.000=ring6.avi=1.000=0=0=1=====,
268.000=ring12a.avi=1.000=0=0=1=====,
272.000=Rings of Saturn-bg.png=1.000=0=0=1=====,
99999=-nosongbg-=1.000=0=0=0 // don't automatically add -songbackground-
;
#KEYSOUNDS:;
#ATTACKS:
;

//---------------dance-single - ----------------
#NOTEDATA:;
#CHARTNAME:Expert;
#STEPSTYPE:dance-single;
#DESCRIPTION:;
#CHARTSTYLE:;
#DIFFICULTY:Hard;
#METER:14;
#RADARVALUES:0.699155,0.692396,0.556976,0.547845,0.538714,536.000000,475.000000,61.000000,60.000000,0.000000,0.000000,0.000000,0.000000,0.000000,0.699155,0.692396,0.556976,0.547845,0.538714,536.000000,475.000000,61.000000,60.000000,0.000000,0.000000,0.000000,0.000000,0.000000;
#CREDIT:BlindedVanguard573;
#NOTES:
0000
0000
0000
0000
,
0000
0000
0000
0000
,
0000
0000
0000
0000
,
0000
0000
0000
0000
,
0002
0000
0100
0000
0103
0000
0001
0000
1000
0000
0000
0100
0000
0000
1100
0000
,
2000
0000
0010
0000
3010
0000
1000
0000
0001
0010
0000
0010
0001
0000
1001
0000
,
0002
0000
0100
0000
1003
0000
0001
0000
0010
0000
0000
0100
0000
0000
1000
0000
,
1100
0011
0101
1010
,
2002
0000
0000
0000
,
0000
0000
0000
0000
0000
0000
3003
0000
1000
0001
1000
0001
0200
0000
0300
0000
,
0010
1000
0100
0001
0100
1000
0010
0001
,
0010
0100
0001
0010
1000
0010
0100
1000
,
0010
0100
1000
0100
0001
0010
0100
1000
,
0001
0100
0001
0100
0002
0000
2003
0000
3100
0000
0100
1000
0000
1000
0001
0000
,
0100
0001
0010
1000
0010
0001
0100
1000
,
0100
0010
1000
0100
0001
0100
0010
0001
,
0100
0010
0001
0010
1000
0100
0010
0001
,
1000
0010
1000
0010
2000
0000
3002
0000
0013
0000
0010
0001
0000
0001
1000
0000
,
0101
0001
1001
0000
0001
0010
1000
0020
,
0000
0230
0000
2300
0000
3001
0001
0002
,
0000
0000
0103
0000
1000
0000
0100
0000
0010
0000
0000
1000
0000
0000
0001
0000
,
0011
1100
0101
1010
,
1100
1000
1001
0000
1000
0010
0001
0020
,
0000
0230
0000
0302
0000
1003
1000
2000
,
0000
0000
3100
0000
0001
0000
0100
0000
0010
0000
0000
0001
0000
0000
1000
0000
,
1010
0101
1100
0011
,
0101
0100
1100
0100
0120
0000
1030
0000
,
1100
0100
0101
0100
0120
0000
0031
0000
,
0021
0000
2030
0000
3001
0002
0000
0203
,
1000
0000
0301
0000
0101
0100
1100
0000
,
1010
0010
0011
0010
0110
0101
0000
2001
,
0000
3100
0000
1000
0100
0001
0010
1000
,
0002
0010
0013
0001
2000
0010
3010
1000
,
0001
0000
0010
0100
0000
1000
0001
0000
2002
0000
0000
0000
0000
0000
0000
0000
,
3003
0000
0000
0000
0000
0000
0000
0000
0001
0100
0000
1000
0100
0000
0001
0000
,
0011
0000
1100
0000
1001
2002
0000
3003
,
1000
0010
1000
0000
0002
0000
0003
0000
1000
0100
1000
0000
0002
0000
0003
0000
,
1010
0000
0101
0000
1001
2002
0000
3003
,
0001
0010
0001
0000
2000
0000
3000
0000
0001
0100
0001
0000
2000
0000
3000
0000
,
0001
0100
0000
0000
0100
1000
0000
0000
1000
0010
0000
0000
0010
0001
0000
0000
,
0001
0010
0000
0000
0010
1000
0000
0000
1000
0100
0000
0000
0100
0001
0000
0000
,
0011
0010
1100
0000
1010
0010
0101
1002
,
0000
0000
0000
0000
0023
0000
0000
0000
0130
1000
0001
1000
0010
0100
0001
0000
,
0011
0000
1100
0000
1001
0220
0000
0330
,
0001
0100
0001
0100
0020
0000
0030
0000
1000
0100
1000
0100
0020
0000
0030
0000
,
1010
0000
0101
0000
1001
0220
0000
0330
,
1000
0100
1000
0100
0020
0000
0030
0000
0001
0100
0001
0100
0020
0000
0030
0000
,
1000
0010
0000
0000
0010
0001
0000
0000
0001
0100
0000
0000
0100
1000
0000
0000
,
1000
0100
0000
0000
0100
0001
0000
0000
0001
0010
0000
0000
0010
1000
0000
0000
,
1010
0010
0101
0000
0011
0010
1100
1002
,
0000
0000
0000
0000
0203
0000
0000
0000
0310
1000
0001
1000
0100
0010
0001
1000
,
0002
0000
0000
0000
0003
0000
0000
0000
1000
0100
0000
0001
0100
0000
1000
0000
,
0010
1000
0100
0001
0100
1000
0010
0001
,
0010
0100
0001
0010
1000
0010
0100
1000
,
0010
0100
1000
0100
0001
0010
0100
1000
,
0001
0100
0001
0100
0002
0000
2003
0000
3100
0000
0100
1000
0000
1000
0001
0000
,
0100
0001
0010
1000
0010
0001
0100
1000
,
0100
0010
1000
0100
0001
0100
0010
0001
,
0100
0010
0001
0010
1000
0100
0010
0001
,
1000
0010
1000
0010
2000
0000
3002
0000
0013
0000
0010
0001
0000
0001
1000
0000
,
0001
0000
0100
1000
0000
0100
0000
0010
0000
1000
0000
0001
0000
0100
0000
0001
,
1000
0000
0100
0001
0000
0100
0000
0010
0000
0001
0000
1000
0000
0100
0000
1000
,
0001
0000
0100
1000
0000
0100
0000
0010
0000
1000
0000
0001
0000
0100
0000
0001
,
1000
0100
1000
0001
0020
0000
0032
0000
1003
0000
0010
0100
0000
0001
1000
0000
,
0001
0000
0010
1000
0000
0010
0000
0100
0000
1000
0000
0001
0000
0010
0000
0001
,
1000
0000
0010
0001
0000
0010
0000
0100
0000
0001
0000
1000
0000
0010
0000
1000
,
0001
0000
0010
1000
0000
0010
0000
0100
0000
1000
0000
0001
0000
0010
0000
0001
,
1000
0010
1000
0001
0200
0000
0302
0000
1003
0000
0100
0010
0000
0001
1000
0000
,
2002
0000
0000
0000
3003
0000
0000
0000
0001
0100
0000
1000
0100
0000
0001
1000
;

//---------------dance-single - ----------------
#NOTEDATA:;
#CHARTNAME:Beginner;
#STEPSTYPE:dance-single;
#DESCRIPTION:;
#CHARTSTYLE:;
#DIFFICULTY:Beginner;
#METER:4;
#RADARVALUES:0.208703,0.251096,0.054785,0.009131,0.000000,160.000000,154.000000,6.000000,1.000000,0.000000,0.000000,0.000000,0.000000,0.000000,0.208703,0.251096,0.054785,0.009131,0.000000,160.000000,154.000000,6.000000,1.000000,0.000000,0.000000,0.000000,0.000000,0.000000;
#CREDIT:BlindedVanguard573;
#NOTES:
0000
0000
0000
0000
,
0000
0000
0000
0000
,
0000
0000
0000
0000
,
0000
0000
0000
0000
,
1000
0000
0000
0000
,
0001
0000
0010
0000
,
0100
0000
0000
0000
,
0010
0010
0010
0010
,
0020
0000
0000
0000
,
0000
0000
0000
0030
,
0001
0000
0000
0010
,
0010
0000
0000
0100
,
0100
0000
0000
1000
,
1000
0000
0001
0000
,
1000
0000
0000
0010
,
0010
0000
0000
0100
,
0100
0000
0000
0001
,
0001
0000
1000
0000
,
0001
0001
0001
0000
,
0010
0000
0100
0000
,
1000
0000
0000
0001
,
0001
0000
1000
1000
,
1000
0000
0010
0000
,
0100
0000
0001
0001
,
0001
0000
0000
0010
,
0010
0000
1001
0000
,
1000
1000
1000
0000
,
0001
0001
0001
0000
,
0010
0010
0010
0000
,
0100
0000
0010
0000
,
1000
1000
1000
0000
,
0001
0001
0001
0000
,
0100
0100
0100
0000
,
0010
0010
0010
0000
,
1001
0000
0000
0000
,
1000
1000
1000
0000
,
0010
0000
0100
0000
,
0001
0001
0001
0000
,
1000
0000
0100
0000
,
0010
0010
0010
0000
,
0100
0100
0100
0000
,
1000
1000
1000
0000
,
0001
0001
0001
0000
,
0100
0100
0100
0000
,
0010
0000
1000
0000
,
0001
0001
0001
0000
,
1000
0000
0010
0000
,
0100
0100
0100
0000
,
0001
0001
0001
0000
,
0010
0010
0010
0000
,
0100
0100
0100
0000
,
1001
0000
0000
0000
,
1000
0000
0000
0010
,
0010
0000
0000
0100
,
0100
0000
0000
0001
,
0001
0000
1000
0000
,
0001
0000
0000
0010
,
0010
0000
0000
0100
,
0100
0000
0000
1000
,
1000
0000
0001
0000
,
1000
1000
1000
0000
,
0010
0010
0010
0000
,
0100
0100
0100
0000
,
0001
0000
1001
0000
,
0001
0001
0001
0000
,
0010
0010
0010
0000
,
0100
0100
0100
0000
,
1000
0000
1001
0000
,
0110
0000
0010
0010
;

//---------------dance-single - ----------------
#NOTEDATA:;
#CHARTNAME:Basic;
#STEPSTYPE:dance-single;
#DESCRIPTION:;
#CHARTSTYLE:;
#DIFFICULTY:Easy;
#METER:7;
#RADARVALUES:0.337838,0.345884,0.136961,0.073046,0.000000,259.000000,244.000000,15.000000,8.000000,0.000000,0.000000,0.000000,0.000000,0.000000,0.337838,0.345884,0.136961,0.073046,0.000000,259.000000,244.000000,15.000000,8.000000,0.000000,0.000000,0.000000,0.000000,0.000000;
#CREDIT:BlindedVanguard573;
#NOTES:
0000
0000
0000
0000
,
0000
0000
0000
0000
,
0000
0000
0000
0000
,
0000
0000
0000
0000
,
1000
0100
0010
0100
,
1000
0001
0100
0010
,
0100
0001
0010
1000
,
0010
0010
0100
0100
,
2002
0000
0000
0000
,
0000
0000
0000
3003
,
1000
0100
0001
0100
,
1000
0100
0010
0100
,
1000
0010
0001
0010
,
0100
0010
1000
1001
,
0001
0010
1000
0010
,
0001
0010
0100
0010
,
0001
0100
1000
0100
,
0010
1000
0001
1001
,
1000
0100
1000
0100
,
0010
0001
0010
0001
,
1000
0010
1000
0010
,
0100
0100
1001
1001
,
0001
0100
0001
0100
,
0010
1000
0010
1000
,
0001
0010
0001
0010
,
0100
0100
1001
1001
,
1000
0100
0001
0100
,
1000
0010
0001
0010
,
1000
0010
0100
0001
,
1000
0100
0010
1001
,
0001
0100
1000
0100
,
0010
1000
0001
0010
,
1000
0010
0100
1000
,
0001
0100
0010
1000
,
2002
0000
0000
3003
,
0001
0010
0001
0001
,
1000
0010
0001
0010
,
1000
0100
1000
1000
,
0001
0100
1000
0100
,
0010
0010
0010
1000
,
0001
0001
0001
0010
,
0100
0100
1000
1000
,
0001
0100
0010
1000
,
0001
0100
0001
0001
,
1000
0100
0001
0100
,
1000
0010
1000
1000
,
0001
0010
1000
0010
,
0100
0100
0100
1000
,
0001
0001
0001
0100
,
0010
0010
1000
1000
,
0001
0010
0100
1000
,
2002
0000
0000
3003
,
1000
0010
0001
0010
,
1000
0010
0100
0010
,
1000
0100
0001
0100
,
0010
0100
1000
1001
,
0001
0100
1000
0100
,
0001
0100
0010
0100
,
0001
0010
1000
0010
,
0100
1000
0001
1001
,
1000
0100
0001
0100
,
1000
0100
0010
0100
,
1000
0010
0001
0010
,
0100
0010
1000
1001
,
0001
0010
1000
0010
,
0001
0010
0100
0010
,
0001
0100
1000
0100
,
0010
1000
0001
1001
,
2002
0000
0000
0000
0000
0000
0000
3003
;

//---------------dance-single - ----------------
#NOTEDATA:;
#CHARTNAME:Difficult;
#STEPSTYPE:dance-single;
#DESCRIPTION:;
#CHARTSTYLE:;
#DIFFICULTY:Medium;
#METER:11;
#RADARVALUES:0.543932,0.534548,0.383492,0.173484,0.031958,417.000000,375.000000,42.000000,19.000000,0.000000,0.000000,0.000000,0.000000,0.000000,0.543932,0.534548,0.383492,0.173484,0.031958,417.000000,375.000000,42.000000,19.000000,0.000000,0.000000,0.000000,0.000000,0.000000;
#CREDIT:BlindedVanguard573;
#NOTES:
0000
0000
0000
0000
,
0000
0000
0000
0000
,
0000
0000
0000
0000
,
0000
0000
0000
0000
,
1000
1100
0001
0101
,
2001
3100
1002
0103
,
0001
0011
1000
1010
,
1001
0110
1001
0110
,
2002
0000
0000
0000
,
0000
0000
3003
0110
,
1000
0100
0010
0000
0100
0010
0001
0000
,
0010
0001
1000
0000
0001
1000
0100
0000
,
1000
0001
0100
0000
0001
1000
0010
0000
,
1000
0000
0100
0000
0001
0000
0100
0000
1000
0000
0000
0001
0000
0000
1000
0000
,
0001
0100
1000
0000
0100
0010
1000
0000
,
0001
0010
1000
0000
0010
0100
1000
0000
,
0001
0100
1000
0000
0001
0010
1000
0000
,
0001
0000
0010
0000
0100
0000
1000
0000
0001
0000
0000
1000
0000
0000
0001
0000
,
0100
0011
0100
1010
,
0010
1000
0100
0000
0010
0001
0100
0000
,
0010
1001
0100
1001
,
1100
1100
0101
0101
,
0100
1010
0100
0011
,
0010
0001
0100
0000
0010
1000
0100
0000
,
0010
1001
0100
1001
,
0101
0101
1100
1100
,
0001
0100
1000
0100
0002
0000
1003
0000
,
1000
0100
0001
0100
2000
0000
3001
0000
,
0100
1001
0010
1001
,
1000
0010
0001
0010
0100
0010
1000
0000
,
0001
0010
0001
0010
1000
0010
0000
0010
,
0200
0000
1300
0000
0001
1000
0001
0000
,
2000
0010
0100
3001
,
1000
0100
0001
0100
2000
0000
3001
0000
,
2002
0000
0000
3003
,
0101
0000
1100
0000
0001
1000
0001
0000
,
1000
0010
0100
0000
1000
0100
0010
0000
,
1010
0000
0011
0000
1000
0001
1000
0000
,
0001
0010
0100
0000
0001
0100
0010
0000
,
0001
0100
0001
0100
0010
1000
0010
0000
,
1000
0100
1000
0100
0010
0001
0010
0000
,
0001
1000
0001
0000
0100
0010
0100
0000
,
0201
2300
3002
0013
,
1010
0000
0101
0000
1000
0001
0100
0000
,
0001
0010
1000
0000
0001
0100
1000
0000
,
0011
0000
1100
0000
0001
1000
0100
0000
,
1000
0010
0001
0000
1000
0100
0001
0000
,
1000
0100
1000
0100
0001
0100
1000
0000
,
0001
0100
0001
0100
1000
0100
0010
0000
,
1000
0100
1000
0100
0001
0100
0001
0100
,
1000
0010
0001
0010
0200
0000
0310
0000
,
2002
0000
0000
3003
,
1000
0100
1000
0100
1000
0100
1000
0100
,
0010
0001
0010
0001
0010
0001
0010
0001
,
1000
0010
1000
0010
1000
0010
1000
0010
,
0100
0000
0010
0000
0100
0000
0010
0000
1000
0000
0000
0001
0000
0000
1000
0000
,
0001
0100
0001
0100
0001
0100
0001
0100
,
0010
1000
0010
1000
0010
1000
0010
1000
,
0001
0010
0001
0010
0001
0010
0001
0010
,
0100
0000
0010
0000
0100
0000
0010
0000
0001
0000
0000
1000
0000
0000
0001
0000
,
1000
0010
0100
0010
1000
0010
0100
0010
,
1000
0100
0010
0100
1000
0100
0010
0100
,
1000
0001
0010
0001
1000
0001
0010
0001
,
1000
0000
0010
0000
0100
0000
0001
0000
1000
0000
0000
0001
0000
0000
1000
0000
,
0001
0010
0100
0010
0001
0010
0100
0010
,
0001
0100
0010
0100
0001
0100
0010
0100
,
0001
1000
0010
1000
0001
1000
0010
1000
,
0001
0000
0010
0000
0100
0000
1000
0000
0001
0000
0000
1000
0000
0000
0001
0000
,
2002
0000
0000
0000
3003
0000
0000
0000
0001
0000
0000
0100
0000
0000
1000
0000
;

//---------------dance-double - ----------------
#NOTEDATA:;
#CHARTNAME:Expert;
#STEPSTYPE:dance-double;
#DESCRIPTION:;
#CHARTSTYLE:;
#DIFFICULTY:Hard;
#METER:14;
#RADARVALUES:0.699155,0.723869,0.529584,0.310446,0.388057,536.000000,478.000000,58.000000,34.000000,0.000000,0.000000,0.000000,0.000000,0.000000,0.699155,0.723869,0.529584,0.310446,0.388057,536.000000,478.000000,58.000000,34.000000,0.000000,0.000000,0.000000,0.000000,0.000000;
#CREDIT:BlindedVanguard573;
#NOTES:
00000000
00000000
00000000
00000000
,
00000000
00000000
00000000
00000000
,
00000000
00000000
00000000
00000000
,
00000000
00000000
00000000
00000000
,
00001000
00000000
00100000
00000000
00001000
00000000
00010000
00000000
00000100
00000000
00000000
00010100
00000000
00000000
01001000
00000000
,
00001000
00000000
01000000
00000000
00100000
00000000
01000000
00000000
00010000
10000000
00000000
10000000
00010000
00000000
10010000
00000000
,
10000000
00000000
01000000
00000000
00010000
00000000
00001000
00000000
00000100
00000000
00000000
00000110
00000000
00000000
00001010
00000000
,
00001001
00011000
10010000
00011000
,
00002002
00000000
00000000
00000000
,
00000000
00000000
00000000
00000000
00000000
00000000
00003003
00000000
00000001
00000100
00000010
00001000
00000002
00000000
00000003
00000000
,
00001000
00000100
00000001
00000100
00000010
00000100
00010000
00001000
,
00100000
00010000
01000000
10000000
01000000
00100000
01000000
00001000
,
00010000
00000100
00001000
00000010
00000001
00000010
00001000
00000100
,
00010000
00001000
00010000
00001000
00100000
00000000
00010000
00000000
10000000
00000000
10000000
00100000
00000000
00100000
01000000
00000000
,
00010000
01000000
10000000
01000000
00100000
01000000
00001000
00010000
,
00000010
00001000
00000100
00000001
00000100
00000010
00000100
00010000
,
00001000
01000000
00010000
00100000
10000000
00100000
00010000
01000000
,
00001000
00010000
00001000
00010000
00000010
00000000
00001000
00000000
00000001
00000000
00000001
00000010
00000000
00000010
00000100
00000000
,
00001100
00001000
00001001
00000000
00000001
00000100
00001000
00020000
,
00000000
00032000
00000000
00003200
00000000
00000310
00001000
00000001
,
00000010
00000100
00000010
00000100
00001000
00000001
00010000
00001000
,
00011000
00011000
10010000
10010000
,
01010000
00010000
10010000
00000000
10000000
01000000
00010000
00002000
,
00000000
00023000
00000000
02030000
00000000
03100000
00010000
10000000
,
00100000
01000000
00100000
01000000
00010000
10000000
00001000
00010000
,
00011000
00011000
00001001
00001001
,
00000101
00000100
00001000
00010000
00021000
00000000
01030000
00000000
,
10100000
00100000
00010000
00001000
00012000
00000000
00003010
00000000
,
00000021
00000000
00002030
00000000
00003001
00000002
00000000
00000103
,
00001000
00000010
00000100
00000000
00000101
00000001
00001001
00000000
,
00000011
00000010
00001000
00010000
00011000
00010000
00000000
00210000
,
00000000
10300000
00000000
00010000
01000000
10000000
01000000
00001000
,
00010000
00000100
00000100
00001000
00000010
00010000
00010000
00001000
,
00100000
00000000
00100000
00010000
00000000
00010000
01000000
00000000
02100000
00000000
00000000
00000000
03010000
00000000
00000000
00000000
,
20020000
00000000
00000000
00000000
30030000
00000000
00000000
00000000
10000000
01000000
00000000
00100000
00010000
00000000
10000000
00000000
,
10100000
00000000
01010000
00000000
10010000
20020000
00000000
30030000
,
10000000
01000000
00010000
00001000
00000100
00000001
00001000
00000000
,
00000011
00000000
00001100
00000000
00001001
00002002
00000000
00003003
,
00000001
00000100
00001000
00010000
01000000
10000000
00010000
00000000
,
10000000
00100000
01000000
00100000
10000000
01000000
00010000
00001000
,
00000100
00000010
00001000
00000010
00000100
00001000
00010000
01000000
,
10000000
00010000
10010000
00000000
10000000
00100000
00010000
00001000
,
00000020
00000031
00002000
00003010
00000200
00000301
00001000
00000000
,
00000101
00000000
00001010
00000000
00011000
00012000
00000000
00103000
,
00010000
01000000
10000000
01000000
00100000
10000000
10010000
00000000
,
11000000
00000000
00110000
00000000
00011000
00021000
00000000
00030010
,
00001000
00000100
00000001
00000100
00000010
00000001
00001001
00000000
,
00000001
00000100
00001000
00010000
01000000
10000000
01000000
00010000
,
00001000
00000010
00001000
00010000
00100000
10000000
00010000
10000000
,
10010000
00001000
00011000
00000000
00001001
00000001
00011000
00010000
,
00001000
00000000
01000000
00000000
10000000
00000000
01000000
00000000
00100000
00000000
10000000
00010000
10000000
00010000
10000000
00010000
,
02000000
00000000
00000000
00000000
03000000
00000000
00000000
00000000
00100000
10000000
00000000
00010000
01000000
00000000
00100000
10000000
,
00010000
01000000
10000000
01000000
00100000
01000000
00001000
00010000
,
00000010
00001000
00000100
00000001
00000100
00000010
00000100
00010000
,
00001000
01000000
00010000
00100000
10000000
00100000
00010000
01000000
,
00001000
00010000
00001000
00010000
00000010
00000000
00001000
00000000
00000001
00000000
00000001
00000010
00000000
00000010
00000100
00000000
,
00001000
00000100
00000001
00000100
00000010
00000100
00010000
00001000
,
00100000
00010000
01000000
10000000
01000000
00100000
01000000
00001000
,
00010000
00000100
00001000
00000010
00000001
00000010
00001000
00000100
,
00010000
00001000
00010000
00001000
00100000
00000000
00010000
00000000
10000000
00000000
10000000
00100000
00000000
00100000
01000000
00000000
,
00010000
00000000
01000000
10000000
00000000
01000000
00000000
00001000
00000000
00010000
00000000
00000100
00000000
00001000
00000000
00000010
,
00001000
00000000
00000100
00000001
00000000
00000100
00000000
00010000
00000000
00001000
00000000
00100000
00000000
00010000
00000000
10000000
,
00010000
00000000
01000000
10000000
00000000
00010000
00000000
00100000
00000000
01000000
00000000
00001000
00000000
00010000
00000000
00000100
,
00001000
00000010
00001000
00000010
00000200
00000000
00000302
00000000
00001003
00000000
00000100
00000010
00000000
00000001
00001000
00000000
,
00001000
00000000
00000100
00000001
00000000
00000100
00000000
00010000
00000000
00001000
00000000
01000000
00000000
00010000
00000000
00100000
,
00010000
00000000
01000000
10000000
00000000
01000000
00000000
00001000
00000000
00010000
00000000
00000010
00000000
00001000
00000000
00000001
,
00001000
00000000
00000100
00000001
00000000
00001000
00000000
00000010
00000000
00000100
00000000
00010000
00000000
00001000
00000000
01000000
,
00010000
00100000
00010000
00100000
02000000
00000000
23000000
00000000
30010000
00000000
00010000
01000000
00000000
01000000
00100000
00000000
,
20020000
00000000
00000000
00000000
30030000
00000000
00000000
00000000
10000000
01000000
00000000
00010000
01000000
00000000
10000000
00010000
;

//---------------dance-double - ----------------
#NOTEDATA:;
#CHARTNAME:Basic;
#STEPSTYPE:dance-double;
#DESCRIPTION:;
#CHARTSTYLE:;
#DIFFICULTY:Easy;
#METER:7;
#RADARVALUES:0.341751,0.376644,0.219138,0.173484,0.000000,262.000000,238.000000,24.000000,19.000000,0.000000,0.000000,0.000000,0.000000,0.000000,0.341751,0.376644,0.219138,0.173484,0.000000,262.000000,238.000000,24.000000,19.000000,0.000000,0.000000,0.000000,0.000000,0.000000;
#CREDIT:BlindedVanguard573;
#NOTES:
00000000
00000000
00000000
00000000
,
00000000
00000000
00000000
00000000
,
00000000
00000000
00000000
00000000
,
00000000
00000000
00000000
00000000
,
00001000
00000000
00010000
00000000
,
00000100
00001000
00000001
00000100
,
00000010
00000000
00001000
00000000
,
00000100
00010000
00001000
00100000
,
00020000
00000000
00000000
00000000
,
10000000
10000000
10030000
10010000
,
10000000
00100000
01000000
10000000
,
01000000
00010000
00100000
00001000
,
00010000
00000100
00001000
00000010
,
00000100
00000001
00001000
00001001
,
00000001
00000010
00000100
00000001
,
00000100
00001000
00000010
00010000
,
00001000
01000000
00010000
00100000
,
01000000
10000000
00010000
10010000
,
10000000
01000000
10000000
01000000
,
00010000
01000000
00010000
01000000
,
00100000
00001000
00100000
00001000
,
00010000
00000100
00001000
00001001
,
00000001
00000100
00000001
00000100
,
00001000
00000100
00001000
00000100
,
00000010
00010000
00000010
00010000
,
00001000
01000000
00010000
10010000
,
10000000
01000000
20000000
30000000
,
00010000
01000000
00020000
00030000
,
10000000
00100000
00010000
00001000
,
00000020
00000030
00000001
00001000
,
00000001
00000100
00000010
00001000
,
00000200
00000300
00000010
00000001
,
00001000
00000010
00000100
00001000
,
00010000
00100000
01000000
00010000
,
20020000
00000000
00000000
30030000
,
10010000
01100000
20020000
30030000
,
10000000
01000000
00100000
00010000
,
00011000
00011000
00022000
00033000
,
00001000
00000010
00000001
00001000
,
00000001
00000100
00001000
00000100
,
00000001
00000010
00001000
00000010
,
00000001
00000100
00000010
00010000
,
00001000
00100000
00010000
10000000
,
10010000
01100000
20020000
30030000
,
10000000
00100000
01000000
00010000
,
00011000
00011000
00022000
00033000
,
00001000
00000100
00000001
00001000
,
00000001
00000010
00001000
00000010
,
00000001
00000100
00001000
00000100
,
00000001
00000010
00000100
00010000
,
00001000
01000000
00010000
10000000
,
20020000
00000000
00000000
30030000
,
10000000
01000000
00100000
10000000
,
00100000
00010000
01000000
00001000
,
00010000
00000010
00001000
00000100
,
00000010
00000001
00001000
00001001
,
00000001
00000100
00000010
00000001
,
00000010
00001000
00000100
00010000
,
00001000
00100000
00010000
01000000
,
00100000
10000000
00010000
10010000
,
10000000
01000000
00010000
00001000
,
00000100
00001000
00010000
01000000
,
10000000
00100000
00010000
00001000
,
00000010
00000001
00001000
00001001
,
00000001
00000100
00001000
00010000
,
01000000
00010000
00001000
00000100
,
00000001
00000010
00001000
00010000
,
00100000
10000000
00010000
10010000
,
20020000
30030000
01000000
01000000
;

//---------------dance-double - ----------------
#NOTEDATA:;
#CHARTNAME:Difficult;
#STEPSTYPE:dance-double;
#DESCRIPTION:;
#CHARTSTYLE:;
#DIFFICULTY:Medium;
#METER:10;
#RADARVALUES:0.486539,0.503104,0.493061,0.365230,0.004565,373.000000,319.000000,54.000000,40.000000,0.000000,0.000000,0.000000,0.000000,0.000000,0.486539,0.503104,0.493061,0.365230,0.004565,373.000000,319.000000,54.000000,40.000000,0.000000,0.000000,0.000000,0.000000,0.000000;
#CREDIT:BlindedVanguard573;
#NOTES:
00000000
00000000
00000000
00000000
,
00000000
00000000
00000000
00000000
,
00000000
00000000
00000000
00000000
,
00000000
00000000
00000000
00000000
,
00001000
00100000
00010000
00000000
01000000
00000000
00100000
00000000
,
10000000
01000000
00010000
00000000
00010000
01000000
10000000
00000000
,
00100000
10000000
00010000
00000000
00100000
00000000
00001000
00000000
,
00011000
00011000
00001100
00000101
,
00002002
00000000
00000000
00000000
,
00000000
00000000
00003003
00000000
00000001
00000100
00000010
00000000
,
00001000
00000100
00000010
00000000
00000001
00000000
00001001
00000000
,
00000001
00000100
00000010
00000000
00001000
00000000
00001001
00000000
,
00000001
00000100
00001000
00000000
00010000
01000000
10000000
00000000
,
00100000
01000000
00100000
00000000
10000000
00000000
10010000
00000000
,
00010000
01000000
00100000
00000000
10000000
00000000
10010000
00000000
,
10000000
01000000
00100000
00000000
00010000
00000000
10010000
00000000
,
10000000
01000000
00010000
00000000
00001000
00000100
00000001
00000000
,
00000010
00000100
00000010
00000000
00000001
00000000
00001001
00000000
,
00000002
00000100
00001003
00000001
,
00000100
00001100
00001000
00001001
,
00000002
00000010
00001003
00000001
,
00001001
00001001
00011000
00011000
,
20010000
01000000
30100000
10000000
,
00020000
00130000
20000000
30100000
,
00020000
01000000
00130000
00010000
,
10010000
10010000
00011000
00001001
,
00000001
00000100
00000010
00000000
00000200
00000000
00000301
00000000
,
00001000
00000100
00000010
00000000
00000200
00000000
00001300
00000000
,
00000001
00000101
00001000
00001100
,
00000001
00000100
00001000
00000000
00010000
01000000
10000000
00000000
,
00100000
01000000
00100000
00000000
10000000
00010000
00000000
00010000
,
10000000
00000000
11000000
00000000
00010000
01000000
00100000
00000000
,
20000000
00000000
00100000
00000000
00010000
30000000
10000000
00000000
,
10010000
00011000
00002002
00003003
,
00000102
00001000
00000013
00001001
,
00000101
00000000
00001100
00000000
00000001
00001000
00000001
00000000
,
00001000
00000010
00000001
00000000
00000001
00000010
00010000
00000000
,
00011000
00000000
00011000
00000000
00100000
00010000
10000000
00000000
,
00100000
10000000
01000000
00000000
00100000
00010000
01000000
00000000
,
10200000
02300000
03020000
00230000
,
00302000
00023000
00030200
00002300
,
00003001
00000100
00001000
00000000
00001000
00000100
00000010
00000000
,
00001020
00000032
00002003
00003100
,
00000011
00000000
00001010
00000000
00000001
00001000
00000001
00000000
,
00001000
00000100
00000001
00000000
00000001
00000100
00010000
00000000
,
00011000
00000000
00011000
00000000
01000000
00010000
10000000
00000000
,
01000000
10000000
00100000
00000000
01000000
00010000
00100000
00000000
,
12000000
03200000
00320000
02030000
,
03002000
00023000
00030020
00002030
,
00003001
00000010
00001000
00000000
00001000
00000010
00000100
00000000
,
00001200
00000302
00002003
00003010
,
00002002
00000000
00000000
00003003
,
00001000
00000010
00000100
00000000
00000001
00000000
00001001
00000000
,
00000001
00000010
00000100
00000000
00001000
00000000
00001001
00000000
,
00000001
00000010
00001000
00000000
00010000
00100000
10000000
00000000
,
01000000
00100000
01000000
00000000
10000000
00000000
10010000
00000000
,
00010000
00100000
01000000
00000000
10000000
00000000
10010000
00000000
,
10000000
00100000
01000000
00000000
00010000
00000000
10010000
00000000
,
10000000
00100000
00010000
00000000
00001000
00000010
00000001
00000000
,
00000100
00000010
00000100
00000000
00000001
00000000
00001001
00000000
,
00000001
00000100
00000001
00000100
00000001
00000100
00000010
00000000
,
00001000
00000100
00001000
00000100
00001000
00000100
00010000
00000000
,
00001000
00100000
00001000
00100000
00001000
00100000
00010000
00000000
,
10000000
00100000
01000000
00000000
10010000
00000000
10010000
00000000
,
00000001
00000010
00000001
00000010
00000001
00000010
00000100
00000000
,
00001000
00000010
00001000
00000010
00001000
00000010
00010000
00000000
,
00001000
01000000
00001000
01000000
00001000
01000000
00010000
00000000
,
10000000
01000000
00100000
00000000
10010000
00000000
10010000
00000000
,
20020000
00000000
00000000
00000000
30030000
00000000
00000000
00000000
00100000
00000000
00000000
00100000
00000000
00000000
00100000
00000000
;

//---------------para-single - ----------------
#NOTEDATA:;
#CHARTNAME:Freestyle [Expert];
#STEPSTYPE:para-single;
#DESCRIPTION:;
#CHARTSTYLE:;
#DIFFICULTY:Challenge;
#METER:8;
#RADARVALUES:0.615674,0.786101,0.420015,0.109569,0.283053,472.000000,426.000000,46.000000,12.000000,0.000000,0.000000,0.000000,0.000000,0.000000,0.615674,0.786101,0.420015,0.109569,0.283053,472.000000,426.000000,46.000000,12.000000,0.000000,0.000000,0.000000,0.000000,0.000000;
#CREDIT:Riakodoadm;
#NOTES:
// measure 0
00000
00000
00000
00000
,  // measure 1
00000
00000
00000
00000
,  // measure 2
00000
00000
00000
00000
,  // measure 3
00000
00000
00000
00000
,  // measure 4
00000
00000
00000
00000
,  // measure 5
00000
00000
00000
00000
,  // measure 6
00000
00000
00000
00000
,  // measure 7
00000
00000
00000
00000
,  // measure 8
00000
00000
00000
00000
,  // measure 9
10000
00000
01000
00000
00100
00000
00010
00000
00001
00000
01010
00000
00100
01010
00000
00000
,  // measure 10
00100
10000
00010
01000
00100
10000
01010
00000
,  // measure 11
00001
00100
00010
01000
00001
00100
01010
00000
,  // measure 12
10000
00100
01000
00010
00100
00001
01000
00010
,  // measure 13
00100
00000
00001
00010
01000
00000
00100
00000
00010
00000
10000
01000
00010
00000
00001
00000
,  // measure 14
00100
00001
01000
00010
00100
00001
01010
00000
,  // measure 15
10000
00100
01000
00010
10000
00100
01010
00000
,  // measure 16
00001
00100
00010
01000
00100
10000
00010
01000
,  // measure 17
00100
00000
00001
00010
00100
01000
10000
00001
00010
00000
00000
01100
00000
00000
00110
00000
,  // measure 18
00001
01010
10000
01010
,  // measure 19
00001
00010
00100
00000
10000
01000
00100
00000
,  // measure 20
00100
00020
00030
00000
00100
02000
03000
00000
,  // measure 21
00010
00100
00000
00000
00000
00000
01000
00100
00000
00000
00000
00000
00100
00000
00000
00000
00000
00000
00100
00000
00000
00000
00000
00000
,  // measure 22
10000
01010
00001
01010
,  // measure 23
10000
01000
00100
00000
00001
00010
00100
00000
,  // measure 24
00100
02000
03000
00000
00100
00020
00030
00000
,  // measure 25
01000
00100
00000
00000
00000
00000
00010
00100
00000
00000
00000
00000
00100
00000
00000
00000
00000
00000
00100
00000
00000
00000
00000
00000
,  // measure 26
00010
10000
00010
10000
,  // measure 27
01000
00001
01000
00001
,  // measure 28
02000
00000
03020
00000
10030
01000
00100
00010
,  // measure 29
00002
00100
00010
00100
01000
10003
01010
10100
,  // measure 30
01000
00001
01000
00001
,  // measure 31
00010
10000
00010
10000
,  // measure 32
00200
00000
00000
00000
01300
00000
00110
00011
,  // measure 33
00100
00000
00000
01100
00000
00000
11000
00000
00100
00010
00001
00000
00100
01000
10000
00000
,  // measure 34
01002
00000
00000
00000
00000
00000
00000
00000
00010
00100
00000
01000
10003
00000
00010
00000
,  // measure 35
01000
00000
00100
00000
00000
00000
00000
00000
00000
00000
00000
00000
00100
00000
01000
00000
00000
00000
00000
00000
00000
00000
00000
00000
00100
00000
00000
00010
00000
00000
10000
00000
00000
00000
00000
00000
00000
00000
00000
00000
00000
00000
00000
00000
00000
00000
00000
00000
,  // measure 36
01010
00100
00010
00001
01010
00100
01000
10000
,  // measure 37
00010
00000
00100
00000
00000
00000
00000
00000
00000
00000
00000
00000
00100
00000
00010
00000
00000
00000
00000
00000
00000
00000
00000
00000
00100
00000
00000
01000
00000
00000
00001
00000
00000
00000
00000
00000
00000
00000
00000
00000
00000
00000
00000
00000
00000
00000
00000
00000
,  // measure 38
01010
00100
01000
10000
01010
00100
00010
00001
,  // measure 39
10000
01000
00100
00010
,  // measure 40
10001
01000
00100
00010
,  // measure 41
10001
00010
00100
01000
10001
00010
00100
01000
,  // measure 42
10000
01000
00100
00000
00001
00010
00100
00000
01000
00100
00010
00000
00010
00100
01000
00000
,  // measure 43
00010
00000
00100
00000
00000
00000
00000
00000
00000
00000
00000
00000
00100
00000
00010
00000
00000
00000
00000
00000
00000
00000
00000
00000
00100
00000
00000
01000
00000
00000
00001
00000
00000
00000
00000
00000
00000
00000
00000
00000
00000
00000
00000
00000
00000
00000
00000
00000
,  // measure 44
01010
00100
01000
10000
01010
00100
00010
00001
,  // measure 45
01000
00000
00100
00000
00000
00000
00000
00000
00000
00000
00000
00000
00100
00000
01000
00000
00000
00000
00000
00000
00000
00000
00000
00000
00100
00000
00000
00010
00000
00000
10000
00000
00000
00000
00000
00000
00000
00000
00000
00000
00000
00000
00000
00000
00000
00000
00000
00000
,  // measure 46
01010
00100
00010
00001
01010
00100
01000
10000
,  // measure 47
00001
00010
00100
01000
,  // measure 48
10001
00010
00100
01000
,  // measure 49
10001
01000
00100
00010
10001
01000
00100
00010
,  // measure 50
00001
00010
00100
00000
10000
01000
00100
00000
00010
00100
01000
00000
01000
00100
00010
00000
,  // measure 51
20002
00000
00000
30003
,  // measure 52
00100
10000
00010
01000
00100
10000
01010
00000
,  // measure 53
00001
00100
00010
01000
00001
00100
01010
00000
,  // measure 54
10000
00100
01000
00010
00100
00001
01000
00010
,  // measure 55
00100
00000
00001
00010
01000
00000
00100
00000
00010
00000
10000
01000
00010
00000
00001
00000
,  // measure 56
00100
00001
01000
00010
00100
00001
01010
00000
,  // measure 57
10000
00100
01000
00010
10000
00100
01010
00000
,  // measure 58
00001
00100
00010
01000
00100
10000
00010
01000
,  // measure 59
00100
00000
10000
01000
00010
00000
00100
00000
01000
00000
00001
00010
01000
00000
10000
00000
,  // measure 60
00100
00000
10000
00000
00100
00010
00001
00000
00100
01000
10000
00000
01010
00000
00000
00000
,  // measure 61
00001
00000
00100
00000
00001
00010
00100
00000
10000
01000
00100
00000
01010
00000
00000
00000
,  // measure 62
10000
00000
00100
00000
01000
00100
00010
00000
01000
00000
00001
00000
00100
01000
10000
00000
,  // measure 63
00100
00010
00100
01000
10000
00000
00001
00000
00100
01000
00100
00010
00001
00000
01000
00000
,  // measure 64
00100
00000
00001
00000
00100
01000
10000
00000
00100
00010
00001
00000
01010
00000
00000
00000
,  // measure 65
10000
00000
00100
00000
10000
01000
00100
00000
00001
00010
00100
00000
01010
00000
00000
00000
,  // measure 66
00001
00000
00100
00000
00010
00100
01000
00000
00010
00000
10000
00000
00100
00010
00001
00000
,  // measure 67
00100
00000
00001
00010
00100
01000
10000
00001
00010
00000
00000
01100
00000
00000
00110
00000
,  // measure 68
01002
00000
00000
00000
00000
00000
00000
00000
00010
00100
00000
01000
10003
00000
01010
00000
;

//---------------para-single - ----------------
#NOTEDATA:;
#CHARTNAME:Freestyle [Hard];
#STEPSTYPE:para-single;
#DESCRIPTION:;
#CHARTSTYLE:;
#DIFFICULTY:Hard;
#METER:6;
#RADARVALUES:0.520453,0.685491,0.630022,0.155223,0.013696,399.000000,330.000000,69.000000,17.000000,0.000000,0.000000,0.000000,0.000000,0.000000,0.520453,0.685491,0.630022,0.155223,0.013696,399.000000,330.000000,69.000000,17.000000,0.000000,0.000000,0.000000,0.000000,0.000000;
#CREDIT:Riakodoadm;
#NOTES:
00000
00000
00000
00000
,
00000
00000
00000
00000
,
00000
00000
00000
00000
,
00000
00000
00000
00000
,
00000
00000
00000
00000
,
00000
00000
00000
00000
,
00000
00000
00000
00000
,
00000
00000
00000
00000
,
00000
00000
00000
00000
,
10000
01000
00100
00010
00001
01010
00100
00000
,
00001
00100
00001
00100
00001
00000
00110
00000
,
10000
00100
10000
00100
10000
00000
01100
00000
,
10000
00010
10000
01000
00010
00000
01100
00000
,
01000
00100
00010
00001
10000
01000
00100
00000
,
10000
00100
10000
00100
10000
00000
01100
00000
,
00001
00100
00001
00100
00001
00000
00110
00000
,
00001
01000
00001
00010
01000
00000
00110
00000
,
00010
00000
00100
00000
01000
00000
10000
00000
00001
00000
00000
10000
00000
00000
00100
00000
,
00010
00100
00010
00000
00100
00010
00100
01000
,
00000
10100
00000
01010
00000
00101
01000
10000
,
00100
00100
01000
00010
,
00011
11000
00011
11000
,
01000
00100
01000
00000
00100
01000
00100
00010
,
00000
00101
00000
01010
00000
10100
00010
00001
,
00100
00100
00010
01000
,
11000
00011
11000
00011
,
10000
01000
00100
00010
20002
00000
30003
00000
,
00001
00010
00100
01000
20002
00000
30003
00000
,
00001
00000
10000
00000
00100
00100
00000
00010
,
00000
01000
00000
00100
00010
01000
00100
00000
,
00001
00010
00100
00000
01000
00000
10000
00000
,
10000
01000
00100
00000
00010
00000
00001
00000
,
02020
00000
03030
00000
00010
00001
00010
00000
,
02020
00000
03030
00000
01000
10000
01000
00000
,
00200
00000
00000
00300
,
01010
00101
01010
10100
01010
00200
00300
00000
,
01000
00100
00010
00000
01000
00100
00010
00000
,
01010
10100
01010
00101
01010
00200
00300
00000
,
00010
00100
01000
00000
00010
00100
01000
00000
,
10001
01000
00100
00010
,
10001
01000
00100
00010
,
10001
00010
00100
01000
10001
00010
00100
01000
,
10001
00000
01000
00010
01000
00010
00100
00000
,
01010
10100
01010
00101
01010
00200
00300
00000
,
00010
00100
01000
00000
00010
00100
01000
00000
,
01010
00101
01010
10100
01010
00200
00300
00000
,
01000
00100
00010
00000
01000
00100
00010
00000
,
10001
00010
00100
01000
,
10001
00010
00100
01000
,
10001
01000
00100
00010
10001
01000
00100
00010
,
10001
00000
00010
01000
00010
01000
00100
00000
,
02020
00000
00000
03030
,
00001
00100
00001
00100
00001
00000
00110
00000
,
10000
00100
10000
00100
10000
00000
01100
00000
,
10000
00010
10000
01000
00010
00000
01100
00000
,
01000
00100
00010
00001
10000
01000
00100
00000
,
10000
00100
10000
00100
10000
00000
01100
00000
,
00001
00100
00001
00100
00001
00000
00110
00000
,
00001
01000
00001
00010
01000
00000
00110
00000
,
00010
00000
00100
00000
01000
00000
10000
00000
00001
00000
00000
10000
00000
00000
00100
00000
,
00001
00100
00001
00100
00001
00000
00110
00000
,
10000
00100
10000
00100
10000
00000
01100
00000
,
10000
00010
10000
01000
00010
00000
01100
00000
,
01000
00100
00010
00001
10000
01000
00100
00000
,
10000
00100
10000
00100
10000
00000
01100
00000
,
00001
00100
00001
00100
00001
00000
00110
00000
,
00001
01000
00001
00010
01000
00000
00110
00000
,
00010
00000
00100
00000
01000
00000
10000
00000
00001
00000
00000
10000
00000
00000
00100
00000
,
02020
03030
00000
00000
;

//---------------para-single - ----------------
#NOTEDATA:;
#CHARTNAME:Freestyle [Normal];
#STEPSTYPE:para-single;
#DESCRIPTION:;
#CHARTSTYLE:;
#DIFFICULTY:Medium;
#METER:3;
#RADARVALUES:0.293488,0.372535,0.383492,0.292184,0.000000,225.000000,183.000000,42.000000,32.000000,0.000000,0.000000,0.000000,0.000000,0.000000,0.293488,0.372535,0.383492,0.292184,0.000000,225.000000,183.000000,42.000000,32.000000,0.000000,0.000000,0.000000,0.000000,0.000000;
#CREDIT:Riakodoadm;
#NOTES:
00000
00000
00000
00000
,
00000
00000
00000
00000
,
00000
00000
00000
00000
,
00000
00000
00000
00000
,
00000
00000
00000
00000
,
00000
00000
00000
00000
,
00000
00000
00000
00000
,
00000
00000
00000
00000
,
00000
00000
00000
00000
,
00000
00000
00000
00000
,
00010
00010
00010
10001
,
01000
01000
01000
10001
,
00100
00001
00100
10000
,
00200
00300
01010
01010
,
00010
00010
00010
10001
,
01000
01000
01000
10001
,
00100
00001
00100
10000
,
00200
00300
01010
01010
,
00020
00000
00100
01030
,
10000
00000
00001
00000
,
00200
00300
00100
00000
,
00200
00300
00010
01000
,
02000
00000
00100
03010
,
00001
00000
10000
00000
,
00200
00300
00100
00000
,
00200
00300
01000
00010
,
02000
00010
03010
00000
,
00020
01000
01030
00000
,
00010
00000
00010
00000
,
01000
00000
01000
00000
,
02000
00010
03010
00000
,
00020
01000
01030
00000
,
00010
00000
00010
00000
,
01000
00000
01000
00000
,
20002
00000
00000
30003
,
01010
01010
20020
30030
,
01000
00010
01000
00010
,
01010
01010
02002
03003
,
00010
01000
00010
01000
,
00001
00010
00100
00000
,
00100
01000
10000
00000
,
20002
00000
30003
00000
,
00001
00010
00100
01010
,
01010
01010
20020
30030
,
01000
00010
01000
00010
,
01010
01010
02002
03003
,
00010
01000
00010
01000
,
00001
00010
00100
00000
,
00100
01000
10000
00000
,
20002
00000
30003
00000
,
00001
00010
00100
01010
,
20002
00000
00000
30003
,
00010
00010
00010
10001
,
01000
01000
01000
10001
,
00100
00001
00100
10000
,
00200
00300
01010
01010
,
00010
00010
00010
10001
,
01000
01000
01000
10001
,
00100
00001
00100
10000
,
00200
00300
01010
01010
,
00010
00010
00010
10001
,
01000
01000
01000
10001
,
00100
00001
00100
10000
,
00200
00300
01010
01010
,
00010
00010
00010
10001
,
01000
01000
01000
10001
,
00100
00001
00100
10000
,
00200
00300
01010
01010
,
00100
00000
00000
00000
;
