#TITLE:Pixel Princess;
#SUBTITLE:;
#ARTIST:Chickpea Sashimi ft. Kevin Flamingo;
#TITLETRANSLIT:;
#SUBTITLETRANSLIT:;
#ARTISTTRANSLIT:;
#GENRE:CHIPTUNE EUROBEAT;
#CREDIT:;
#BANNER:Pixel Princess.png;
#BACKGROUND:Pixel Princess-bg.png;
#LYRICSPATH:Pixel Princess.lrc;
#CDTITLE:Pixel Princess-cdtitle.png;
#MUSIC:Pixel Princess.ogg;
#OFFSET:-0.004560;
#SAMPLESTART:71.197884;
#SAMPLELENGTH:12.000000;
#SELECTABLE:YES;
#BPMS:0.000000=155.000000
;
#STOPS:
;
#BGCHANGES:24.000=colors2.avi=1.000=0=0=1=====,
40.000=colors3.avi=1.000=0=0=1=====,
56.000=rainbow1.avi=1.000=0=0=1=====,
72.000=rainbow2.avi=1.000=0=0=1=====,
88.000=bluey1.avi=1.000=0=0=1=====,
104.000=wave1.avi=1.000=0=0=1=====,
120.000=wave2.avi=1.000=0=0=1=====,
136.000=tunnel5.avi=1.000=0=0=1=====,
152.000=cube10.avi=1.000=0=0=1=====,
160.000=kaliedoscope5.avi=1.000=0=0=1=====,
168.000=sun1.avi=1.000=0=0=1=====,
176.000=rainbow2.avi=1.000=0=0=1=====,
184.000=circle6.avi=1.000=0=0=1=====,
192.000=star2.avi=1.000=0=0=1=====,
200.000=arrows2.avi=1.000=0=0=1=====,
208.000=text2.avi=1.000=0=0=1=====,
216.000=blizzard5.avi=1.000=0=0=1=====,
224.000=unicorn1.avi=1.000=0=0=1=====,
232.000=tunnel8.avi=1.000=0=0=1=====,
240.000=rainbow2.avi=1.000=0=0=1=====,
248.000=wheel1.avi=1.000=0=0=1=====,
264.000=unicorn2.avi=1.000=0=0=1=====,
272.000=rainbow2.avi=1.000=0=0=1=====,
280.000=Pixel Princess-bg.png=1.000=0=0=1=====,
99999=-nosongbg-=1.000=0=0=0 // don't automatically add -songbackground-
;
#KEYSOUNDS:;
#ATTACKS:;

//---------------dance-single - ----------------
#NOTES:
     dance-single:
     Expert:
     Hard:
     12:
     0.508966,0.584691,0.147365,1.473648,0.078017,411.000000,394.000000,17.000000,170.000000,0.000000,0.000000,0.508966,0.584691,0.147365,1.473648,0.078017,411.000000,394.000000,17.000000,170.000000,0.000000,0.000000:
0000
0000
0000
0000
,
0000
0000
0000
0000
,
0000
0000
0000
0000
,
0000
0000
0000
0000
,
1002
0100
0100
0103
,
0001
0000
0010
0001
0000
1000
0000
0010
1000
0000
0100
0000
0001
0000
0100
0000
,
2000
0000
0010
0000
3100
1000
0100
0020
,
0001
0000
1000
0000
0031
1000
0010
0200
,
0001
0000
1000
0000
0301
0100
0001
2000
,
0000
3100
0000
0002
0000
0100
0103
0000
,
2000
3020
0032
0023
0000
0230
0302
2003
,
0000
3200
2300
3002
0000
0203
0320
2030
,
3002
0000
0010
0000
0103
0001
0100
2000
,
0000
0000
3100
0000
0000
0000
0020
0000
0000
0000
1030
0001
1000
0000
0001
0000
,
1002
0000
0010
0000
0103
0001
0100
0020
,
1000
0000
0001
0000
1030
0001
0010
0200
,
1000
0000
0301
0002
0000
2003
0000
3020
,
0000
0000
0001
0000
0032
0000
0000
0000
1003
0010
1000
0000
0001
0100
0001
0000
,
2000
3200
0302
2003
0000
3020
0032
2003
,
0000
3020
2030
3002
0000
0023
0032
2003
,
3002
0000
0013
0020
0000
0230
0000
2300
,
0000
0002
3000
0000
1003
0100
0001
0100
,
1000
0010
1000
0000
0001
0010
0001
2000
,
0000
3020
0000
0230
0000
0302
0000
2003
,
0000
3100
0001
0100
1000
0010
1000
0002
,
0000
0013
0001
2000
0000
0100
3100
0000
,
1002
0000
0010
0010
0000
0203
0000
0301
,
1000
0100
0000
2000
0000
0001
3001
0000
,
2000
0000
0010
0010
0000
3100
0000
1000
,
0020
0032
0203
2300
,
3001
0100
0001
0000
1000
0100
1000
0001
,
0000
0101
0000
1100
0000
1000
0010
0001
,
0000
0001
0010
1000
0001
0010
0100
2000
,
0000
3001
0100
0020
0000
0100
0130
0000
,
0102
0000
1000
1000
0000
0013
0000
0001
,
0010
1000
0010
0200
0000
1000
1300
0000
,
1020
0000
0100
0100
0000
0001
0001
0031
,
0010
1000
0000
0010
1000
0000
0100
0000
1000
0001
1000
0000
0001
0000
1100
0000
,
0000
1000
0010
1000
0000
0010
0001
0010
,
0000
0001
0100
0001
0000
0100
1000
0100
,
0000
1000
0010
1000
0000
0010
0001
0010
,
0000
0100
0010
0200
0000
0001
0301
0000
,
2000
3200
0302
0203
0000
2300
3002
2003
,
0000
3020
0230
0320
0000
2030
3200
0320
,
0032
0000
0003
0000
0000
1100
0000
0101
,
0000
0011
0000
1010
0000
2002
0000
3003
,
2000
3020
0032
0023
2030
0000
3000
0002
,
0023
2030
3020
0032
0000
1000
0103
0000
,
0002
0203
2300
3200
0320
0000
1030
0001
,
0020
0000
2030
0000
3200
0000
0301
0001
,
1000
0000
1100
0000
0011
0000
0000
0002
,
0203
2300
3002
0023
0000
0030
0000
2000
,
3200
0302
0203
2300
0000
3020
0000
0230
,
0000
0000
1000
0000
1300
0000
0002
0000
0000
0000
0010
0000
0013
0000
1000
0001
,
2000
3200
0302
2003
3020
0000
0030
0200
,
2300
3002
0203
0320
0000
0130
1001
0000
,
2000
3020
0032
2003
3200
0000
0310
1000
,
0200
0000
0302
0000
0023
0000
1030
1000
,
0002
0000
0103
0100
0020
0000
0030
0100
,
0002
0023
2030
3020
0001
0000
1030
0010
,
0002
0203
2300
3020
0000
2030
0000
3200
,
0000
0301
0001
0020
0000
0100
0130
1000
,
1002
0000
0010
0000
0103
0001
0100
0020
,
1000
0000
0001
0000
1030
0001
0010
0200
,
1000
0000
0301
0002
0000
2003
0000
3020
,
0000
0000
0001
0000
0032
0000
0000
0000
1003
0010
1000
0000
0001
0100
0001
0000
,
2000
3200
0302
2003
0000
3020
0032
2003
,
0000
3020
2030
3002
0000
0023
0032
2003
,
3002
0000
0013
0020
0000
0230
0000
1300
,
0001
0000
0100
0010
0000
0100
0010
0000
1000
0100
0010
0001
0010
0100
1000
0001
,
2000
0000
0000
0000
,
3000
0000
0000
0000
;

//---------------dance-single - ----------------
#NOTES:
     dance-single:
     Beginner:
     Beginner:
     2:
     0.180800,0.215413,0.008669,0.069348,0.000000,146.000000,145.000000,1.000000,8.000000,0.000000,0.000000,0.180800,0.215413,0.008669,0.069348,0.000000,146.000000,145.000000,1.000000,8.000000,0.000000,0.000000:
0000
0000
0000
0000
,
0000
0000
0000
0000
,
0000
0000
0000
0000
,
0000
0000
0000
0000
,
0000
0000
0000
0000
,
0000
0000
0000
0000
,
1000
0000
0001
0000
,
0100
0000
0010
0000
,
0100
0000
0001
0000
,
1000
1000
1000
0000
,
0001
0000
0010
0000
,
0100
0000
0010
0000
,
0001
0000
1000
0000
,
0100
0100
0100
0000
,
1000
0000
0010
0000
,
0100
0000
0001
0000
,
1000
0000
0100
0000
,
0010
0010
0010
0000
,
0100
0000
1000
0000
,
0001
0000
0100
0000
,
0010
0000
0100
0100
,
0200
0000
0000
0300
,
0001
0000
0010
0000
,
0100
0000
1000
0000
,
0001
0000
0100
0000
,
0010
0010
0010
0000
,
1000
0000
0001
0000
,
0010
0000
0100
0000
,
1000
0000
0001
0000
,
1000
1000
1000
0000
,
0010
0000
0100
0000
,
1000
0000
0100
0000
,
0010
0000
1000
0000
,
0001
0001
0001
0000
,
1000
0000
0100
0000
,
0010
0000
0100
0000
,
1000
0000
0010
0010
,
0020
0000
0000
0030
,
0100
0100
0100
0000
,
0001
0000
1000
0000
,
0010
0010
0010
0000
,
1000
0000
0001
0000
,
0010
0000
0100
0000
,
1000
0000
0001
0000
,
0100
0000
0010
0000
,
1000
1000
1000
0000
,
0001
0001
0001
0000
,
0010
0000
0100
0000
,
1000
1000
1000
0000
,
0100
0000
0010
0000
,
0100
0000
1000
0000
,
0010
0000
0100
0000
,
0001
0001
0001
0000
,
1000
1000
1000
0000
,
0010
0010
0010
0000
,
0100
0000
0001
0000
,
1000
1000
1000
0000
,
0001
0001
0001
0000
,
0010
0000
0100
0000
,
1000
0000
0001
0000
,
0100
0100
0100
0000
,
0010
0010
0010
0000
,
2000
0000
3000
0000
,
0002
0000
0003
0000
,
0020
0000
0030
0000
,
0200
0000
0300
0000
,
1000
1000
1000
0000
,
0001
0001
0001
0000
,
0100
0000
0010
0000
,
1000
0000
0001
0000
,
2002
0000
0000
0000
,
3003
0000
0000
0000
;

//---------------dance-single - ----------------
#NOTES:
     dance-single:
     Basic:
     Easy:
     6:
     0.320735,0.338506,0.069348,0.052011,0.000000,259.000000,251.000000,8.000000,6.000000,0.000000,0.000000,0.320735,0.338506,0.069348,0.052011,0.000000,259.000000,251.000000,8.000000,6.000000,0.000000,0.000000:
0000
0000
0000
0000
,
0000
0000
0000
0000
,
0000
0000
0000
0000
,
0000
0000
0000
0000
,
0000
0000
0000
0000
,
0000
0000
0000
0000
,
1000
0100
0100
1000
,
0001
0100
0100
0001
,
1000
0010
0010
1000
,
0001
0010
1000
0010
,
0001
0010
0100
1000
,
0001
0100
0010
1000
,
0001
0100
1000
0100
,
0001
1000
0001
1001
,
1000
0010
0010
1000
,
0001
0010
0010
0001
,
1000
0100
0100
1000
,
0001
0100
1000
0100
,
0001
0010
0100
1000
,
0001
0100
0010
1000
,
0001
0010
1000
0010
,
0001
0100
0010
1001
,
1000
0100
0010
0100
,
1000
0100
0010
0100
,
1000
0010
0100
0010
,
1000
0001
1000
0000
,
0001
0100
0010
0100
,
0001
0100
0010
0100
,
0001
0010
0100
0010
,
0001
1000
0001
1001
,
1000
0100
0001
0100
,
1000
0100
0001
0100
,
1000
0100
0010
0001
,
1000
0010
0100
0000
,
0001
0100
1000
0100
,
0001
0100
1000
0100
,
0001
0100
0010
1000
,
0001
0010
0100
1000
,
0001
0001
0001
1000
,
0010
0010
0010
0100
,
1000
1000
1000
0100
,
0001
0001
0001
0000
,
1000
0100
0010
0100
,
0001
0100
0010
0100
,
1000
0010
0100
0001
,
1000
1000
0001
0001
,
1000
0010
0101
0000
,
1000
0001
1000
0001
,
1000
0100
0001
0100
,
0010
0010
0100
0100
,
2000
0010
3010
1000
,
0002
0010
0013
0001
,
1000
0100
0001
0100
,
1000
0001
1000
0000
,
0001
0010
1100
0000
,
0001
1000
0001
1000
,
0001
0100
1000
0100
,
0010
0010
0100
0100
,
0002
0010
0013
0001
,
2000
0010
3010
1000
,
0001
0100
1000
0100
,
0001
1000
0001
1001
,
1000
0010
0010
1000
,
0001
0010
0010
0001
,
1000
0100
0100
1000
,
0001
0100
1000
0100
,
0001
0010
0100
1000
,
0001
0100
0010
1000
,
0001
0010
1000
0010
,
0001
0100
0010
1001
,
2002
0000
0000
0000
,
3003
0000
0000
0000
;

//---------------dance-single - ----------------
#NOTES:
     dance-single:
     Difficult:
     Medium:
     9:
     0.429711,0.492372,0.398752,0.329404,0.000000,347.000000,301.000000,46.000000,38.000000,0.000000,0.000000,0.429711,0.492372,0.398752,0.329404,0.000000,347.000000,301.000000,46.000000,38.000000,0.000000,0.000000:
0000
0000
0000
0000
,
0000
0000
0000
0000
,
0000
0000
0000
0000
,
0000
0000
0000
0000
,
0000
0000
0000
0000
,
0000
0000
0000
0000
,
2000
0000
0100
0000
3001
1000
0000
0002
,
0000
0100
0000
1003
0000
0001
0000
2000
,
0000
0010
0000
3001
0000
1000
0000
0102
,
0000
1003
0000
2100
0000
0000
3001
0000
,
1000
0000
0100
0010
0000
0001
0000
0010
,
0000
0100
0000
1000
0000
0001
1000
0000
,
0002
0010
0103
0101
,
2000
0010
3100
1100
,
1002
0000
0010
0000
0013
0001
0100
0002
,
0000
0000
1000
0000
1003
0010
1000
0020
,
0000
0000
0000
0230
0000
0302
0000
2003
,
0000
3200
0000
0000
0010
0000
0301
0000
,
0100
0000
1000
0010
0000
0001
0000
0010
,
0000
0100
0000
0001
0000
1000
0001
0000
,
1000
1100
0001
0101
,
1000
0100
0001
0000
0001
0100
1000
0000
,
0002
0010
1003
0001
,
2000
0010
3001
1000
,
0002
0100
1003
0001
,
1000
0100
0010
1001
,
2000
0010
3100
1010
,
0002
0010
0103
0011
,
0001
0100
0010
0000
0010
0100
0001
0000
,
1000
0100
0001
0000
0001
0100
1000
0000
,
0010
0101
0010
1100
,
1000
0001
1000
0000
0010
0100
0010
0000
,
0100
0011
0100
1010
,
0010
1000
0100
0000
0010
0001
0100
0000
,
0010
0101
1001
0011
,
0100
1010
1001
1100
,
1000
0010
0001
0000
0001
0010
1000
0000
,
0001
0010
0100
0000
1000
0001
1000
0100
,
0000
0011
0000
0011
0000
0100
0000
0100
,
0000
1010
0000
1010
0000
0010
0000
0010
,
0000
1001
0000
1001
0000
0100
0000
0100
,
0000
1001
0000
1002
0000
0100
0103
0000
,
0001
0010
0001
0010
0000
0100
0010
0100
,
0000
1000
0100
1000
0000
0001
1000
0001
,
1000
0101
0001
1100
,
0010
1001
1001
1001
,
1000
0100
0001
0100
1000
0000
0000
0000
,
0001
0010
0001
0000
1000
0010
1000
0000
,
0001
0010
1000
0010
0001
0000
1000
0000
,
1002
0010
0100
1003
,
0001
0101
1000
1100
,
0010
0100
0010
0000
2000
0000
3001
0000
,
1000
0100
0001
0000
0100
1000
0001
0000
,
0100
0011
0100
1010
,
0001
0100
1000
0100
0001
0000
0000
0000
,
1000
0010
1000
0000
0001
0010
0001
0000
,
1000
0010
0001
0010
1000
0000
0001
0000
,
2001
0010
0100
3001
,
1000
1100
0001
0101
,
0010
0100
0010
0000
0002
0000
1003
0000
,
0001
0100
1000
0000
0100
0001
1000
0000
,
0100
1010
0100
0011
,
2001
0000
0100
0000
3100
1000
0001
0020
,
0000
0000
0100
0000
0100
1030
0001
2000
,
0000
0000
0000
3020
0000
0032
0000
2003
,
0000
3200
0000
0000
0310
0000
1001
0000
,
0001
0100
0001
0100
0000
0010
0100
0010
,
0000
1000
0010
1000
0000
0001
1000
0001
,
2000
0000
0000
3020
0000
0230
0000
0302
,
0000
0023
0000
0000
0100
0000
0130
0000
,
2002
0000
0000
0000
,
3003
0000
0000
0000
;

//---------------dance-double - ----------------
#NOTES:
     dance-double:
     Basic:
     Easy:
     5:
     0.211759,0.276959,0.008669,0.026006,0.000000,171.000000,170.000000,1.000000,3.000000,0.000000,0.000000,0.211759,0.276959,0.008669,0.026006,0.000000,171.000000,170.000000,1.000000,3.000000,0.000000,0.000000:
00000000
00000000
00000000
00000000
,
00000000
00000000
00000000
00000000
,
00000000
00000000
00000000
00000000
,
00000000
00000000
00000000
00000000
,
00000000
00000000
00000000
00000000
,
00000000
00000000
00000000
00000000
,
00001000
00000000
01000000
00000000
,
00100000
00000000
10000000
00000000
,
00010000
00000000
00100000
00000000
,
00001000
00010000
00000100
00000000
,
00001000
00000010
00001000
00000000
,
00000001
00000010
00000001
00000000
,
00001000
00000000
00000001
00000000
,
00000100
00000010
00000100
00000000
,
00000001
00000000
00000100
00000000
,
00000010
00000000
00010000
00000000
,
00001000
00000000
00100000
00000000
,
00010000
01000000
00100000
00000000
,
10000000
01000000
00100000
00000000
,
00010000
01000000
00100000
00000000
,
10000000
00010000
10000000
00000000
,
00001000
00010000
00001000
00010000
,
00000100
00000000
00001000
00000000
,
00000010
00000000
00010000
00000000
,
00001000
00000000
00100000
00000000
,
00010000
01000000
00100000
00000000
,
10000000
00000000
01000000
00000000
,
00100000
00000000
00001000
00000000
,
00010000
00000000
00000100
00000000
,
00001000
00000010
00000100
00000001
,
00001000
00000000
00000100
00000000
,
00000001
00000000
00000100
00000000
,
00010000
00000000
00001000
00000000
,
00100000
00010000
10000000
00000000
,
00100000
00000000
01000000
00000000
,
00001000
00010000
00000100
00000000
,
00001000
00000000
00000010
00001000
,
00000001
00000000
00000010
00000000
,
00000001
00000100
00000001
00000000
,
00001000
00000010
00001000
00000000
,
00000100
00010000
00000100
00000000
,
00100000
00001000
00100000
00000000
,
00010000
00000000
01000000
00000000
,
10000000
00000000
01000000
00000000
,
00100000
00000000
10000000
00000000
,
00010000
10000000
00010000
00000000
,
10000000
01000000
10000000
00000000
,
00010000
00000000
01000000
00000000
,
00001000
00010000
00000100
00000000
,
00001000
00000010
00000100
00000001
,
00001000
00000000
00000100
00000000
,
00000001
00000100
00001000
00000000
,
00000010
00000100
00000010
00000000
,
00010000
00001000
00010000
00000000
,
00001000
00100000
00010000
00000000
,
01000000
00100000
10000000
00000000
,
01000000
00010000
00001000
00000000
,
00000100
00000010
00001000
00000000
,
00000001
00000010
00000100
00001000
,
00000100
00000010
00000001
00000000
,
00001000
00000010
00000100
00000001
,
00001000
00000100
00010000
00001000
,
00200000
00000000
00000000
00000000
,
00300000
00000000
00000000
00000000
,
00010000
00000000
10000000
00000000
,
01000000
00100000
01000000
00000000
,
10000000
00100000
01000000
00000000
,
00010000
00100000
00001000
00000000
,
00010000
00000100
00001000
00000000
,
00000010
00000100
00000001
00000000
,
00002002
00000000
00000000
00000000
,
00003003
00000000
00000000
00000000
;

//---------------dance-double - ----------------
#NOTES:
     dance-double:
     Difficult:
     Medium:
     7:
     0.381415,0.400052,0.147365,0.485437,0.000000,308.000000,291.000000,17.000000,56.000000,0.000000,0.000000,0.381415,0.400052,0.147365,0.485437,0.000000,308.000000,291.000000,17.000000,56.000000,0.000000,0.000000:
00000000
00000000
00000000
00000000
,
00000000
00000000
00000000
00000000
,
00000000
00000000
00000000
00000000
,
00000000
00000000
00000000
00000000
,
00022000
00000000
00000000
00033000
,
00001000
00000000
00100000
00000000
00010000
10000000
01000000
00000000
,
20000000
00100000
31000000
10000000
,
00020000
00100000
01030000
00010000
,
20000000
01000000
30010000
10000000
,
01000000
00010000
00001000
00000100
,
00000020
00002030
00003002
00000023
,
00000230
00002300
00003002
00000203
,
00000320
00001030
00000200
00000320
,
00000031
00000100
00000010
00000000
00001000
00000100
00010000
00001000
,
00200000
00010000
00301000
00100000
,
00002000
00100000
00013000
00001000
,
00010000
00010100
00000100
00001100
,
00001000
00000010
00001000
00000000
00000001
00000010
00000001
00000000
,
00002000
00003200
00000302
00000203
,
00020300
00032000
00203000
00320000
,
10030000
01010000
00010000
11000000
,
00100000
01000000
00100000
00000000
10000000
00010000
10000000
00000000
,
00010000
01000000
10000000
01000000
,
00001000
00010000
00000100
00001000
,
00000010
00000001
00000010
00010000
,
00001000
00000000
00100000
00000000
00010000
10000000
01000000
00000000
,
20000000
00100000
31000000
10000000
,
00020000
00100000
01030000
00010000
,
00100000
00001000
00010000
00000100
,
00001000
00000001
00001001
00001001
,
00001000
00000010
00000001
00000010
,
00010000
00001000
00100000
00010000
,
01000000
10000000
01000000
00001000
,
00010000
00000000
00000100
00000000
00001000
00000001
00000010
00000000
,
00000002
00000100
00000013
00000001
,
00002000
00000100
00003010
00001000
,
00000100
00010000
00001000
00100000
,
00010000
00000000
10000000
00000000
10010000
00000000
10000000
00010000
,
00000000
01000000
00000000
10000000
00000000
01000000
00000000
00010000
,
00000000
00100000
00000000
00001000
00000000
00010000
00000000
00000100
,
00000000
00001000
00000000
00000010
00000000
00000100
00000000
00000001
,
00000000
00001000
00000000
00000002
00000000
00001000
00001003
00000000
,
00000001
00000000
00000010
00001000
00000000
00000010
00000000
00000001
,
00000000
00000100
00000000
00001000
00000000
00000100
00000010
00000000
,
00002000
00000001
00003001
00010000
,
00001000
10000000
00010000
10010000
,
10000000
00100000
01000000
00000000
00020000
00000000
10030000
00000000
,
01000000
00100000
01000000
00000000
10000000
00010000
10000000
00000000
,
00100000
10000000
00010000
00000000
00100000
00000000
00001000
00010000
,
00000100
00001100
00001000
00001001
,
00000002
00000010
00000103
00000001
,
00002000
00000010
00003100
00001000
,
00000001
00000100
00000010
00000000
00001000
00000010
00000100
00000000
,
00000001
00000101
00001000
00001100
,
00000100
00010000
00001000
00000000
00200000
00000000
00310000
00000000
,
01000000
00100000
01000000
00000000
00010000
10000000
00010000
00000000
,
10000000
01000000
00010000
00000000
00001000
00000000
00000100
00000001
,
00002000
00003200
00000320
00000032
,
00001003
00001010
00000001
00000011
,
00001000
00000001
00001000
00000000
00000020
00000000
00000130
00000000
,
00000001
00000100
00000010
00000000
00010000
00000000
00001000
00000000
,
00100000
10010000
01000000
10010000
,
20000000
00100000
31000000
10000000
,
00020000
00100000
01030000
00010000
,
20000000
01000000
30010000
10000000
,
01000000
00010000
00001000
00000100
,
00000020
00002030
00003002
00000023
,
00000230
00002300
00003002
00000203
,
00000320
00001030
00000200
00000320
,
00000031
00000100
00000010
00000000
00001000
00000100
00010000
00001000
,
00020000
00000000
00000000
00000000
,
00030000
00000000
00000000
00000000
;

//---------------dance-double - ----------------
#NOTES:
     dance-double:
     Expert:
     Hard:
     12:
     0.554785,0.553918,0.147365,1.204924,0.039008,448.000000,431.000000,17.000000,139.000000,0.000000,0.000000,0.554785,0.553918,0.147365,1.204924,0.039008,448.000000,431.000000,17.000000,139.000000,0.000000,0.000000:
00000000
00000000
00000000
00000000
,
00000000
00000000
00000000
00000000
,
00000000
00000000
00000000
00000000
,
00000000
00000000
00000000
00000000
,
00012000
01000000
00010000
01000000
,
00013000
00000000
00010000
00001000
00000000
00010000
00000000
00000100
00001000
00000000
00000010
00000000
00000100
00000000
00000001
00000000
,
00001002
00000000
00000010
00000000
00000103
00000001
00000100
00000020
,
00001000
00000000
00010000
00000000
00001030
00000010
00010000
00002000
,
00100000
00000000
00010000
00000000
01003000
00002000
02003000
03200000
,
00000000
10300000
00010000
20000000
00000000
01000000
31000000
00000000
,
20000000
32000000
03020000
02030000
00000000
03200000
00302000
00023000
,
00000000
00030200
00002300
00003002
00000000
00000203
00000320
00002030
,
00003002
00000000
00000010
00000000
00000013
00002000
00023000
00230000
,
00000000
01000000
01300000
00020000
00000000
10000000
10030000
00000000
,
21000000
00000000
00010000
00000000
31000000
10000000
00010000
02000000
,
00001000
00000000
00010000
00000000
03001000
01000000
00001000
00020000
,
00000100
00000000
00031000
00002000
00000000
00003020
00000000
00000032
,
00000000
00001003
00002000
00000000
00003100
00000001
00000100
00001000
,
00000020
00020030
00032000
00203000
00000000
00320000
02030000
23000000
,
00000000
30020000
00230000
20300000
00000000
30020000
00230000
02300000
,
23000000
00000000
30100000
00200000
00000000
00320000
00000000
00032000
,
00000000
00000010
00003020
00000000
00000031
00001000
00000100
00001000
,
00000010
00000100
00001000
00000100
00000010
00001000
00000100
00000010
,
00001000
00000010
00000100
00001000
00000010
00000100
00001000
00010000
,
00100000
01000000
00010000
00100000
01000000
00010000
01000000
00100000
,
00010000
01000000
00100000
00010000
00001000
00000100
00000010
00000000
,
00001000
00000100
00000001
00000100
00010000
00000010
00001000
00000001
,
00000100
00001000
00010000
00000010
00000100
00000001
00001000
00000000
,
00000001
00000100
00001000
00010000
01000000
00010000
00001000
00000010
,
00000001
00000010
00001000
00010000
00100000
10000000
00010000
00000000
,
00100000
01000000
00010000
01000000
00100000
00010000
01000000
00100000
,
00010000
00100000
01000000
00010000
00100000
01000000
00010000
00001000
,
00000010
00000100
00001000
00000010
00000100
00001000
00000100
00000010
,
00001000
00000100
00000010
00001000
00010000
01000000
00100000
00000000
,
00010000
01000000
10000000
01000000
00001000
00100000
00010000
10000000
,
01000000
00010000
00001000
00100000
01000000
10000000
00010000
00000000
,
10000000
01000000
00010000
00001000
00000100
00001000
00010000
00100000
,
10000000
00100000
00010000
00001000
00000010
00000001
00001000
00001002
,
00000000
00000103
00001000
00000200
00000000
00001300
00010000
00002000
,
00000000
00013000
00100000
00020000
00000000
00130000
01000000
00200000
,
00000000
10300000
00100000
20000000
00000000
31000000
00010000
00002000
,
00000000
00003100
00000010
00002000
00000000
00000001
00003001
00000000
,
00002000
00003200
00000302
00000203
00000000
00020300
00032000
00203000
,
00000000
00320000
02030000
23000000
00000000
30020000
00230000
10300000
,
00020000
00000000
10030000
00000000
00000000
10100000
00000000
01010000
,
00000000
00011000
00000000
00001100
00000000
00002002
00000000
00003003
,
00000002
00000203
00002300
00003200
00000320
00000000
00001030
00000200
,
00000302
00000203
00020300
00032000
00000000
00103000
10010000
00000000
,
20000000
30200000
00320000
00230000
02300000
00000000
03002000
00023000
,
00030100
00000000
00000000
00000100
00000010
00000000
00000000
00000010
00000001
00000000
00000000
00000001
00001000
00000000
00000100
00000000
,
00000010
00000000
00001100
00000000
00001002
00000000
00000103
00001000
,
00010000
01000000
00010000
00001000
00000200
00000000
00000310
00000000
,
00001000
00000100
00000001
00000100
00010000
00001000
00100000
00010000
,
01000000
10000000
00010000
00100000
01000000
00001000
00010000
00100000
,
20000000
32000000
03020000
02030000
03200000
00000000
00310000
02000000
,
23000000
32000000
03002000
00023000
00000000
00030010
00001001
00000000
,
00000002
00000023
00002030
00003020
00000230
00000000
00020300
00032000
,
01003000
00000000
00000000
01000000
00100000
00000000
00000000
00100000
10000000
00000000
00000000
10000000
00010000
00000000
01000000
00000000
,
00100000
00000000
01010000
00000000
20010000
00000000
31000000
00010000
,
00001000
00000100
00001000
00010000
02000000
00000000
03100000
00000000
,
00010000
01000000
10000000
01000000
00001000
00010000
00000010
00001000
,
00000100
00000001
00001000
00000010
00000100
00010000
00001000
00100000
,
21000000
00000000
00010000
00000000
31000000
10000000
00010000
02000000
,
00001000
00000000
00010000
00000000
03001000
01000000
00001000
00020000
,
00000100
00000000
00031000
00002000
00000000
00003020
00000000
00000032
,
00000000
00001003
00002000
00000000
00003100
00000001
00000100
00001000
,
00000020
00020030
00032000
00203000
00000000
00320000
02030000
23000000
,
00000000
30020000
00230000
20300000
00000000
30020000
00230000
02300000
,
23000000
00000000
30100000
00200000
00000000
00320000
00000000
00032000
,
00000000
00000010
00003020
00000000
00000031
00001000
00000100
00001000
,
00002002
00000000
00000000
00000000
,
00003003
00000000
00000000
00000000
;

//---------------para-single - ----------------
#NOTES:
     para-single:
     Freestyle [Expert]:
     Challenge:
     6:
     0.492867,0.485437,0.364078,0.234050,0.013003,398.000000,356.000000,42.000000,27.000000,0.000000,0.000000,0.492867,0.485437,0.364078,0.234050,0.013003,398.000000,356.000000,42.000000,27.000000,0.000000,0.000000:
// measure 0
00000
00000
00000
00000
,  // measure 1
00000
00000
00000
00000
,  // measure 2
00000
00000
00000
00000
,  // measure 3
00000
00000
00000
00000
,  // measure 4
00000
00000
00000
00000
,  // measure 5
00000
00000
00000
00000
,  // measure 6
10200
00000
01000
00000
10300
01000
00100
00020
,  // measure 7
01000
00000
10000
00000
01030
00100
00010
00002
,  // measure 8
00100
00000
01000
00000
00103
00010
00100
02000
,  // measure 9
00000
03001
00000
00020
00000
10030
00000
00100
,  // measure 10
00010
10000
00100
10000
00000
00001
00100
00001
,  // measure 11
00000
01000
00010
00001
00000
00010
01000
10000
,  // measure 12
00200
00000
01000
00000
01000
10300
01000
00200
,  // measure 13
00010
00000
00000
00000
00010
00000
00302
00000
01000
00000
00003
01000
00010
00000
01000
00000
,  // measure 14
00201
00000
00010
00000
00301
00010
00100
02000
,  // measure 15
00010
00000
00001
00000
03010
00100
01000
20000
,  // measure 16
00100
00000
00010
30001
00000
10010
00000
01001
,  // measure 17
00000
00200
00000
00310
01000
00010
01000
00100
,  // measure 18
01000
00001
00100
00001
00000
10000
00100
10000
,  // measure 19
00000
00010
01000
10000
00000
01000
00010
00001
,  // measure 20
00200
00000
00310
01001
00000
10010
00000
00100
,  // measure 21
01000
00000
00000
10000
00000
00000
00010
00000
00001
00000
00100
00000
01000
00000
10000
00000
,  // measure 22
01000
00100
00010
00000
01000
00100
00010
00001
,  // measure 23
00000
00110
00000
10010
00000
00100
00000
01001
,  // measure 24
00000
00010
01000
00100
10000
01000
00100
00010
,  // measure 25
00000
00010
00100
01000
00000
10001
00000
00000
,  // measure 26
00020
00000
00130
00100
00000
02000
00000
03100
,  // measure 27
00100
00010
00000
01000
00000
00000
00000
00000
,  // measure 28
10100
00000
00010
00101
00000
01000
00000
10100
,  // measure 29
00010
00000
00001
00000
00100
01000
10000
00000
,  // measure 30
00010
00100
01000
00000
00010
00100
01000
10000
,  // measure 31
00000
01100
00000
01001
00000
00100
00000
10010
,  // measure 32
00000
01000
00010
00100
00001
00010
00100
01000
,  // measure 33
00000
01000
00100
00010
00000
10001
00000
00000
,  // measure 34
02000
00000
03100
00100
00000
00020
00000
00130
,  // measure 35
00100
01000
00000
00010
00000
00000
00000
00000
,  // measure 36
00101
00000
01000
10100
00000
00010
00000
00101
,  // measure 37
01000
10000
00000
00100
00010
00001
01000
00100
,  // measure 38
00000
01000
10000
01000
00000
00100
00010
00100
,  // measure 39
00000
00001
00010
00001
00000
00010
00100
01000
,  // measure 40
00000
00100
00010
00001
00000
01000
00100
00010
,  // measure 41
00000
00100
01000
10000
00001
00000
10000
00000
,  // measure 42
00100
00010
00001
00010
00000
01000
10000
01000
,  // measure 43
00000
00100
00010
00001
00000
00010
00100
01000
,  // measure 44
20000
00000
00100
00000
00000
30010
00000
00101
,  // measure 45
00000
10100
00000
00101
00000
10100
00000
00000
,  // measure 46
00010
01000
00010
00100
01000
00000
00000
10000
,  // measure 47
01000
00100
00010
00001
00000
00100
00100
00000
,  // measure 48
00010
01000
00100
00010
00001
00000
00010
00100
,  // measure 49
01000
00000
10100
00000
00101
00000
01010
10001
,  // measure 50
00000
00000
10100
00000
00101
00000
00000
00001
,  // measure 51
00010
00100
01000
10000
00000
00000
00000
10000
,  // measure 52
01000
00100
00010
00001
00000
01000
00000
00020
,  // measure 53
00000
00100
02030
00100
00000
03010
10001
00000
,  // measure 54
01000
00010
01000
00100
00010
00000
00000
00001
,  // measure 55
00010
00100
01000
10000
00000
00100
00100
00000
,  // measure 56
01000
00010
00100
01000
10000
00000
01000
00100
,  // measure 57
00010
00000
00101
00000
10100
00000
01010
10001
,  // measure 58
00000
00000
00101
00000
10100
00000
00000
10000
,  // measure 59
01000
00100
00010
00001
00000
00000
00000
00001
,  // measure 60
00010
00100
01000
10000
00000
00010
00000
02000
,  // measure 61
00000
00100
03020
00100
00000
01000
00130
00200
,  // measure 62
00000
00000
01000
00000
10300
01000
00100
00020
,  // measure 63
01000
00000
10000
00000
01030
00100
00010
00002
,  // measure 64
00100
00000
01000
10003
00000
01001
00000
10010
,  // measure 65
00000
00200
00000
01300
00010
01000
00010
00100
,  // measure 66
00010
10000
00100
10000
00000
00001
00100
00001
,  // measure 67
00000
01000
00010
00001
00000
00010
01000
10000
,  // measure 68
00200
00000
01300
10010
00000
01001
00000
00100
,  // measure 69
00010
00000
00000
00001
00000
00000
01000
00000
10000
00000
00100
00000
00010
00000
01000
00000
,  // measure 70
10001
00000
00000
00000
;

//---------------para-single - ----------------
#NOTES:
     para-single:
     Freestyle [Hard]:
     Hard:
     4:
     0.297206,0.424757,0.156033,0.242718,0.000000,240.000000,222.000000,18.000000,28.000000,0.000000,0.000000,0.297206,0.424757,0.156033,0.242718,0.000000,240.000000,222.000000,18.000000,28.000000,0.000000,0.000000:
00000
00000
00000
00000
,
00000
00000
00000
00000
,
00000
00000
00000
00000
,
00000
00000
00000
00000
,
00000
00000
00000
00000
,
00000
00000
00000
00000
,
02020
00000
00000
00000
03030
00100
00010
00002
,
00000
00000
00000
00000
00003
00100
01000
20000
,
00000
00000
00000
00000
30000
01000
00100
00020
,
00000
00000
00030
20002
00000
00000
30003
00000
,
00010
00000
01000
00100
00000
00010
00000
01000
,
00000
00001
00000
10000
00000
00100
00000
00010
,
00200
00000
00000
00000
00300
00010
00100
02000
,
00000
00000
00000
00020
00000
00000
03030
00000
,
02020
00000
00000
00000
03030
00100
01000
20000
,
00000
00000
00000
00000
30000
00100
00010
00002
,
00000
00000
00000
00013
00000
00100
00000
01000
,
00000
20002
00000
00000
30003
00000
00000
00000
,
01000
00000
00010
00100
00000
01000
00000
00010
,
00000
10000
00000
00001
00000
00100
00000
01000
,
00200
00000
00300
01000
00000
00100
00000
00020
,
00000
02000
00000
00000
00000
00000
03030
00000
,
01000
00001
01000
00001
,
00100
00100
00100
00000
,
00010
10000
00010
10000
,
00100
00100
00100
00000
,
01000
00100
00010
00000
,
00010
00100
01000
00000
,
00010
00010
01000
01000
,
00010
00010
01000
01000
,
00010
10000
00010
10000
,
00100
00100
00100
00000
,
01000
00001
01000
00001
,
00100
00100
00100
00000
,
00010
00100
01000
00000
,
01000
00100
00010
00000
,
01000
01000
00010
00010
,
01000
00000
01000
00000
00010
00000
00000
00100
,
00000
00100
00000
00010
00000
00010
00000
01000
,
00000
01000
00000
00100
00000
00100
00000
10000
,
00000
00001
00000
10000
00000
00001
00000
01000
,
00000
00100
00000
00010
00000
00000
00000
00000
,
01000
00010
01000
00010
,
00010
01000
00010
01000
,
10000
00001
00100
00100
,
00001
10000
00100
00100
,
00010
00000
01000
00100
00010
00000
00000
00000
,
00001
00001
00001
00000
,
01000
00000
00010
00100
01000
00000
10000
00000
,
10010
01001
10010
01001
,
00100
00100
01010
00000
,
00100
00100
10001
00000
,
00001
00010
00100
01000
,
10000
00000
00001
00010
00100
00000
00000
00000
,
01000
00000
00010
00100
01000
00000
00000
00000
,
10000
10000
10000
00000
,
00010
00000
01000
00100
00010
00000
00001
00000
,
01001
10010
01001
10010
,
00100
00100
01010
00000
,
00100
00100
10001
00000
,
10000
01000
00100
00010
,
00001
00000
10000
01000
00100
00000
00000
00000
,
02020
00000
00000
00000
03030
00100
00010
00002
,
00000
00000
00000
00000
00003
00100
01000
20000
,
00000
00000
00000
31000
00000
00100
00000
00010
,
00000
20002
00000
00000
30003
00000
00000
00000
,
00010
00000
01000
00100
00000
00010
00000
01000
,
00000
00001
00000
10000
00000
00100
00000
00010
,
00200
00000
00300
00010
00000
00100
00000
02000
,
00000
00020
00000
00000
00000
00000
03030
00000
,
00100
00000
00000
00000
;

//---------------para-single - ----------------
#NOTES:
     para-single:
     Freestyle [Normal]:
     Medium:
     2:
     0.247672,0.303398,0.095354,0.078017,0.000000,200.000000,189.000000,11.000000,9.000000,0.000000,0.000000,0.247672,0.303398,0.095354,0.078017,0.000000,200.000000,189.000000,11.000000,9.000000,0.000000,0.000000:
00000
00000
00000
00000
,
00000
00000
00000
00000
,
00000
00000
00000
00000
,
00000
00000
00000
00000
,
00000
00000
00000
00000
,
00000
00000
00000
00000
,
00200
00300
00010
10000
,
00020
00030
01000
00001
,
02000
03000
00010
00100
,
01000
00000
00100
00000
,
01000
01000
01000
00000
,
00010
00010
00010
00000
,
10001
00000
00100
00010
,
00001
00000
01010
00000
,
00200
00300
01000
00001
,
02000
03000
00010
10000
,
00020
00030
01000
00100
,
00010
00000
00100
00000
,
00010
00010
00010
00000
,
01000
01000
01000
00000
,
10001
00000
00100
01000
,
10000
00000
01010
00000
,
00010
00000
00100
00000
,
00010
00000
00100
00000
,
01000
00100
00010
00001
,
00000
00000
00100
00000
,
00010
01000
00010
00000
,
01000
00010
01000
00000
,
00100
01000
10000
00100
,
00010
00001
10000
00000
,
01000
00000
00100
00000
,
01000
00000
00100
00000
,
00010
00100
01000
10000
,
00000
00000
00100
00000
,
01000
00010
01000
00000
,
00010
01000
00010
00000
,
00100
00010
00001
00100
,
01000
00000
10000
00000
00001
00000
00000
01000
,
00000
00000
00000
01000
00000
00000
00000
00010
,
00000
00000
00000
00010
00000
00000
00000
01000
,
00000
00100
00000
00010
00000
00000
00000
00010
,
00000
00100
00000
01000
00000
00000
00000
00000
,
01000
00100
00010
00000
,
00010
00100
01000
00000
,
00010
00010
01000
01000
,
00100
00000
10001
00000
,
00100
00100
00100
00000
,
01000
00100
00010
00001
,
00100
00100
00100
00000
,
00010
00100
01000
10000
,
00010
01000
01010
00000
,
01000
00010
01010
00000
,
10000
00100
10000
10000
,
00001
00100
00001
00001
,
00100
00100
00100
00000
,
00010
00100
01000
10000
,
00100
00100
00100
00000
,
01000
00100
00010
00001
,
01000
00010
01010
00000
,
00010
01000
01010
00000
,
00001
00100
00001
00001
,
10000
00100
10000
10000
,
00200
00300
00010
10000
,
00020
00030
01000
00001
,
02000
03000
00010
00100
,
01000
00000
00100
00000
,
01000
01000
01000
00000
,
00010
00010
00010
00000
,
10001
00000
00100
00010
,
00001
00000
01010
00000
,
00100
00000
00000
00000
;
