#VERSION:0.83;
#TITLE:One More Chance;
#SUBTITLE:;
#ARTIST:Odyssey Eurobeat;
#TITLETRANSLIT:;
#SUBTITLETRANSLIT:;
#ARTISTTRANSLIT:;
#GENRE:DETERMINED EUROBEAT;
#ORIGIN:;
#CREDIT:;
#BANNER:One More Chance.png;
#BACKGROUND:One More Chance-bg.png;
#PREVIEWVID:;
#JACKET:One More Chance-jacket.png;
#CDIMAGE:;
#DISCIMAGE:;
#LYRICSPATH:One More Chance.lrc;
#CDTITLE:One More Chance-cdtitle.png;
#MUSIC:One More Chance.ogg;
#OFFSET:-0.002465;
#SAMPLESTART:51.197735;
#SAMPLELENGTH:17.219999;
#SELECTABLE:YES;
#BPMS:0.000=150.000;
#STOPS:;
#DELAYS:;
#WARPS:;
#TIMESIGNATURES:0.000=4=4;
#TICKCOUNTS:0.000=4;
#COMBOS:0.000=1;
#SPEEDS:0.000=1.000=0.000=0;
#SCROLLS:0.000=1.000;
#FAKES:;
#LABELS:0.000=Song Start,
32.000=Intro 1,
64.000=A Melo,
96.000=B Melo,
128.000=Sabi,
160.000=Intro 2,
192.000=Intro 3,
224.000=Lead-out,
256.000=Song End;
#BGCHANGES:16.000=cube12.avi=1.000=1=0=1===CrossFade==,
28.000=wheel4.avi=1.000=0=0=1=====,
32.000=tunnel10.avi=1.000=0=0=1=====,
48.000=tunnel15.avi=1.000=0=0=1=====,
64.000=geometry1.avi=1.000=0=0=1=====,
72.000=highway1.avi=1.000=0=0=1=====,
80.000=countdown1.avi=1.000=0=0=1=====,
88.000=tunnel7.avi=1.000=0=0=1=====,
96.000=vortex1r.avi=1.000=0=0=1=====,
112.000=text7.avi=1.000=0=0=1=====,
120.000=chain1.avi=1.000=0=0=1=====,
128.000=wheel1.avi=1.000=0=0=1=====,
136.000=wheel4.avi=1.000=0=0=1=====,
144.000=tunnel6.avi=1.000=0=0=1=====,
152.000=wires1.avi=1.000=0=0=1=====,
160.000=tunnel10.avi=1.000=0=0=1=====,
176.000=tunnel15.avi=1.000=0=0=1=====,
192.000=wheel1.avi=1.000=0=0=1=====,
200.000=wheel4.avi=1.000=0=0=1=====,
208.000=tunnel6.avi=1.000=0=0=1=====,
216.000=wheel5.avi=1.000=0=0=1=====,
224.000=tunnel9.avi=1.000=0=0=1=====,
240.000=wheel3.avi=1.000=0=0=1=====,
252.000=highway1.avi=1.000=0=0=1=====,
256.000=One More Chance-bg.png=1.000=0=0=1=====,
99999=-nosongbg-=1.000=0=0=0 // don't automatically add -songbackground-
;
#KEYSOUNDS:;
#ATTACKS:
;

//---------------dance-single - ----------------
#NOTEDATA:;
#CHARTNAME:Expert;
#STEPSTYPE:dance-single;
#DESCRIPTION:;
#CHARTSTYLE:;
#DIFFICULTY:Hard;
#METER:11;
#RADARVALUES:0.510204,0.609375,0.491071,0.428571,0.178571,400.000000,345.000000,55.000000,48.000000,0.000000,0.000000,0.000000,0.000000,0.000000,0.510204,0.609375,0.491071,0.428571,0.178571,400.000000,345.000000,55.000000,48.000000,0.000000,0.000000,0.000000,0.000000,0.000000;
#CREDIT:BlindedVanguard573;
#NOTES:
0000
0000
0000
0000
,
0000
0000
0000
0000
,
0000
0000
0000
0000
,
0000
0000
0000
0000
,
1000
0100
1000
0100
0000
0001
0100
0001
,
0200
0310
0002
1003
,
0001
0100
0001
0100
0000
1000
0100
0010
,
2000
0000
0000
3001
,
1000
0000
0001
0000
0000
0100
0000
0001
0000
0100
0000
0000
0010
0000
0100
0000
,
0001
0000
1000
0000
0000
0100
0000
1000
0000
0100
0000
0000
0010
0000
0100
0000
,
1000
0000
0001
0000
0000
0100
0000
0010
0000
0100
0000
0000
0001
0000
1000
0000
,
0001
0000
0000
0010
0000
0000
2000
0000
0000
0000
3010
0000
0001
0000
1000
0000
,
0001
0000
0100
0000
0000
0010
0000
1000
0000
0001
0000
0000
0100
0000
0010
0000
,
1000
0000
0100
0000
0000
0010
0000
0001
0000
1000
0000
0000
0010
0000
0100
0000
,
0001
0000
0100
0000
0000
1000
0000
0100
0000
0001
0000
0000
1000
0000
0001
0000
,
1000
0000
0000
0010
0000
0000
0002
0000
0000
0000
0013
0000
1000
0000
0001
0000
,
0000
1000
0100
1000
0100
0010
0000
2000
,
0000
3020
0000
0032
0000
2003
0000
3100
,
0000
1000
0010
1000
0010
0100
1000
0200
,
0000
0302
0000
2003
0000
3200
0000
0300
,
0000
1000
0010
1000
0010
0001
0010
0002
,
0000
0023
0000
0230
0000
0302
0000
2003
,
0000
3001
0010
0001
0010
1000
0010
2000
,
0000
3020
0000
0032
0000
2003
0000
3000
,
0000
0001
0100
0010
0100
0001
0000
1100
,
0000
0011
0000
1100
0000
1000
0010
0100
,
0002
0000
0203
0000
1300
1000
0020
0000
,
0031
0201
2300
3002
,
0013
1000
0100
0010
0100
1000
0001
0101
,
0000
1010
0000
0101
0000
1000
0001
1000
,
0002
0000
0203
0000
1300
2000
3002
0000
,
0013
1000
0010
1000
0200
0000
0300
0000
,
1100
0000
0011
0000
1100
0100
1000
0001
,
0101
0101
0000
1010
0000
0010
1000
0001
,
0011
0000
1100
0000
0011
0001
0100
1000
,
0100
0001
1000
0001
0000
1000
0100
0010
,
0011
0000
1100
0000
0011
0001
0100
0010
,
1010
1010
0000
0101
0000
0001
1000
0001
,
0011
0000
1100
0000
1001
0001
0100
0201
,
0000
0310
0000
1200
0000
0010
0000
0301
,
1000
0000
0100
0000
0000
0001
0000
0100
0000
1000
0000
0000
0010
0000
0100
0000
,
0001
0000
0100
0000
0000
1000
0000
0100
0000
0001
0000
0000
0010
0000
0100
0000
,
1000
0000
0100
0000
0000
0001
0000
0100
0000
0001
0000
0000
0100
0000
0010
0000
,
0001
0000
0000
0101
0000
0000
2010
0000
0000
0000
3001
0000
1001
0000
1000
0000
,
0001
0000
0010
0000
0000
1000
0000
0010
0000
0001
0000
0000
0100
0000
0010
0000
,
1000
0000
0100
0000
0000
0001
0000
0100
0000
1000
0000
0000
0010
0000
0100
0000
,
0001
0000
0100
0000
0000
1000
0000
0100
0000
1000
0000
0000
0100
0000
0010
0000
,
1000
0000
0000
1100
0000
0000
0012
0000
0000
0000
1003
0000
1001
0000
0001
0000
,
0101
0000
1010
0000
0110
0010
1000
0001
,
0011
0011
0000
1100
0000
1000
0001
0100
,
1010
0000
0101
0000
0110
0010
0100
0001
,
0010
1000
0001
0200
0000
0310
0001
1000
,
1010
0000
0101
0000
0110
0100
0001
1000
,
1100
1100
0000
0011
0000
0001
1000
0010
,
0101
0000
1010
0000
0110
0010
1000
2010
,
0000
3100
0000
0012
0000
0103
0000
2002
,
0000
0000
0000
0000
,
0000
3003
0000
0000
,
1000
0100
1000
0100
0000
0001
0100
1000
,
0002
0000
1003
0001
1000
0010
0001
0010
,
1000
0010
1000
0010
0000
0100
1000
0100
,
0002
0013
0200
1300
,
0001
0010
0001
0010
0000
1000
0010
0100
,
2000
0000
3000
0001
0100
1000
0100
0001
,
2002
0000
0000
0000
,
3003
0000
0000
0000
;

//---------------dance-double - ----------------
#NOTEDATA:;
#CHARTNAME:Expert;
#STEPSTYPE:dance-double;
#DESCRIPTION:;
#CHARTSTYLE:;
#DIFFICULTY:Hard;
#METER:11;
#RADARVALUES:0.501275,0.522321,0.321429,0.473214,0.178571,393.000000,357.000000,36.000000,53.000000,0.000000,0.000000,0.000000,0.000000,0.000000,0.501275,0.522321,0.321429,0.473214,0.178571,393.000000,357.000000,36.000000,53.000000,0.000000,0.000000,0.000000,0.000000,0.000000;
#CREDIT:BlindedVanguard573;
#NOTES:
00000000
00000000
00000000
00000000
,
00000000
00000000
00000000
00000000
,
00000000
00000000
00000000
00000000
,
00000000
00000000
00000000
00000000
,
00001000
01000000
00100000
01000000
00000000
00001000
00010000
00001000
,
00020000
00030200
00002300
00003002
,
00000103
00000010
00010000
00000010
00000000
00000100
00000001
00001000
,
00002002
00000000
00000000
00003003
,
00000001
00000000
00000100
00000000
00000000
00000010
00000000
00010000
00000000
00000010
00000000
00000000
00000100
00000000
00000001
00000000
,
00001000
00000000
00000100
00000000
00000000
00000001
00000000
00000100
00000000
00001000
00000000
00000000
00000010
00000000
00010000
00000000
,
00001000
00000000
00100000
00000000
00000000
00010000
00000000
01000000
00000000
10000000
00000000
00000000
01000000
00000000
00100000
00000000
,
20000000
00000000
00000000
32000000
00000000
00000000
03020000
00000000
00000000
00000000
01030000
00000000
10000000
00000000
00010000
00000000
,
10000000
00000000
01000000
00000000
00000000
00100000
00000000
00001000
00000000
00100000
00000000
00000000
01000000
00000000
10000000
00000000
,
00010000
00000000
01000000
00000000
00000000
10000000
00000000
01000000
00000000
00010000
00000000
00000000
00100000
00000000
00001000
00000000
,
00010000
00000000
00000010
00000000
00000000
00001000
00000000
00000100
00000000
00000001
00000000
00000000
00000100
00000000
00000010
00000000
,
00000002
00000000
00000000
00000203
00000000
00000000
00002300
00000000
00000000
00000000
00003100
00000000
00000001
00000000
00001000
00000000
,
00000000
00000001
00000010
00000001
00000010
00001000
00000000
00020000
,
00000000
00230000
00000000
20300000
00000000
30200000
00000000
00320000
,
00000000
00130000
01000000
00100000
01000000
00010000
10000000
01000000
,
00000000
00210000
00000000
10000000
00000000
01000000
01300000
00000000
,
10000000
01000000
00010000
01000000
00010000
00001000
00000100
00000020
,
00000000
00000130
00000000
00000101
00000000
00001010
00000000
00001002
,
00000000
00000103
00001000
00000100
00001000
00010000
00100000
01000000
,
00000000
02010000
00000000
10000000
00000000
00100000
03100000
00000000
,
10000000
01000000
00010000
00001000
00010000
01000000
00000000
11000000
,
00000000
01010000
00000000
10010000
00000000
00010000
10000000
00001000
,
00020000
00000000
00030200
00000000
00001300
00001000
00000020
00000000
,
00000230
00000001
00001000
00000010
,
00000301
00000100
00000001
00000100
00001000
00000100
00001000
00010000
,
00000000
00110000
00000000
10100000
00000000
10000000
00010000
10000000
,
00020000
00000000
20030000
00000000
30001000
00001000
00020000
00000000
,
00030010
00000100
00000010
00000100
00000002
00000000
00001003
00000000
,
00000011
00000000
00001100
00000000
00000011
00000001
00001000
00000010
,
00000100
00000100
00000000
00001001
00000000
00000001
00000100
00001000
,
00001100
00000000
00011000
00000000
00001100
00000100
00001000
00010000
,
00100000
01000000
00010000
20000000
00000000
31000000
00100000
00010000
,
11000000
00000000
00110000
00000000
11000000
10000000
00100000
00010000
,
00100000
00100000
00000000
10010000
00000000
10000000
01000000
00010000
,
00011000
00000000
01010000
00000000
00011000
00001000
00000100
00000120
,
00000000
00001030
00000000
00000210
00000000
00000001
00000000
00001000
,
00000301
00000000
00000100
00000000
00000000
00000010
00000000
00010000
00000000
00000010
00000000
00000000
00000100
00000000
00000001
00000000
,
00001000
00000000
00000100
00000000
00000000
00000001
00000000
00000100
00000000
00001000
00000000
00000000
00000010
00000000
00010000
00000000
,
00001000
00000000
00100000
00000000
00000000
00010000
00000000
01000000
00000000
10000000
00000000
00000000
01000000
00000000
00100000
00000000
,
20000000
00000000
00000000
32000000
00000000
00000000
03020000
00000000
00000000
00000000
01030000
00000000
10000000
00000000
00010000
00000000
,
10000000
00000000
01000000
00000000
00000000
00100000
00000000
00001000
00000000
00100000
00000000
00000000
01000000
00000000
10000000
00000000
,
00010000
00000000
01000000
00000000
00000000
10000000
00000000
01000000
00000000
00010000
00000000
00000000
00100000
00000000
00001000
00000000
,
00010000
00000000
00000010
00000000
00000000
00001000
00000000
00000100
00000000
00000001
00000000
00000000
00000100
00000000
00000010
00000000
,
00000002
00000000
00000000
00000203
00000000
00000000
00002300
00000000
00000000
00000000
00003100
00000000
00000001
00000000
00001000
00000000
,
00000001
00000100
00001000
00010000
00001000
00000100
00000010
00010000
,
00001000
00011000
00000000
00012000
00000000
00103000
00010000
10000000
,
00010000
01000000
10000000
01000000
00001000
00010000
00000100
00001000
,
00000020
00000032
00000023
00000230
00000000
00000301
00001000
00000001
,
00001000
00000100
00000001
00000100
00010000
00001000
00100000
00010000
,
01000000
01100000
00000000
10020000
00000000
01030000
10000000
01000000
,
00100000
10000000
00001000
00010000
00000100
00001000
00000010
00000021
,
00000000
00001030
00000000
00001010
00000000
00001100
00000000
00002002
,
00000000
00000000
00000000
00000000
,
00000000
00003003
00000000
00000000
,
00000001
00000100
00001000
00000100
00000000
00001000
00010000
01000000
,
20000000
00000000
30010000
10000000
00010000
01000000
10000000
01000000
,
00001000
00010000
00001000
00010000
00000000
00000100
00001000
00000010
,
00000200
00000310
00002000
00003001
,
00001000
00000100
00000001
00000100
00000000
00010000
00001000
00100000
,
00020000
00000000
00030000
10000000
00100000
00010000
01000000
10000000
,
20020000
00000000
00000000
00000000
,
30030000
00000000
00000000
00000000
;

//---------------dance-single - ----------------
#NOTEDATA:;
#CHARTNAME:Beginner;
#STEPSTYPE:dance-single;
#DESCRIPTION:;
#CHARTSTYLE:;
#DIFFICULTY:Beginner;
#METER:2;
#RADARVALUES:0.173469,0.199219,0.008929,0.044643,0.000000,136.000000,135.000000,1.000000,5.000000,0.000000,0.000000,0.000000,0.000000,0.000000,0.173469,0.199219,0.008929,0.044643,0.000000,136.000000,135.000000,1.000000,5.000000,0.000000,0.000000,0.000000,0.000000,0.000000;
#CREDIT:BlindedVanguard573;
#NOTES:
0000
0000
0000
0000
,
0000
0000
0000
0000
,
0000
0000
0000
0000
,
0000
0000
0000
0000
,
1000
0000
0001
0000
,
0100
0000
0010
0010
,
0010
0000
0100
0000
,
2002
0000
0000
3003
,
1000
0000
0001
0000
,
0100
0000
0010
0000
,
1000
0000
0001
0000
,
0010
0010
0010
0000
,
0001
0000
0100
0000
,
0010
0000
1000
0000
,
0100
0000
0010
0000
,
0100
0100
0100
0000
,
1000
0000
1000
0000
,
0001
0000
0001
0000
,
0100
0000
0100
0000
,
0010
0010
0010
0000
,
1000
0000
1000
0000
,
0001
0000
0001
0000
,
0010
0000
0010
0000
,
0100
0100
0100
0000
,
0010
0000
0001
0000
,
0100
0000
0010
0000
,
1000
0000
0001
0001
,
0002
0000
0000
0003
,
0010
0000
0100
0000
,
1000
0000
0001
0000
,
0100
0000
0010
0010
,
0020
0000
0000
0030
,
0100
0000
0001
0000
,
1000
1000
1000
0000
,
0100
0000
0010
0000
,
0100
0100
0100
0000
,
1000
0000
0001
0000
,
0010
0010
0010
0000
,
0001
0000
1000
0000
,
0100
0100
0100
0000
,
1000
0000
0010
0000
,
0001
0000
0010
0000
,
0100
0000
0001
0000
,
1000
1000
1000
0000
,
0001
0000
0010
0000
,
1000
0000
0010
0000
,
0100
0000
1000
0000
,
0001
0001
0001
0000
,
1000
0000
0010
0000
,
0100
0100
0100
0000
,
0010
0000
1000
0000
,
0001
0001
0001
0000
,
0010
0000
0100
0000
,
1000
1000
1000
0000
,
0001
0000
0100
0000
,
0010
0010
0010
0010
,
0020
0000
0000
0000
,
0000
0030
0000
0000
,
1000
0000
0010
0000
,
0100
0000
0001
0001
,
0001
0000
0010
0000
,
0100
0100
0100
0000
,
0010
0000
0001
0000
,
1000
0000
0010
0010
;

//---------------dance-single - ----------------
#NOTEDATA:;
#CHARTNAME:Basic;
#STEPSTYPE:dance-single;
#DESCRIPTION:;
#CHARTSTYLE:;
#DIFFICULTY:Easy;
#METER:6;
#RADARVALUES:0.303571,0.319196,0.098214,0.160714,0.000000,238.000000,227.000000,11.000000,18.000000,0.000000,0.000000,0.000000,0.000000,0.000000,0.303571,0.319196,0.098214,0.160714,0.000000,238.000000,227.000000,11.000000,18.000000,0.000000,0.000000,0.000000,0.000000,0.000000;
#CREDIT:BlindedVanguard573;
#NOTES:
0000
0000
0000
0000
,
0000
0000
0000
0000
,
0000
0000
0000
0000
,
0000
0000
0000
0000
,
1000
0100
0001
0100
,
2000
0001
0001
3001
,
1000
0010
0001
0010
,
2002
0000
0000
3003
,
0001
0100
0010
0010
,
0100
0001
0010
0010
,
0100
1000
0001
0001
,
0100
0010
0100
1001
,
1000
0010
0100
0100
,
0010
1000
0100
0100
,
0010
0001
1000
1000
,
0010
0100
0010
1001
,
0001
0100
1000
0100
,
0010
0100
0001
1000
,
0100
0010
0100
1000
,
0001
0001
1000
1000
,
0001
0010
1000
0010
,
0001
0010
0100
1000
,
0001
0100
1000
0100
,
0010
0010
0100
0100
,
0001
0010
0001
0010
,
0100
0001
0100
0001
,
0100
1000
0010
0100
,
0020
0100
0100
0130
,
0001
0100
1000
0100
,
0010
1000
0001
0010
,
0100
1000
0010
0100
,
0002
1000
1003
0001
,
1000
0100
0001
0100
,
1000
0001
2002
3003
,
1000
0010
0001
0010
,
1000
0001
2002
3003
,
0001
0100
1000
0010
,
1000
0100
0202
0303
,
0001
0010
1000
0010
,
0001
0001
1000
1000
,
0001
0010
1000
0010
,
0100
1000
0001
0100
,
1000
0100
0010
1000
,
0001
0010
0100
1001
,
1000
0100
0001
0100
,
0010
0001
1000
0010
,
0100
1000
0100
0001
,
0010
0100
1000
1001
,
1000
0100
0001
0100
,
1000
1000
0000
0002
0000
0000
1003
0000
,
0001
0100
1000
0100
,
0010
1000
2001
3100
,
1000
0100
0001
0100
,
0010
0010
0000
0012
0000
0000
1003
0000
,
0001
0100
1000
0100
,
0010
1000
0001
0010
,
0200
0000
0000
0000
,
0000
0300
0000
0000
,
0010
0001
0100
0001
,
0020
0030
0100
0100
,
1000
0010
0001
0010
,
1000
0100
0001
0100
,
1000
0010
0100
1000
,
0001
0010
0100
0001
,
2002
0000
0000
0000
,
3003
0000
0000
0000
;

//---------------dance-single - ----------------
#NOTEDATA:;
#CHARTNAME:Difficult;
#STEPSTYPE:dance-single;
#DESCRIPTION:;
#CHARTSTYLE:;
#DIFFICULTY:Medium;
#METER:8;
#RADARVALUES:0.381378,0.435268,0.241071,0.455357,0.000000,299.000000,272.000000,27.000000,51.000000,0.000000,0.000000,0.000000,0.000000,0.000000,0.381378,0.435268,0.241071,0.455357,0.000000,299.000000,272.000000,27.000000,51.000000,0.000000,0.000000,0.000000,0.000000,0.000000;
#CREDIT:BlindedVanguard573;
#NOTES:
0000
0000
0000
0000
,
0000
0000
0000
0000
,
0000
0000
0000
0000
,
0000
0000
0000
0000
,
1000
0000
0100
0010
0000
0010
0100
0000
,
2000
3001
0200
0310
,
1000
0000
0010
0100
0000
0100
0010
0000
,
2002
0000
0000
3003
,
0001
0000
0010
0000
1000
0010
0001
0000
,
1000
0000
0001
0000
1000
0100
0001
0000
,
0100
0000
1000
0000
0010
0001
0010
0000
,
0100
0001
1000
1001
,
1000
0000
0010
0000
0001
0010
1000
0000
,
0001
0000
1000
0000
0001
0100
1000
0000
,
0100
0000
0001
0000
0010
1000
0010
0000
,
0100
1000
0001
1001
,
0001
0100
0010
0000
0010
0100
0001
0000
,
2000
3100
0002
0103
,
1000
0010
0100
0000
0100
0010
1000
0000
,
0001
0011
1000
1010
,
1000
0100
0010
0000
0010
0100
1000
0000
,
0002
0103
2000
3100
,
0001
0010
0100
0000
0100
0010
0001
0000
,
1000
1010
0001
0011
,
1000
0100
0001
0000
0001
0100
0010
0000
,
0011
1100
0012
1003
,
0002
0203
2300
3020
,
0032
0010
0010
0103
,
0001
0100
1000
0000
1000
0100
0010
0000
,
1010
0101
2010
3001
,
2000
3200
0302
0023
,
2030
0010
0010
3100
,
2000
3100
0002
0103
,
1000
0001
0000
1002
0000
0100
0103
0000
,
0002
0013
2000
3010
,
0001
0100
0010
2000
0000
0001
3001
0000
,
2000
3100
0002
0103
,
1000
0001
0000
1002
0000
0100
0103
0000
,
0002
0013
2000
3010
,
0021
2030
3002
0203
,
1300
0000
0010
0000
0001
0010
1000
0000
,
0001
0000
1000
0000
0001
0100
1000
0000
,
0100
0000
0001
0000
0010
1000
0010
0000
,
0100
1000
0001
1001
,
0001
0000
0010
0000
1000
0010
0001
0000
,
1000
0000
0001
0000
1000
0100
0001
0000
,
0100
0000
1000
0000
0010
0001
0010
0000
,
0100
0001
1000
1001
,
0012
0100
0010
1003
,
0001
1000
0000
2001
0000
0100
3100
0000
,
2010
0100
0001
3010
,
1000
0010
0001
0010
0000
0100
0001
1000
,
0002
0010
0100
1003
,
0001
1000
0000
1001
0000
0001
0010
0100
,
2000
3010
0002
0013
,
1020
0032
2003
3200
,
0320
0000
0000
0000
,
0000
0030
0000
0000
,
1000
0000
0100
0001
0000
0001
0100
0000
,
2000
3001
0101
1100
,
0001
0000
0100
1000
0000
1000
0100
0000
,
0020
0130
0001
1001
,
1000
0000
0010
0001
0000
0010
0100
0000
,
0002
0000
1003
0000
0001
0010
0100
1000
,
2002
0000
0000
0000
,
3003
0000
0000
0000
;

//---------------dance-double - ----------------
#NOTEDATA:;
#CHARTNAME:Basic;
#STEPSTYPE:dance-double;
#DESCRIPTION:;
#CHARTSTYLE:;
#DIFFICULTY:Easy;
#METER:5;
#RADARVALUES:0.227041,0.256138,0.008929,0.044643,0.000000,178.000000,177.000000,1.000000,5.000000,0.000000,0.000000,0.000000,0.000000,0.000000,0.227041,0.256138,0.008929,0.044643,0.000000,178.000000,177.000000,1.000000,5.000000,0.000000,0.000000,0.000000,0.000000,0.000000;
#CREDIT:BlindedVanguard573;
#NOTES:
00000000
00000000
00000000
00000000
,
00000000
00000000
00000000
00000000
,
00000000
00000000
00000000
00000000
,
00000000
00000000
00000000
00000000
,
00001000
00000000
00010000
00000000
,
00001000
00010000
00000100
00000000
,
00001000
00000000
00000001
00000000
,
00002002
00000000
00000000
00003003
,
00000001
00000000
00000100
00000000
,
00000010
00000000
00001000
00000000
,
00000100
00000000
00010000
00000000
,
00001000
00100000
00010000
10000000
,
01000000
00000000
10000000
00000000
,
00100000
00000000
01000000
00000000
,
00001000
00000000
00010000
00000000
,
00000100
00001000
00000001
00000100
,
00000010
00000000
00001000
00000000
,
00000100
00010000
00000100
00010000
,
00001000
00000000
00100000
00000000
,
00010000
10000000
01000000
00000000
,
10000000
00000000
00100000
00000000
,
01000000
00010000
01000000
00010000
,
00100000
00000000
00001000
00000000
,
00010000
00000100
00001000
00000000
,
00000010
00000100
00000010
00000100
,
00000001
00001000
00000001
00001000
,
00000100
00000010
00000001
00001000
,
00000200
00000300
00010000
00001000
,
00100000
00010000
01000000
00100000
,
10000000
01000000
00100000
00001000
,
00010000
00000100
00001000
00000010
,
00000100
00000100
00000200
00000300
,
00000001
00000100
00000001
00000100
,
00000010
00001000
00000010
00001000
,
00000100
00010000
00000100
00010000
,
00001000
01000000
00100000
00000000
,
10000000
00100000
10000000
00100000
,
01000000
00010000
01000000
00010000
,
00100000
00001000
00100000
00001000
,
00010000
00000100
00001000
00000010
,
00000100
00000000
00000010
00000000
,
00001000
00000000
00000001
00000000
,
00000010
00000000
00000100
00000000
,
00010000
00001000
00100000
00010000
,
01000000
00000000
00100000
00000000
,
10000000
00000000
00010000
00000000
,
00100000
00000000
01000000
00000000
,
10000000
01000000
00100000
00010000
,
00001000
00000100
00000010
00000001
,
00000010
00000100
00001000
00000000
,
00000001
00000100
00000010
00001000
,
00010000
01000000
00100000
00000000
,
10000000
01000000
00010000
00001000
,
00010000
01000000
10000000
00000000
,
00010000
01000000
10000000
01000000
,
00001000
00010000
00000100
00001000
,
00000020
00000000
00000000
00000000
,
00000000
00000030
00000000
00000000
,
00000100
00000000
00000001
00000000
,
00001000
00000000
00000100
00010000
,
00001000
00000000
00100000
00000000
,
00010000
01000000
00100000
10000000
,
00010000
00000000
00100000
00000000
,
01000000
00000000
10000000
00010000
;

//---------------dance-double - ----------------
#NOTEDATA:;
#CHARTNAME:Difficult;
#STEPSTYPE:dance-double;
#DESCRIPTION:;
#CHARTSTYLE:;
#DIFFICULTY:Medium;
#METER:8;
#RADARVALUES:0.410714,0.464286,0.366071,0.383929,0.000000,322.000000,281.000000,41.000000,43.000000,0.000000,0.000000,0.000000,0.000000,0.000000,0.410714,0.464286,0.366071,0.383929,0.000000,322.000000,281.000000,41.000000,43.000000,0.000000,0.000000,0.000000,0.000000,0.000000;
#CREDIT:BlindedVanguard573;
#NOTES:
00000000
00000000
00000000
00000000
,
00000000
00000000
00000000
00000000
,
00000000
00000000
00000000
00000000
,
00000000
00000000
00000000
00000000
,
00001000
00000000
01000000
00100000
00000000
00100000
01000000
00000000
,
00001000
00010000
00000100
00001000
,
00000010
00000000
00000100
00000001
00000000
00000001
00001000
00000000
,
00002002
00000000
00000000
00003003
,
00000001
00000010
00000100
00000000
00002000
00000000
00003010
00000000
,
00010000
00001000
00100000
00000000
00020000
00000000
01030000
00000000
,
00100000
10000000
00010000
00000000
02000000
00000000
03001000
00000000
,
00010000
00001100
00000010
00001001
,
00000001
00000100
00000010
00000000
00002000
00000000
00003100
00000000
,
00010000
00001000
01000000
00000000
00020000
00000000
00130000
00000000
,
01000000
10000000
00010000
00000000
00200000
00000000
00301000
00000000
,
00010000
00001010
00000100
00001001
,
00000001
00000000
00000100
00000000
00001000
00000100
00000001
00000000
,
00000020
00000130
00001100
00000011
,
00000001
00000000
00000100
00000000
00001000
00010000
01000000
00000000
,
10000000
10100000
01010000
10010000
,
10000000
00000000
00100000
00000000
00010000
00100000
10000000
00000000
,
02000000
03100000
00110000
11000000
,
10000000
00000000
00100000
00000000
00010000
00001000
00000010
00000000
,
00000001
00000101
00001010
00001001
,
00000001
00000100
00000010
00000000
00001000
00000010
00000100
00000000
,
00000101
00001100
00001002
00020003
,
00031000
00000000
01000000
00000000
00100000
10000000
00010000
00000000
,
20010000
00100000
01000000
30010000
,
10000000
01000000
00100000
00000000
00010000
00100000
01000000
00000000
,
11000000
01010000
20010000
30002000
,
00013000
00000000
00000100
00000000
00000010
00000001
00001000
00000000
,
00001002
00000010
00000100
00001003
,
00000101
00001010
00000102
00001003
,
00000100
00001000
00000000
00001100
00000000
00000100
00010000
00000000
,
00012000
02003000
03200000
20300000
,
30010000
00100000
10000000
00100000
00020000
00000000
10030000
00000000
,
11000000
00110000
21000000
30010000
,
01000000
00010000
00000000
01010000
00000000
01000000
00001000
00000000
,
00021000
00030200
00000320
00000032
,
00001003
00000010
00000001
00000010
00001000
00000100
00000001
00000100
,
00001000
00000001
00000100
00000000
00002001
00000000
00003010
00000000
,
00010000
00001000
00100000
00000000
00020000
00000000
01030000
00000000
,
00100000
10000000
00010000
00000000
02000000
00000000
03001000
00000000
,
00010000
00001100
00000010
00001001
,
00000001
00000100
00000010
00000000
00002000
00000000
00003100
00000000
,
00010000
00001000
01000000
00000000
00020000
00000000
00130000
00000000
,
01000000
10000000
00010000
00000000
00200000
00000000
00301000
00000000
,
00010000
00001010
00000100
00001001
,
00000001
00000100
00001000
00000000
00001000
00000100
00000010
00000000
,
00001000
00000001
00000000
00001002
00000000
00010000
00010003
00000000
,
00001000
00100000
00010000
00000000
10000000
00100000
01000000
00000000
,
00010000
01000000
10000000
02000000
00000000
00100000
03100000
00000000
,
10000000
01000000
00010000
00000000
01000000
00100000
00001000
00000000
,
00010000
00000100
00000000
00001020
00000000
00000100
00000130
00000000
,
00000001
00000100
00001000
00000000
00001000
00000100
00000010
00002000
,
00000000
00003200
00000000
00020300
00000000
00032000
00000000
00020000
,
00000000
00000000
00000000
00000000
,
00000000
00033000
00000000
00000000
,
00001000
00100000
00010000
01000000
,
00001000
00010000
00000100
00001100
,
00001000
00000010
00001000
00000000
00000001
00000010
00000001
00000000
,
00001000
00000010
00000001
00000010
,
00010000
00001000
00100000
00000000
00010000
01000000
00100000
00000000
,
20000000
00000000
30010000
00000000
10000000
01000000
00100000
00010000
,
20000000
00000000
00000000
00000000
,
30000000
00000000
00000000
00000000
;

//---------------para-single - ----------------
#NOTEDATA:;
#CHARTNAME:Freestyle [Expert];
#STEPSTYPE:para-single;
#DESCRIPTION:;
#CHARTSTYLE:;
#DIFFICULTY:Challenge;
#METER:8;
#RADARVALUES:0.640306,0.685714,0.553571,0.035714,0.245536,502.000000,440.000000,62.000000,4.000000,0.000000,0.000000,0.000000,0.000000,0.000000,0.640306,0.685714,0.553571,0.035714,0.245536,502.000000,440.000000,62.000000,4.000000,0.000000,0.000000,0.000000,0.000000,0.000000;
#CREDIT:BlindedVanguard573;
#NOTES:
// measure 0
00000
00000
00000
00000
,  // measure 1
00000
00000
00000
00000
,  // measure 2
00000
00000
00000
00000
,  // measure 3
00000
00000
00000
00000
,  // measure 4
10000
00100
01000
00010
,  // measure 5
00100
00001
01000
00010
,  // measure 6
10000
01000
00100
00001
00010
00100
01000
00010
,  // measure 7
20002
00000
00000
00000
00000
00000
00000
00000
30003
00000
00000
01010
00100
00000
00000
00000
,  // measure 8
01010
00100
01000
10000
00010
00001
01010
00000
,  // measure 9
00100
00010
01000
10000
00001
00010
10100
00000
,  // measure 10
00100
00010
00001
00000
00100
00000
00010
00000
00100
01000
10000
00000
00010
00000
01000
00000
,  // measure 11
00100
00000
00000
01010
00000
00000
10001
00000
00000
00000
10000
01000
00001
00010
00100
00000
,  // measure 12
01010
00100
00010
00001
01000
10000
01010
00000
,  // measure 13
00100
01000
00010
00001
10000
01000
00101
00000
,  // measure 14
00100
01000
10000
00000
00100
00000
01000
00000
00100
00010
00001
00000
01000
00000
00010
00000
,  // measure 15
00100
00000
00000
01010
00000
00000
10001
00000
00000
00000
00001
00010
10000
01000
00100
00000
,  // measure 16
00001
00100
00010
00001
,  // measure 17
00100
01000
10000
00000
00100
01000
00010
00100
,  // measure 18
00001
00010
00100
01000
20000
00000
30001
00000
,  // measure 19
00011
00110
01100
11000
,  // measure 20
10000
00100
01000
10000
,  // measure 21
00100
00010
00001
00000
00100
00010
01000
00100
,  // measure 22
10000
01000
00100
00010
00002
00000
10003
00000
,  // measure 23
11000
01100
00110
00011
,  // measure 24
00001
00100
00010
00001
00100
00010
01000
10000
,  // measure 25
00010
00001
01000
00010
00100
01010
10001
00000
,  // measure 26
00100
00010
00001
00000
01000
00000
00010
00000
00100
01000
10000
00000
00010
00000
01000
00000
,  // measure 27
00100
00010
00001
00000
00010
00100
01000
00000
00100
00010
00001
00000
00100
01000
10000
00000
,  // measure 28
10000
00100
01000
10000
00100
01000
00010
00001
,  // measure 29
01000
10000
00010
01000
00100
01010
10001
00000
,  // measure 30
00100
01000
10000
00000
00010
00000
01000
00000
00100
00010
00001
00000
01000
00000
00010
00000
,  // measure 31
00100
01000
10000
00000
01000
00100
00010
00000
00100
01000
10000
00000
00100
00010
00001
00000
,  // measure 32
01010
00000
10001
00000
01010
00100
01010
10001
,  // measure 33
00010
00000
01000
00000
00000
00000
00100
00000
00000
00000
00100
00010
00001
00000
00100
01000
,  // measure 34
10000
00100
01010
00100
00001
01000
01010
00100
,  // measure 35
10000
01000
00100
00010
00001
00000
10000
00000
00010
01000
00010
00000
00100
00000
00000
00000
,  // measure 36
01010
00000
10001
00000
01010
00100
01010
10001
,  // measure 37
01000
00000
00010
00000
00000
00000
00100
00000
00000
00000
00100
01000
10000
00000
00100
00010
,  // measure 38
00001
00100
01010
00100
10000
00010
01010
00100
,  // measure 39
00001
00010
00100
01000
10000
00000
00001
00000
01000
00010
01000
00000
00100
00000
00000
00000
,  // measure 40
01010
00100
00010
00001
01000
10000
01010
00000
,  // measure 41
00100
01000
00010
00001
10000
01000
00101
00000
,  // measure 42
00100
01000
10000
00000
00100
00000
01000
00000
00100
00010
00001
00000
01000
00000
00010
00000
,  // measure 43
00100
00000
00000
01010
00000
00000
10001
00000
00000
00000
00001
00010
10000
01000
00100
00000
,  // measure 44
01010
00100
01000
10000
00010
00001
01010
00000
,  // measure 45
00100
00010
01000
10000
00001
00010
10100
00000
,  // measure 46
00100
00010
00001
00000
00100
00000
00010
00000
00100
01000
10000
00000
00010
00000
01000
00000
,  // measure 47
00100
00000
00000
01010
00000
00000
10001
00000
00000
00000
10000
01000
00001
00010
00100
00000
,  // measure 48
01010
00000
10001
00000
01010
00100
01010
10001
,  // measure 49
00010
00000
01000
00000
00000
00000
00100
00000
00000
00000
00100
00010
00001
00000
00100
01000
,  // measure 50
10000
00100
01010
00100
00001
01000
01010
00100
,  // measure 51
10000
01000
00100
00010
00001
00000
10000
00000
00010
01000
00010
00000
00100
00000
00000
00000
,  // measure 52
01010
00000
10001
00000
01010
00100
01010
10001
,  // measure 53
01000
00000
00010
00000
00000
00000
00100
00000
00000
00000
00100
01000
10000
00000
00100
00010
,  // measure 54
00001
00100
01010
00100
10000
00010
01010
00100
,  // measure 55
00001
00010
00100
01000
10000
00000
00001
00000
01000
00010
01000
00000
00100
00010
00001
01000
,  // measure 56
10000
00100
01000
00010
,  // measure 57
00100
00000
00001
00000
01000
00010
00100
00000
,  // measure 58
00001
00100
00010
01000
,  // measure 59
00100
00000
10000
00000
00010
01000
00100
10000
,  // measure 60
00100
00010
00001
00000
00100
01000
10000
00000
,  // measure 61
00001
01000
00010
00100
,  // measure 62
10000
01000
00100
00010
01000
00100
00010
00001
,  // measure 63
00010
00100
01000
10000
00001
10000
00010
01000
,  // measure 64
00100
00000
00000
00000
;

//---------------para-single - ----------------
#NOTEDATA:;
#CHARTNAME:Freestyle [Normal];
#STEPSTYPE:para-single;
#DESCRIPTION:;
#CHARTSTYLE:;
#DIFFICULTY:Medium;
#METER:2;
#RADARVALUES:0.230867,0.226786,0.000000,0.044643,0.000000,181.000000,181.000000,0.000000,5.000000,0.000000,0.000000,0.000000,0.000000,0.000000,0.230867,0.226786,0.000000,0.044643,0.000000,181.000000,181.000000,0.000000,5.000000,0.000000,0.000000,0.000000,0.000000,0.000000;
#CREDIT:Riakodoadm;
#NOTES:
00000
00000
00000
00000
,
00000
00000
00000
00000
,
00000
00000
00000
00000
,
00000
00000
00000
00000
,
00000
00010
00000
00010
,
00000
01000
00000
01000
,
00000
00010
00000
00010
,
02000
00000
00000
03000
,
01000
00010
01000
00010
,
00001
00010
00001
00000
,
00010
01000
00010
01000
,
10000
01000
10000
00000
,
01000
00010
01000
00010
,
00001
00010
00001
00000
,
00010
01000
00010
01000
,
10000
01000
10000
00000
,
00100
00000
00100
00000
,
01000
00100
00010
00000
,
00100
00000
00100
00000
,
00010
00100
01000
00000
,
00001
00000
10000
00000
,
00001
10000
00001
10000
,
00100
00000
00100
00000
,
10000
00001
10000
00001
,
01000
00100
00010
00000
,
00010
00100
01000
00000
,
00010
00010
01000
01000
,
00010
00000
00010
00000
,
00010
00100
01000
00000
,
01000
00100
00010
00000
,
01000
01000
00010
00010
,
01000
00000
01000
00000
,
00100
00100
00100
00100
,
00020
00000
10030
00000
,
00100
00100
00100
00100
,
02000
00000
03001
00000
,
00100
00100
00100
00100
,
00020
00000
10030
00000
,
00100
00100
00100
00100
,
02000
00000
03001
00000
,
01000
00010
01000
00010
,
00001
00010
00001
00000
,
00010
01000
00010
01000
,
10000
01000
10000
00000
,
01000
00010
01000
00010
,
00001
00010
00001
00000
,
00010
01000
00010
01000
,
10000
01000
10000
00000
,
00010
00100
01000
00100
,
00010
00001
00001
00000
,
01000
00100
00010
00100
,
01000
10000
10000
00000
,
00010
00100
01000
00100
,
00010
00001
00001
00000
,
01000
00100
00010
00100
,
01000
10000
10000
00000
,
01000
00010
01000
00010
,
10000
00000
10000
00000
,
00010
01000
00010
01000
,
00001
00000
00001
00000
,
00100
00000
00100
00000
,
10000
00000
10000
00000
,
00100
00000
00100
00000
,
00001
00000
00001
00000
;

//---------------para-single - ----------------
#NOTEDATA:;
#CHARTNAME:Freestyle [Hard];
#STEPSTYPE:para-single;
#DESCRIPTION:;
#CHARTSTYLE:;
#DIFFICULTY:Hard;
#METER:6;
#RADARVALUES:0.484694,0.484766,0.375000,0.062500,0.267857,380.000000,338.000000,42.000000,7.000000,0.000000,0.000000,0.000000,0.000000,0.000000,0.484694,0.484766,0.375000,0.062500,0.267857,380.000000,338.000000,42.000000,7.000000,0.000000,0.000000,0.000000,0.000000,0.000000;
#CREDIT:Riakodoadm;
#NOTES:
00000
00000
00000
00000
,
00000
00000
00000
00000
,
00000
00000
00000
00000
,
00000
00000
00000
00000
,
10000
00100
01000
00010
,
00100
00001
01000
00010
,
00001
00100
00010
01000
,
00200
00000
00000
00300
,
01000
00000
00100
00000
00000
01000
00000
00100
00000
00010
00000
00000
00001
00000
00010
00000
,
00100
00000
01000
00000
00000
00010
00000
00100
00000
01000
00000
00000
10000
00000
01000
00000
,
00010
00000
00001
00000
00000
00100
00000
01000
00000
10000
00000
00000
00100
00000
00010
00000
,
00101
00000
00000
01010
00000
00000
10100
00000
00000
00000
01000
00000
00010
00000
01000
00000
,
00010
00000
00100
00000
00000
00010
00000
00100
00000
01000
00000
00000
10000
00000
01000
00000
,
00100
00000
00010
00000
00000
01000
00000
00100
00000
00010
00000
00000
00001
00000
00010
00000
,
01000
00000
10000
00000
00000
00100
00000
00010
00000
00001
00000
00000
00100
00000
01000
00000
,
10100
00000
00000
01010
00000
00000
00101
00000
00000
00000
00010
00000
00100
00000
01000
00000
,
00000
10000
01000
00100
00010
00001
00000
00001
,
00000
00002
00000
00010
00000
00100
00000
01003
,
00000
00001
00010
00100
01000
10000
00000
10000
,
00000
20000
00000
01000
00000
00100
00000
30010
,
00000
10000
01000
00100
00010
00001
00000
00001
,
00000
00002
00000
00010
00000
00100
00000
01003
,
00000
00001
00010
00100
01000
10000
00000
10000
,
00000
20000
00000
01000
00000
00100
00000
30010
,
00000
10000
00010
01000
00100
00100
00000
11000
,
00000
01010
00000
11000
00000
01000
00100
00010
,
00100
00000
01010
00000
00100
01010
00100
00000
,
20000
01000
00100
00010
,
30001
00000
01000
00010
00100
00100
00000
00011
,
00000
01010
00000
00011
00000
00010
00100
01000
,
00100
00000
01010
00000
00100
01010
00100
00000
,
10000
00001
10000
00001
20000
00000
30001
00000
,
01100
00000
01100
00000
01100
10000
01000
00100
,
00010
00001
00000
00100
00000
01000
00010
00000
,
00110
00000
00110
00000
00110
00001
00010
00100
,
01000
10000
00000
00100
00000
01000
00010
00000
,
00011
00000
00011
00000
00011
00100
01000
10000
,
00001
00010
00000
00100
00000
00010
01000
00000
,
11000
00000
11000
00000
11000
00100
00010
00001
,
00000
00100
01000
10000
00000
01010
00000
10001
,
00010
00000
00100
00000
00000
00010
00000
00100
00000
01000
00000
00000
10000
00000
01000
00000
,
00100
00000
00010
00000
00000
01000
00000
00100
00000
00010
00000
00000
00001
00000
00010
00000
,
01000
00000
10000
00000
00000
00100
00000
00010
00000
00001
00000
00000
00100
00000
01000
00000
,
10100
00000
00000
01010
00000
00000
00101
00000
00000
00000
00010
00000
01000
00000
00010
00000
,
01000
00000
00100
00000
00000
01000
00000
00100
00000
00010
00000
00000
00001
00000
00010
00000
,
00100
00000
01000
00000
00000
00010
00000
00100
00000
01000
00000
00000
10000
00000
01000
00000
,
00010
00000
00001
00000
00000
00100
00000
01000
00000
10000
00000
00000
00100
00000
00010
00000
,
00101
00000
00000
01010
00000
00000
10100
00000
00000
00000
01000
00000
00010
00000
01000
00000
,
00010
00000
00100
00000
00000
00010
00000
00100
00000
01000
00000
00000
10000
00000
01000
00000
,
00100
00000
00010
00000
00000
01000
00000
00100
00000
00010
00000
00000
00001
00000
00010
00000
,
01000
00000
10000
00000
00000
00100
00000
00010
00000
00001
00000
00000
00100
00000
01000
00000
,
10100
00000
00000
01010
00000
00000
00101
00000
00000
00000
00010
00000
01000
00000
00010
00000
,
01000
00000
00100
00000
00000
01000
00000
00100
00000
00010
00000
00000
00001
00000
00010
00000
,
00100
00000
01000
00000
00000
00010
00000
00100
00000
01000
00000
00000
10000
00000
01000
00000
,
00010
00000
00001
00000
00000
00100
00000
01000
00000
10000
00000
00000
00100
00000
00010
00000
,
00101
00000
00000
01010
00000
00000
10100
00000
00000
00000
01000
00000
00100
00000
00010
00000
,
10000
00100
01000
00010
,
00100
00000
00001
00000
01000
00010
00100
00000
,
00001
00100
00010
01000
,
00100
00000
10000
00000
00010
01000
00100
00000
,
10000
00100
01000
00010
,
00100
00000
00001
00000
01000
00010
00100
00000
,
00001
00100
00010
01000
,
00100
00000
10000
00000
00010
01000
00100
10000
;
