#VERSION:0.83;
#TITLE:Need Someone;
#SUBTITLE:;
#ARTIST:Commander Meowku ft. WinterdrivE + Celestia;
#TITLETRANSLIT:;
#SUBTITLETRANSLIT:;
#ARTISTTRANSLIT:;
#GENRE:CLASSIC EUROBEAT;
#ORIGIN:;
#CREDIT:;
#BANNER:Need Someone.png;
#BACKGROUND:Need Someone-bg.png;
#PREVIEWVID:;
#JACKET:Need Someone-jacket.png;
#CDIMAGE:;
#DISCIMAGE:;
#LYRICSPATH:Need Someone.lrc;
#CDTITLE:Need Someone-cdtitle.png;
#MUSIC:Need Someone.ogg;
#OFFSET:-0.027054;
#SAMPLESTART:47.980007;
#SAMPLELENGTH:14.820000;
#SELECTABLE:YES;
#BPMS:0.000=157.600;
#STOPS:;
#DELAYS:;
#WARPS:;
#TIMESIGNATURES:0.000=4=4;
#TICKCOUNTS:0.000=4;
#COMBOS:0.000=1;
#SPEEDS:0.000=1.000=0.000=0;
#SCROLLS:0.000=1.000;
#FAKES:;
#LABELS:0.000=Song Start,
32.000=Intro 1,
64.000=A Melo,
96.000=B Melo,
128.000=Sabi,
192.000=Intro 2,
222.000=Song End;
#BGCHANGES:16.000=tunnel8.avi=1.000=1=0=1===CrossFade==,
30.000=circle6.avi=1.000=0=0=1=====,
32.000=jump1.avi=1.000=0=0=1=====,
40.000=text19.avi=1.000=0=0=1=====,
48.000=jump1.avi=1.000=0=0=1=====,
60.000=aliens1.avi=1.000=0=0=1=====,
64.000=square1.avi=1.000=0=0=1=====,
80.000=text16.avi=1.000=0=0=1=====,
94.000=afro1.avi=4.000=0=0=1=====,
96.000=cyber1.avi=1.000=0=0=1=====,
104.000=cyber2.avi=1.000=0=0=1=====,
112.000=heart7.avi=1.000=0=0=1=====,
126.000=wheel4.avi=1.000=0=0=1=====,
128.000=dance14.avi=1.000=0=0=1=====,
136.000=dance15.avi=1.000=0=0=1=====,
144.000=dance13.avi=1.200=0=0=1=====,
152.000=dance12.avi=1.000=0=0=1=====,
158.000=arrows1.avi=1.000=0=0=1=====,
160.000=thunder2.avi=1.000=0=0=1=====,
176.000=thunder1.avi=1.000=0=0=1=====,
190.000=afro1.avi=4.000=0=0=1=====,
192.000=jump1.avi=1.000=0=0=1=====,
200.000=wheel3.avi=1.000=0=0=1=====,
208.000=jump1.avi=1.000=0=0=1=====,
216.000=tunnel4.avi=1.000=0=0=1=====,
220.000=Need Someone-bg.png=1.000=0=0=1=====,
99999=-nosongbg-=1.000=0=0=0 // don't automatically add -songbackground-
;
#KEYSOUNDS:;
#ATTACKS:
;

//---------------dance-single - ----------------
#NOTEDATA:;
#CHARTNAME:Expert;
#STEPSTYPE:dance-single;
#DESCRIPTION:;
#CHARTSTYLE:;
#DIFFICULTY:Hard;
#METER:12;
#RADARVALUES:0.616376,0.709370,0.404858,0.740312,0.474263,373.000000,338.000000,35.000000,64.000000,0.000000,0.000000,0.000000,0.000000,0.000000,0.616376,0.709370,0.404858,0.740312,0.474263,373.000000,338.000000,35.000000,64.000000,0.000000,0.000000,0.000000,0.000000,0.000000;
#CREDIT:BlindedVanguard573;
#NOTES:
0000
0000
0000
0000
,
0000
0000
0000
0000
,
0000
0000
0000
0000
,
0000
0000
0000
0000
,
1002
0010
0100
0013
,
0001
0010
1000
0100
,
2001
0000
0000
0000
0010
0000
0000
0000
0100
0000
0000
0000
3010
0000
1000
0001
,
0100
0010
1000
0000
0001
0000
0010
0100
0010
0000
0000
0110
0000
0000
1001
0000
,
1000
0100
0000
0010
0000
0001
0000
0020
0000
0000
0130
0000
1000
0000
0001
0000
,
1000
0010
0000
0100
0000
0001
0000
0200
0000
0000
0310
0000
1000
0000
0001
0000
,
1000
0100
0000
0100
0010
0000
0010
0001
0000
0001
0010
0000
0100
0000
1000
0000
,
0001
0100
0000
0100
0010
0000
0010
1000
0000
1000
0010
0000
0100
0000
0001
0000
,
1000
0010
0000
0100
0000
0001
0000
0200
0000
0000
0310
0000
1000
0000
0001
0000
,
1000
0100
0000
0010
0000
0001
0000
0020
0000
0000
0130
0000
1000
0000
0001
0000
,
1000
0010
0000
0010
0100
0000
0100
0001
0000
0001
0100
0000
0010
0000
1000
0000
,
0001
0010
0000
0010
0100
0000
0100
1000
0000
0000
0001
1000
0001
0000
1000
0000
,
1001
0000
0001
0100
2000
0000
3100
0010
,
1000
0000
0101
0000
0001
1000
0100
0010
,
0000
0120
0000
1030
0000
0010
0000
0002
,
0000
0203
0000
2300
0000
0100
3100
0000
,
0001
0000
0010
1000
0002
0000
0103
2000
,
0000
3020
0000
0230
0000
0301
0000
0101
,
0000
2100
0000
3001
0000
0100
0010
0100
,
0000
0000
0001
0000
1000
0000
0001
0010
0100
0000
0000
1100
0000
0000
0101
0000
,
2001
0000
3010
0020
0000
0032
0000
2003
,
0000
3200
0000
0320
0000
1000
1030
0000
,
1002
0000
0013
0020
0000
2030
0000
3002
,
0000
0203
0000
2300
0000
0001
3001
0000
,
1020
0000
0130
0200
0000
2300
0000
3002
,
0000
0023
0000
0230
0000
0302
0000
1003
,
0200
0000
0000
0000
0310
0000
0100
0000
1000
0000
0000
0001
0000
0000
0100
0000
,
0010
0000
1000
0001
1000
0000
0100
0000
0011
0000
0000
1100
0000
0000
0101
0000
,
0201
0000
0010
0010
0000
1300
0000
1100
,
0000
0000
0101
0000
0000
0000
0001
0000
1100
0000
0000
0011
0000
0000
1010
0000
,
1020
0000
0031
0002
0000
2003
0000
3200
,
0000
0320
0000
1030
1002
0000
0103
0010
,
2001
0000
3100
0200
0000
0302
0000
0023
,
0000
0000
0032
0000
0000
0000
0103
0000
2000
0000
0000
0001
0000
0000
3001
0000
,
1002
0000
0103
0200
0000
2300
0000
3020
,
0000
0000
2030
0000
0000
0000
3100
0000
0001
0010
0100
0000
1000
0010
0100
0000
,
1002
0000
0100
0000
0010
0000
0103
0001
,
0011
0000
1000
1010
0000
0001
0000
0201
,
0000
1000
0000
0320
0000
0100
0130
0000
,
0001
0000
0010
0000
0100
1000
0000
0000
0001
0000
0000
0100
0000
0000
0010
0000
,
0210
0000
0001
0000
1000
0000
0301
0100
,
0120
0000
1000
0000
0031
0000
0010
1000
,
0100
0001
0100
1000
0001
0100
1000
0100
,
0010
1000
0010
1000
0001
0010
0100
0000
0010
0000
0000
1001
0000
0000
1001
0000
,
0001
0100
0000
1000
0000
0100
0000
0020
0000
0000
1030
0000
0001
0000
1000
0000
,
0001
0010
0000
1000
0000
0010
0000
0200
0000
0000
1300
0000
0001
0000
1000
0000
,
0001
0100
0000
0100
1000
0000
1000
0100
0000
0100
0010
0000
1000
0000
0001
0000
,
1000
0100
0000
0100
0001
0000
0001
0100
0000
0100
0010
0000
0001
0000
1000
0000
,
0001
0010
0000
1000
0000
0010
0000
0200
0000
0000
1300
0000
0001
0000
1000
0000
,
0001
0100
0000
1000
0000
0100
0000
0020
0000
0000
1030
0000
0001
0000
1000
0000
,
0001
0010
0000
0010
1000
0000
1000
0010
0000
0010
0100
0000
1000
0000
0001
0000
,
1000
0010
0000
0001
0010
0000
1000
0002
0000
0000
0000
0000
0003
0000
0000
0000
;

//---------------dance-single - ----------------
#NOTEDATA:;
#CHARTNAME:Beginner;
#STEPSTYPE:dance-single;
#DESCRIPTION:;
#CHARTSTYLE:;
#DIFFICULTY:Beginner;
#METER:3;
#RADARVALUES:0.191688,0.224696,0.011567,0.057837,0.000000,116.000000,115.000000,1.000000,5.000000,0.000000,0.000000,0.000000,0.000000,0.000000,0.191688,0.224696,0.011567,0.057837,0.000000,116.000000,115.000000,1.000000,5.000000,0.000000,0.000000,0.000000,0.000000,0.000000;
#CREDIT:BlindedVanguard573;
#NOTES:
0000
0000
0000
0000
,
0000
0000
0000
0000
,
0000
0000
0000
0000
,
0000
0000
0000
0000
,
2000
0000
0000
0000
,
3000
0000
0000
0000
,
0002
0000
0000
0000
,
0003
0000
0100
0100
,
0100
0000
0010
0000
,
1000
0000
0001
0000
,
0010
0010
0010
0000
,
0100
0100
0100
0000
,
0010
0000
0001
0000
,
1000
0000
0010
0000
,
0100
0100
0100
0000
,
0010
0010
0010
0000
,
1000
0000
0001
0000
,
0010
0000
0100
0000
,
1000
0000
0001
0000
,
0100
0100
0100
0000
,
0001
0000
1000
0000
,
0010
0000
1000
0000
,
0001
0000
0010
0000
,
0100
0100
0100
0000
,
0010
0010
0010
0000
,
0001
0000
1000
0000
,
0100
0100
0100
0000
,
1000
0000
0001
0000
,
0100
0100
0100
0000
,
0010
0000
1000
0000
,
0001
0000
0010
0010
,
0010
0000
0100
0100
,
0100
0000
1000
0000
,
0001
0000
0100
0100
,
0100
0000
0001
0000
,
0100
0000
0010
0000
,
1000
0000
0100
0000
,
0001
0001
0001
0000
,
0100
0000
1000
0000
,
0010
0010
0010
0000
,
0200
0000
0000
0300
,
0100
0000
0010
0000
,
1000
1000
1000
0000
,
0001
0000
0010
0000
,
0200
0000
0000
0300
,
0020
0000
0000
0030
,
0001
0000
1000
0000
,
1001
0000
0000
0000
,
1000
0000
0010
0000
,
0100
0000
0001
0000
,
1000
1000
1000
0000
,
0001
0001
0001
0000
,
1000
0000
0100
0000
,
0010
0000
0001
0000
,
1000
1000
1000
0000
,
0001
0001
0001
0000
;

//---------------dance-single - ----------------
#NOTEDATA:;
#CHARTNAME:Basic;
#STEPSTYPE:dance-single;
#DESCRIPTION:;
#CHARTSTYLE:;
#DIFFICULTY:Easy;
#METER:6;
#RADARVALUES:0.309014,0.320995,0.092539,0.080972,0.000000,187.000000,179.000000,8.000000,7.000000,0.000000,0.000000,0.000000,0.000000,0.000000,0.309014,0.320995,0.092539,0.080972,0.000000,187.000000,179.000000,8.000000,7.000000,0.000000,0.000000,0.000000,0.000000,0.000000;
#CREDIT:BlindedVanguard573;
#NOTES:
0000
0000
0000
0000
,
0000
0000
0000
0000
,
0000
0000
0000
0000
,
0000
0000
0000
0000
,
2000
0000
0000
3000
,
0001
0100
1000
0100
,
0002
0000
0000
0003
,
1000
0100
0010
1001
,
0001
0100
0010
0100
,
0001
0010
0100
0010
,
0001
0100
1000
0100
,
0001
0010
0100
1001
,
1000
0100
0010
0100
,
1000
0010
0100
0010
,
1000
0100
0001
0100
,
1000
0010
0100
1001
,
0001
0000
1000
0000
,
0010
0100
0010
0100
,
0001
0000
1000
0000
,
0100
0010
0100
1000
,
0001
0000
1000
0000
,
0010
0100
0010
0100
,
0001
0000
1000
0000
,
0100
0010
0001
0000
,
1000
0010
0100
1000
,
0100
0010
1000
0001
,
1000
0100
0001
0100
,
0010
0001
1000
0001
,
1000
0010
0100
0001
,
1000
0100
0010
0001
,
1000
0100
0001
0100
,
1000
0010
0001
0010
,
1000
0010
0100
0010
,
1000
1000
0001
0000
,
1000
0100
0010
0100
,
1000
1000
0001
0001
,
0100
0010
0100
0001
,
0010
0100
0010
0000
,
0001
0010
1000
0010
,
0100
1000
0001
0100
,
0020
0000
0000
0030
,
0100
0001
1000
0100
,
0010
0100
1000
0000
,
0010
0100
0001
0000
,
2200
0000
0000
3300
,
0022
0000
0000
0033
,
1000
0010
0001
0010
,
0100
0001
1000
1001
,
0001
0100
1000
1000
,
0001
0010
1000
1000
,
0001
0010
1000
0010
,
0001
0100
0010
1001
,
1000
0100
0001
0001
,
0100
1000
0001
0001
,
1000
0010
0001
0010
,
1000
0001
1001
0000
;

//---------------dance-single - ----------------
#NOTEDATA:;
#CHARTNAME:Difficult;
#STEPSTYPE:dance-single;
#DESCRIPTION:;
#CHARTSTYLE:;
#DIFFICULTY:Medium;
#METER:8;
#RADARVALUES:0.447823,0.451417,0.289185,0.185078,0.028918,271.000000,246.000000,25.000000,16.000000,0.000000,0.000000,0.000000,0.000000,0.000000,0.447823,0.451417,0.289185,0.185078,0.028918,271.000000,246.000000,25.000000,16.000000,0.000000,0.000000,0.000000,0.000000,0.000000;
#CREDIT:BlindedVanguard573;
#NOTES:
0000
0000
0000
0000
,
0000
0000
0000
0000
,
0000
0000
0000
0000
,
0000
0000
0000
0000
,
1002
0100
1000
0103
,
0001
0010
0100
1000
,
2001
0100
0001
3100
,
1000
0000
0000
0000
0010
0000
0000
0000
0100
0000
0000
0100
0000
0000
0100
0000
,
0001
0000
1000
0000
0100
0010
0100
0000
,
1000
0000
0001
0000
0100
0010
0100
0000
,
0001
0010
0100
0000
2000
0000
3001
0000
,
1000
0010
0100
0000
0002
0000
1003
0000
,
0001
0000
0010
0000
1000
0010
0100
0000
,
1000
0000
0010
0000
0001
0010
0100
0000
,
0001
0010
0100
0000
1000
0000
0001
0000
,
1000
0010
0100
0000
0101
0000
0001
1000
,
0002
0010
0100
0010
,
1003
0010
0100
0001
,
2000
0010
0100
0010
,
3001
0000
1000
0000
0100
0010
0001
0000
,
2010
0001
3100
1000
,
0012
1000
0103
0001
,
2001
0010
3100
1000
,
0001
0100
1000
0100
0002
0000
1003
0000
,
0001
0010
1000
0010
,
0100
0000
1000
0000
0001
1000
0100
0000
,
1000
0010
0001
0010
,
0100
0000
0001
0000
1000
0001
0100
0000
,
0001
0010
0100
1100
,
1000
0010
0100
0101
,
0001
0000
0000
0000
0100
0000
0000
0000
0010
0000
0000
0010
0000
0000
0010
0000
,
1000
0000
0000
0000
0001
0000
0000
0000
0100
0000
0000
0100
0000
0000
0100
0000
,
0001
0011
1000
1010
,
0001
0000
0000
0000
1001
0000
0000
0000
0001
0000
0000
1000
0000
0000
0001
0000
,
1000
1010
0001
0011
,
1000
0010
0000
0100
0001
0000
0010
0100
,
0010
0011
0100
1010
,
1000
0100
0000
0001
0200
0000
0310
0000
,
0001
0101
1000
1100
,
0001
0100
0000
1000
0100
0000
0010
1000
,
0001
0011
0100
0011
,
1000
1010
0100
1010
,
0010
1001
0100
1001
,
1000
0010
0001
0000
1000
0100
0001
0000
,
0012
1000
0010
0103
,
2010
0001
0010
3100
,
1000
0010
0100
0000
0001
0100
0010
0000
,
1000
0000
0100
0000
0010
0000
0001
0000
1000
0000
0000
0001
0000
0000
1000
0000
,
0001
0000
1000
0000
0100
0010
0100
0000
,
1000
0000
0001
0000
0100
0010
0100
0000
,
0001
0010
0100
0000
2000
0000
3001
0000
,
1000
0010
0100
0000
0002
0000
1003
0000
,
0001
0000
0010
0000
1000
0010
0100
0000
,
1000
0000
0010
0000
0001
0010
0100
0000
,
0001
0010
0100
0000
1000
0000
0001
0000
,
1000
0010
0100
0001
2000
0000
3000
0000
;

//---------------dance-double - ----------------
#NOTEDATA:;
#CHARTNAME:Expert;
#STEPSTYPE:dance-double;
#DESCRIPTION:;
#CHARTSTYLE:;
#DIFFICULTY:Hard;
#METER:12;
#RADARVALUES:0.606461,0.677126,0.300752,0.196645,0.289185,367.000000,341.000000,26.000000,17.000000,0.000000,0.000000,0.000000,0.000000,0.000000,0.606461,0.677126,0.300752,0.196645,0.289185,367.000000,341.000000,26.000000,17.000000,0.000000,0.000000,0.000000,0.000000,0.000000;
#CREDIT:BlindedVanguard573;
#NOTES:
00000000
00000000
00000000
00000000
,
00000000
00000000
00000000
00000000
,
00000000
00000000
00000000
00000000
,
00000000
00000000
00000000
00000000
,
00011000
00001000
01000000
00001000
,
00010000
00000100
00000010
00000100
00010000
00000010
00000100
00000001
,
00001000
00000100
00000001
00000100
,
00010000
00000000
00001000
00000000
00100000
00000000
00010000
00000000
01000000
00000000
00000000
00100000
00000000
00000000
10000000
00000000
,
00010000
00000000
10010000
00000000
10000000
01000000
00010000
00001000
,
00010000
00000000
00011000
00000000
00001000
00000010
00000001
00000010
,
00000001
00000000
00000000
00000100
00000000
00000000
00001000
00000000
00000000
00000100
00000000
00000000
00000010
00000000
00001000
00000000
,
00000100
00000000
00000000
00000001
00000000
00000000
00000100
00000000
00000000
00010000
00000000
00000000
00001000
00000000
00100000
00000000
,
00010000
00000000
10010000
00000000
10000000
00100000
00010000
00001000
,
00010000
00000000
00011000
00000000
00001000
00000100
00000001
00000100
,
00000001
00000000
00000000
00000010
00000000
00000000
00001000
00000000
00000000
00000010
00000000
00000000
00000100
00000000
00001000
00000000
,
00000010
00000000
00000000
00000001
00000000
00000000
00000010
00000000
00010000
00000000
00000000
00000000
00001000
00000000
00100000
00000000
,
00010000
01010000
10000000
11000000
,
00010000
00000000
10010000
00000000
00001000
00010000
00000100
00000010
,
00000001
00000011
00001000
00001010
,
00000001
00000000
00001001
00000000
00010000
00001000
00100000
00010000
,
10000000
01000000
00010000
00000000
01000000
00100000
00001000
00000000
,
00010000
00000010
00000100
00000000
00001000
00010000
00000100
00000000
,
00000010
00000001
00000100
00001000
00010000
00000010
00000100
00000001
,
00000010
00000000
00001000
00000000
00010000
00000000
01000000
00000000
10000000
00000000
00000000
00010000
00000000
00000000
10000000
00000000
,
10020000
00100000
01000000
00100000
,
00031000
00000100
00000010
00000001
,
00002001
00000100
00000010
00000100
,
00013000
00100000
01000000
10000000
,
00010000
01000000
10000000
01000000
00001000
00010000
00000100
00001000
,
00000001
00000100
00001000
00000100
00010000
01000000
00100000
10000000
,
00020000
00000000
00000000
00000000
00030000
00000000
00200000
00000000
02300000
00000000
00000000
23000000
00000000
00000000
30020000
00000000
,
20030000
00000000
30010000
01000000
00100000
00000000
10000000
00000000
00010000
00000000
00000000
10010000
00000000
00000000
10010000
00000000
,
10000000
01000000
00010000
01000000
00100000
00001000
00010000
00000010
,
00000100
00000000
00000001
00000000
00001000
00000000
00000100
00000000
00000010
00000000
00000000
00001001
00000000
00000000
00001001
00000000
,
00000001
00000100
00001000
00000100
00000010
00010000
00001000
00100000
,
01000000
10000000
00010000
01000000
00200000
00000000
10300000
00010000
,
10000000
00100000
00010000
00100000
00010000
00001000
00010000
00001000
,
00000100
00000000
00001000
00000000
00000100
00000000
00000010
00000000
00001000
00000000
00000000
00001001
00000000
00000000
00001001
00000000
,
00000001
00000010
00001000
00000010
00001000
00010000
00001000
00010000
,
01000000
00000000
00010000
00000000
01000000
00000000
00100000
00000000
00010000
01000000
00010000
00000000
10000000
01000000
10000000
00000000
,
10000000
00000000
01000000
00000000
00100000
00000000
01000000
00000000
00010000
00000000
00000000
00001000
00000000
00000000
00000010
00000000
,
00000001
00000000
00000100
00000000
00000010
00000000
00000100
00000000
00001000
00000000
00000000
00010000
00000000
00000000
00100000
00000000
,
10000000
01000000
00010000
00001000
00000200
00000000
00000310
00000000
,
00001000
00000100
00000010
00001000
00000010
00000100
00010000
00001000
,
00012000
00100000
00010000
01003000
,
00021000
00000010
00001000
00030100
,
00010000
01000000
10000000
01000000
00010000
00001000
00000010
00000001
,
00000010
00000000
00001000
00000000
00010000
00000000
00100000
00000000
01000000
00000000
00000000
00010000
00000000
00000000
10010000
00000000
,
10000000
01000000
00000000
00100000
00000000
00010000
00000000
00002000
00000000
00000000
00003100
00000000
00000011
00000000
00000000
00000000
,
00000001
00000100
00000000
00000010
00000000
00001000
00000000
00020000
00000000
00000000
01030000
00000000
10100000
00000000
00000000
00000000
,
10000000
01000000
00000000
01000000
00100000
00000000
00100000
00001000
00000000
00001000
00010000
00000000
00000100
00000000
00001000
00000000
,
00000001
00000100
00000000
00000100
00000010
00000000
00000010
00010000
00000000
00010000
00001000
00000000
00100000
00000000
00010000
00000000
,
10000000
00100000
00000000
01000000
00000000
00010000
00000000
00002000
00000000
00000000
00003010
00000000
00000101
00000000
00000000
00000000
,
00000001
00000010
00000000
00000100
00000000
00001000
00000000
00020000
00000000
00000000
00130000
00000000
11000000
00000000
00000000
00000000
,
10000000
00100000
00000000
00100000
01000000
00000000
01000000
00001000
00000000
00001000
00010000
00000000
00000010
00000000
00001000
00000000
,
00000001
00000010
00000000
00001000
00000010
00000000
00000001
00002000
00000000
00000000
00000000
00000000
00003000
00000000
00000000
00000000
;

//---------------dance-double - ----------------
#NOTEDATA:;
#CHARTNAME:Basic;
#STEPSTYPE:dance-double;
#DESCRIPTION:;
#CHARTSTYLE:;
#DIFFICULTY:Easy;
#METER:6;
#RADARVALUES:0.325539,0.320995,0.092539,0.057837,0.000000,197.000000,189.000000,8.000000,5.000000,0.000000,0.000000,0.000000,0.000000,0.000000,0.325539,0.320995,0.092539,0.057837,0.000000,197.000000,189.000000,8.000000,5.000000,0.000000,0.000000,0.000000,0.000000,0.000000;
#CREDIT:BlindedVanguard573;
#NOTES:
00000000
00000000
00000000
00000000
,
00000000
00000000
00000000
00000000
,
00000000
00000000
00000000
00000000
,
00000000
00000000
00000000
00000000
,
00002000
00000000
00000000
00000000
,
00010000
00010000
00010000
00013000
,
00020000
00000000
00000000
00000000
,
00031000
01000000
00100000
10010000
,
10000000
00100000
01000000
00010000
,
10000000
01000000
00100000
00010000
,
00001000
00000100
00000010
00000100
,
00001000
00000001
00000100
00001001
,
00000001
00000010
00000100
00001000
,
00000001
00000100
00000010
00001000
,
00010000
01000000
00100000
01000000
,
00010000
10000000
01000000
10010000
,
10000000
00000000
00010000
00000000
,
01000000
00100000
01000000
00001000
,
00010000
00000000
00000100
00000000
,
00000010
00000001
00001000
00000001
,
00000100
00000000
00000010
00000000
,
00010000
00001000
00010000
00001000
,
00100000
00000000
00010000
00000000
,
01000000
00100000
10000000
10010000
,
10000000
01000000
10000000
01000000
,
00010000
01000000
00010000
01000000
,
00010000
00001000
00010000
00001000
,
00000100
00001000
00000100
00001000
,
00000100
00000001
00000100
00000001
,
00001000
00000001
00001000
00000001
,
00000010
00000100
00001000
00010000
,
00100000
01000000
10000000
10010000
,
10000000
00100000
00010000
00100000
,
01000000
00001000
00010000
00010000
,
00000100
00001000
00000010
00000001
,
00000010
00001000
00000001
00001001
,
00000001
00000100
00001000
00010000
,
00001000
00000100
00000010
00001000
,
00000001
00000010
00001000
00010000
,
00100000
10000000
00010000
01000000
,
00200000
00000000
00000000
00300000
,
10000000
01000000
00010000
01000000
,
10000000
00010000
10000000
00000000
,
00001000
00010000
00001000
00010000
,
00000002
00000100
00000103
00000001
,
00002000
00000100
00003100
00001000
,
00000001
00000100
00001000
00000100
,
00000001
00001000
00000001
00001001
,
00000001
00000010
00000100
00001000
,
00000001
00000100
00000010
00001000
,
00010000
01000000
00100000
01000000
,
00010000
10000000
01000000
10010000
,
10000000
00100000
01000000
00010000
,
10000000
01000000
00100000
00010000
,
00001000
00000100
00000010
00000100
,
00001000
00000001
00000100
00000000
;

//---------------dance-double - ----------------
#NOTEDATA:;
#CHARTNAME:Difficult;
#STEPSTYPE:dance-double;
#DESCRIPTION:;
#CHARTSTYLE:;
#DIFFICULTY:Medium;
#METER:9;
#RADARVALUES:0.489135,0.483661,0.393291,0.150376,0.017351,296.000000,262.000000,34.000000,13.000000,0.000000,0.000000,0.000000,0.000000,0.000000,0.489135,0.483661,0.393291,0.150376,0.017351,296.000000,262.000000,34.000000,13.000000,0.000000,0.000000,0.000000,0.000000,0.000000;
#CREDIT:BlindedVanguard573;
#NOTES:
00000000
00000000
00000000
00000000
,
00000000
00000000
00000000
00000000
,
00000000
00000000
00000000
00000000
,
00000000
00000000
00000000
00000000
,
00021000
00000100
00001000
00000100
,
00031000
01000000
00010000
00000000
10000000
01000000
00100000
00000000
,
20010000
00100000
01000000
00010000
,
31000000
00000000
10000000
00000000
00010000
00000000
01000000
00000000
00001000
00000000
00000000
00010000
00000000
00000000
00000100
00000000
,
00001000
00000000
00001001
00000000
00000001
00000100
00000010
00000000
,
00001000
00000000
00001001
00000000
00001000
00000100
00000010
00000000
,
00000001
00000100
00001000
00000000
00000100
00001000
00010000
00000000
,
00001000
00010000
00100000
00000000
00010000
00100000
10000000
00010000
,
10010000
00000000
10010000
00000000
10000000
00100000
01000000
00000000
,
00010000
00000000
10010000
00000000
00010000
00100000
01000000
00000000
,
10000000
00100000
00010000
00000000
00100000
00010000
00001000
00000000
,
00010000
00001000
00000100
00000001
00002000
00000000
00003001
00000000
,
00001000
00000100
00000001
00000100
,
00010000
00001000
00100000
00010000
,
01000000
10000000
01000000
00010000
,
00100000
00000000
01000000
00000000
10000000
00010000
01000000
00010000
,
10000000
01000000
00010000
01000000
,
00100000
00001000
00010000
00000100
,
00001000
00000010
00000001
00000010
,
00001000
00000100
00000010
00000001
00001000
00000000
00001001
00000000
,
00000002
00000100
00001000
00000103
,
00000001
00000010
00001000
00010000
,
00200000
01000000
00010000
01300000
,
00100000
00000000
01000000
00000000
00010000
10000000
01000000
00000000
,
10000000
11000000
00010000
01010000
,
10000000
10010000
00001000
00011000
,
00000100
00001000
00000001
00000000
00000100
00000001
00001000
00000000
,
00000001
00000010
00001000
00000010
00000002
00000000
00001003
00000000
,
00000001
00000101
00001000
00001100
,
00000010
00000000
00000000
00000000
00001001
00000000
00000000
00000000
00000001
00000000
00000000
00000100
00000000
00000000
00000010
00000000
,
00001000
00001100
00010000
00011000
,
00100000
00000000
00110000
00000000
00020000
00000000
01030000
00010000
,
10000000
00110000
01000000
10010000
,
10000000
00100000
00010000
00100000
02000000
00000000
03001000
00000000
,
00010000
00001100
00000010
00001001
,
00000001
00000100
00001000
00000100
00000002
00000000
00001003
00000100
,
00000010
00000101
00000010
00001100
,
00000010
00001001
00000100
00001001
,
00000001
00000100
00001000
00000000
00020000
00000000
01030000
00000000
,
10000000
00100000
00010000
00000000
00001000
00000010
00000001
00000000
,
00001002
00000010
00000103
00000001
,
00002001
00000010
00003100
00001000
,
00000001
00000100
00001000
00010000
01000000
00000000
10000000
00000000
,
00010000
00000000
01000000
00000000
00100000
00000000
10000000
00000000
00010000
00000000
00000000
10000000
00000000
00000000
00010000
00000000
,
10010000
00000000
10010000
00000000
10000000
01000000
00100000
00000000
,
00010000
00000000
10010000
00000000
00010000
01000000
00100000
00000000
,
10000000
01000000
00010000
00000000
01000000
00010000
00001000
00000000
,
00010000
00001000
00000010
00000000
00001000
00000010
00000001
00001000
,
00001001
00000000
00001001
00000000
00000001
00000010
00000100
00000000
,
00001000
00000000
00001001
00000000
00001000
00000010
00000100
00000000
,
00000001
00000010
00001000
00000000
00000010
00001000
00010000
00000000
,
00001000
00010000
01000000
10000000
00020000
00000000
00030000
00000000
;

//---------------para-single - ----------------
#NOTEDATA:;
#CHARTNAME:Freestyle [Expert];
#STEPSTYPE:para-single;
#DESCRIPTION:;
#CHARTSTYLE:;
#DIFFICULTY:Challenge;
#METER:7;
#RADARVALUES:0.517227,0.641267,0.451128,0.323887,0.329670,313.000000,274.000000,39.000000,28.000000,0.000000,0.000000,0.000000,0.000000,0.000000,0.517227,0.641267,0.451128,0.323887,0.329670,313.000000,274.000000,39.000000,28.000000,0.000000,0.000000,0.000000,0.000000,0.000000;
#CREDIT:Riakodoadm;
#NOTES:
// measure 0
00000
00000
00000
00000
,  // measure 1
00000
00000
00000
00000
,  // measure 2
00000
00000
00000
00000
,  // measure 3
00000
00000
00000
00000
,  // measure 4
02000
00100
00000
00100
,  // measure 5
03000
00100
00000
00100
,  // measure 6
00020
00100
00000
00100
,  // measure 7
00030
00000
00000
00000
,  // measure 8
10000
00010
00000
01000
00000
00100
00000
00020
00000
00000
00130
00000
01000
00000
10000
00000
,  // measure 9
00010
01000
00000
00100
00000
00010
00000
00002
00000
00000
00013
00000
00100
00000
01000
00000
,  // measure 10
00010
00000
00000
10000
00000
00000
00100
00000
00000
10000
00000
00000
00010
00000
00100
00000
,  // measure 11
00001
00000
00000
00010
00000
00000
00001
00000
00000
01000
00000
00000
00010
00000
10000
00000
,  // measure 12
00001
01000
00000
00010
00000
00100
00000
02000
00000
00000
03100
00000
00010
00000
00001
00000
,  // measure 13
01000
00010
00000
00100
00000
01000
00000
20000
00000
00000
31000
00000
00100
00000
00010
00000
,  // measure 14
01000
00000
00000
00001
00000
00000
00100
00000
00000
00001
00000
00000
01000
00000
00100
00000
,  // measure 15
10000
00000
00000
01000
00000
00000
10000
00001
00000
00000
00000
00000
00000
00000
00000
00000
,  // measure 16
01020
01000
10030
10000
,  // measure 17
01200
01000
10000
10300
,  // measure 18
01000
00000
00100
00000
00010
00000
00001
10000
,  // measure 19
00000
00001
00000
01000
00000
00010
00100
00000
,  // measure 20
02010
00010
03001
00001
,  // measure 21
00210
00010
00001
00301
,  // measure 22
00010
00000
00100
00000
01000
10000
00001
10000
,  // measure 23
00000
00000
00001
00000
01000
00000
00100
01010
10001
00000
00000
00100
00000
00000
00100
00000
,  // measure 24
10010
00100
10010
00100
,  // measure 25
01001
00100
01001
00100
,  // measure 26
01000
00000
00010
01000
00000
00001
00000
10000
,  // measure 27
00000
00100
00000
00100
00000
01010
00000
00000
,  // measure 28
10100
00010
10100
00010
,  // measure 29
00101
00000
01000
00000
00101
00000
01000
00010
,  // measure 30
00200
00000
00000
00000
00310
00000
01000
00000
00100
00000
00000
10000
00000
00000
00001
00000
,  // measure 31
01000
00000
00000
00000
00000
00000
00010
00000
00100
00000
01000
00000
10000
00000
00000
00000
00000
00000
00000
00000
00000
00000
00000
00000
10100
00000
00000
00000
00000
00000
00000
00000
00000
01010
00000
00000
00000
00000
00000
00000
00000
00000
00101
00000
00000
00000
00000
00000
,  // measure 32
00020
00030
00101
01010
00000
10001
00000
01000
,  // measure 33
00100
00000
00020
00000
00100
00000
00000
00000
01030
00000
00000
00100
00000
00000
00010
00000
,  // measure 34
00002
00003
10010
01100
00000
00110
00000
10002
,  // measure 35
00000
00203
00010
00001
00310
00000
01100
11000
,  // measure 36
00100
00000
01000
00010
00000
00101
00000
01010
,  // measure 37
00000
10200
00000
01000
10300
00000
00000
00000
,  // measure 38
00100
00000
00010
01000
00000
10100
00000
01010
,  // measure 39
00000
00201
00000
00010
00301
00010
00100
01000
,  // measure 40
20002
00000
00000
00000
00000
30003
00000
00010
,  // measure 41
00100
01000
10000
00001
00000
00101
00000
01010
,  // measure 42
00000
10100
00000
02020
00000
03030
00001
00000
,  // measure 43
00010
00000
01000
00000
10000
01000
00100
00010
,  // measure 44
00002
00000
00100
00000
00010
00000
00100
01000
,  // measure 45
20003
00000
00010
00000
00100
00000
01000
00100
,  // measure 46
30010
00000
01001
00100
00000
10000
01000
00100
,  // measure 47
00010
00000
00000
00001
00000
00000
10000
00000
00000
00001
00010
00100
01000
00000
00000
00000
00000
00000
00000
00000
00000
00000
00000
00000
,  // measure 48
00001
01000
00000
00010
00000
00100
00000
02000
00000
00000
03100
00000
00010
00000
00001
00000
,  // measure 49
01000
00010
00000
00100
00000
01000
00000
20000
00000
00000
31000
00000
00100
00000
00010
00000
,  // measure 50
01000
00000
00000
00001
00000
00000
00100
00000
00000
00001
00000
00000
01000
00000
00100
00000
,  // measure 51
10000
00000
00000
01000
00000
00000
10000
00000
00000
00010
00000
00000
01000
00000
00001
00000
,  // measure 52
10000
00010
00000
01000
00000
00100
00000
00020
00000
00000
00130
00000
01000
00000
10000
00000
,  // measure 53
00010
01000
00000
00100
00000
00010
00000
00002
00000
00000
00013
00000
00100
00000
01000
00000
,  // measure 54
00010
00000
00000
10000
00000
00000
00100
00000
00000
10000
00000
00000
00010
00000
00100
00000
,  // measure 55
00001
00000
00000
00010
00000
00000
00001
10000
00000
00000
00000
00000
00000
00000
00000
00000
;

//---------------para-single - ----------------
#NOTEDATA:;
#CHARTNAME:Freestyle [Normal];
#STEPSTYPE:para-single;
#DESCRIPTION:;
#CHARTSTYLE:;
#DIFFICULTY:Medium;
#METER:1;
#RADARVALUES:0.190036,0.224696,0.080972,0.312319,0.000000,115.000000,108.000000,7.000000,27.000000,0.000000,0.000000,0.000000,0.000000,0.000000,0.190036,0.224696,0.080972,0.312319,0.000000,115.000000,108.000000,7.000000,27.000000,0.000000,0.000000,0.000000,0.000000,0.000000;
#CREDIT:Riakodoadm;
#NOTES:
00000
00000
00000
00000
,
00000
00000
00000
00000
,
00000
00000
00000
00000
,
00000
00000
00000
00000
,
02000
00000
00000
00000
,
03000
00000
00000
00000
,
00020
00000
00000
00000
,
00030
00000
00000
00000
,
00100
00000
00100
00000
,
01000
00000
00010
00000
,
10000
00010
10000
00000
,
00001
01000
00001
00000
,
00100
00000
00100
00000
,
00010
00000
01000
00000
,
00001
01000
00001
00000
,
10000
00010
10000
00000
,
00020
00030
02000
03000
,
00100
00010
00001
00000
,
02000
03000
00020
00030
,
00100
01000
10000
00000
,
20002
30003
00000
00000
,
20002
30003
00000
00000
,
01000
00100
00010
00000
,
00010
00100
01000
00000
,
20000
30000
00002
00003
,
02000
03000
00020
00030
,
00200
00000
00300
00000
,
00200
00000
00300
00000
,
00020
00030
02000
03000
,
00002
00003
20000
30000
,
00200
00000
00300
00000
,
00200
00000
00300
00000
,
00010
00000
00010
00000
,
00100
00010
00002
00003
,
01000
00000
01000
00000
,
00100
01000
20000
30000
,
00100
00000
00100
00000
,
01000
00010
01000
00000
,
00100
00000
00100
00000
,
00010
01000
00010
00000
,
20002
00000
00000
30003
,
01010
00000
01010
00000
,
00200
00000
00300
00000
,
01010
00000
01010
00000
,
10000
00000
01000
00000
,
00100
00010
00001
00000
,
00001
00000
00010
00000
,
00100
01000
10000
00000
,
00100
00000
00100
00000
,
00010
00000
01000
00000
,
00001
01000
00001
00000
,
10000
00010
10000
00000
,
00100
00000
00100
00000
,
01000
00000
00010
00000
,
10000
00010
10000
00000
,
00001
01000
00001
00000
;

//---------------para-single - ----------------
#NOTEDATA:;
#CHARTNAME:Freestyle [Hard];
#STEPSTYPE:para-single;
#DESCRIPTION:;
#CHARTSTYLE:;
#DIFFICULTY:Hard;
#METER:5;
#RADARVALUES:0.434603,0.545077,0.555234,0.219780,0.028918,263.000000,215.000000,48.000000,19.000000,0.000000,0.000000,0.000000,0.000000,0.000000,0.434603,0.545077,0.555234,0.219780,0.028918,263.000000,215.000000,48.000000,19.000000,0.000000,0.000000,0.000000,0.000000,0.000000;
#CREDIT:Riakodoadm;
#NOTES:
00000
00000
00000
00000
,
00000
00000
00000
00000
,
00000
00000
00000
00000
,
00000
00000
00000
00000
,
02000
00100
00000
00100
,
03000
00100
00000
00100
,
00020
00100
00000
00100
,
00030
00000
00000
00000
,
10000
01000
00100
01010
,
00001
00010
00100
01010
,
00100
00100
11000
01100
,
00100
00100
00011
00110
,
00001
00010
00100
01010
,
10000
01000
00100
01010
,
00100
00100
00011
00110
,
00100
00000
00000
00000
00100
00000
00000
10001
00000
00000
00000
00000
00000
00000
00000
00000
,
01020
01000
10030
10000
,
01200
01000
10000
10300
,
01000
00000
00100
00000
00010
00000
00001
10000
,
00000
00001
00000
01000
00000
00010
00100
00000
,
02010
00010
03001
00001
,
00210
00010
00001
00301
,
00010
00000
00100
00000
01000
10000
00001
10000
,
00000
00000
00001
00000
01000
00000
00010
00000
10000
00000
00000
00100
00000
00000
00100
00000
,
10010
00100
10010
00100
,
01001
00100
01001
00100
,
01000
00000
00010
01000
00000
00001
00000
10000
,
00000
00100
00000
00100
00000
01010
00000
00000
,
10100
00010
10100
00010
,
00101
00000
01000
00000
00101
00000
01000
00010
,
00200
00000
00000
00000
00310
00000
01000
00000
00100
00000
00000
10000
00000
00000
00001
00000
,
01000
00000
00010
00000
10000
00000
00000
00000
00100
00000
00000
00010
00000
00000
00001
00000
,
00100
00000
00010
01000
00000
00110
00000
01100
,
00000
22000
00000
00000
00000
00000
33000
00000
,
00100
00000
01000
00010
00000
01100
00000
00110
,
00000
00011
00000
00101
01010
00000
01000
00100
,
00010
00000
00100
01000
00000
10001
00000
00010
,
00000
00100
00000
01000
20002
00000
30003
00000
,
01000
00000
00100
00010
00000
10001
00000
01000
,
00000
00100
00000
00010
20002
30003
00100
00100
,
02020
00000
00000
00000
00000
00000
03030
01000
,
10000
00000
00010
00001
00000
00100
01000
10000
,
00000
00100
00020
02000
00000
00000
03030
00000
,
00010
00000
01000
00000
10000
01000
00100
00010
,
00002
00000
00100
00000
00010
00000
00100
01000
,
20003
00000
00010
00000
00100
00000
01000
00100
,
30010
00000
00001
00010
00000
10000
01000
00100
,
00000
00001
00010
00100
01000
00000
00000
00000
,
00001
00010
00100
01010
,
10000
01000
00100
01010
,
00100
00100
00011
00110
,
00100
00100
11000
01100
,
10000
01000
00100
01010
,
00001
00010
00100
01010
,
00100
00100
11000
01100
,
00100
00000
00000
00000
00100
00000
00000
10001
00000
00000
00000
00000
00000
00000
00000
00000
;
