#TITLE:Fire 2000;
#SUBTITLE:;
#ARTIST:Magellan ft. Mospeada;
#TITLETRANSLIT:;
#SUBTITLETRANSLIT:;
#ARTISTTRANSLIT:;
#GENRE:SCORCHING EUROBEAT;
#CREDIT:;
#BANNER:Fire 2000.png;
#BACKGROUND:Fire 2000-bg.png;
#LYRICSPATH:Fire 2000.lrc;
#CDTITLE:Fire 2000-cdtitle.png;
#MUSIC:Fire 2000.ogg;
#OFFSET:0.000000;
#SAMPLESTART:58.540012;
#SAMPLELENGTH:15.640000;
#SELECTABLE:YES;
#BPMS:0.000000=164.000000
;
#STOPS:
;
#BGCHANGES:32.000=fire2.avi=1.000=1=0=1===CrossFade==,
48.000=fire5.avi=1.000=0=0=1=====,
60.000=fire4.avi=1.000=0=0=1=====,
64.000=fire1.avi=1.000=0=0=1=====,
80.000=fire2.avi=1.000=0=0=1=====,
96.000=vortex1.avi=1.000=0=0=1=====,
112.000=blizzard3.avi=1.000=0=0=1=====,
128.000=circle11.avi=1.000=0=0=1=====,
136.000=spikes12.avi=1.000=0=0=1=====,
144.000=chase1b.avi=1.000=0=0=1=====,
148.000=chase7.avi=1.000=0=0=1=====,
152.000=chase3.avi=1.000=0=0=1=====,
159.000=arrows1.avi=1.000=0=0=1=====,
160.000=fire1.avi=1.000=0=0=1=====,
176.000=fire6.avi=1.000=0=0=1=====,
184.000=gun1.avi=1.000=0=0=1=====,
192.000=fire4.avi=1.000=0=0=1=====,
208.000=fire3.avi=1.000=0=0=1=====,
220.000=spikes5.avi=1.000=0=0=1=====,
224.000=fire2.avi=1.000=0=0=1=====,
240.000=fire1.avi=1.000=0=0=1=====,
256.000=Fire 2000-bg.png=1.000=0=0=1=====,
99999=-nosongbg-=1.000=0=0=0 // don't automatically add -songbackground-
;
#KEYSOUNDS:;
#ATTACKS:;

//---------------dance-single - ----------------
#NOTES:
     dance-single:
     Expert:
     Hard:
     10:
     0.460103,0.487541,0.265931,0.384123,0.108342,327.000000,300.000000,27.000000,39.000000,0.000000,0.000000,0.460103,0.487541,0.265931,0.384123,0.108342,327.000000,300.000000,27.000000,39.000000,0.000000,0.000000:
0000
0000
0000
0000
,
0000
0000
0000
0000
,
0000
0000
0000
0000
,
0000
0000
0000
0000
,
1000
0000
0100
0000
0001
0100
1000
0001
,
1000
0000
0010
0000
1000
0010
0001
0010
,
1000
0000
0100
0000
0001
0100
1000
0010
,
1000
0000
0010
0000
0001
0010
1000
0100
,
1000
0000
0000
0000
0010
0000
0000
0100
0000
0000
0001
0000
0000
0000
1000
0000
,
0001
0010
1000
0010
,
0001
0000
0000
0000
0100
0000
0000
0010
0000
0000
1000
0000
0000
0000
0001
0000
,
1000
0100
0001
0100
,
1000
0000
0000
0000
0010
0000
0000
0100
0000
0000
0001
0000
0000
0000
0100
0000
,
1000
0100
0010
1000
,
0001
0000
0000
0000
0010
0000
0000
0100
0000
0000
1000
0000
0000
0000
0010
0000
,
0200
0000
0010
0310
,
1001
0000
0000
0000
0001
0000
0000
0100
0000
0000
0001
0000
0000
0000
1000
0000
,
0200
0000
0000
0000
0010
0000
0310
0000
0000
0000
0001
0000
0000
1000
0000
0000
,
0001
0000
0000
0000
0101
0000
0000
0000
1000
0000
0000
0001
0000
0000
1000
0000
,
0001
0000
0000
0000
0011
0000
0000
0010
0000
0100
0000
1000
0000
0000
0010
0000
,
0100
0000
0000
0000
1001
0000
0000
1000
0000
0000
0001
0000
0000
0000
0100
0000
,
0020
0000
0000
0000
0100
0000
0130
0000
0000
0000
0001
0000
0000
1000
0000
0000
,
0001
0000
0000
0000
0101
0000
0000
0000
1000
0000
0000
0001
0000
0000
1000
0000
,
0000
0001
0010
0100
0000
2002
0000
3003
,
1000
0010
1000
0010
0100
0000
1000
0000
,
0100
0001
1000
0001
,
1000
0100
1000
0100
0010
0000
1000
0000
,
0010
0100
1000
0001
,
1000
0010
1000
0010
0001
0000
0010
0000
,
0100
0001
1000
0100
,
2000
3100
0002
0103
,
1000
1010
0101
1010
,
2000
0010
0000
0100
0000
0010
0000
3100
,
1000
1001
1001
1001
,
0002
0100
0000
0010
0000
0100
0000
1003
,
0001
1001
1001
1001
,
2000
3020
0000
0032
0000
0023
0000
0230
,
0000
0302
0000
2003
0000
3002
0000
2003
,
0000
0010
0000
0100
0000
0001
3000
1000
,
0001
0100
0010
1000
0000
2002
0000
3003
,
0012
0000
0100
0100
0000
1000
1003
0000
,
2010
0000
0100
0100
0000
0001
3001
0000
,
1000
0100
0000
0001
0000
0100
0000
1000
,
0000
0100
0000
0010
0000
0001
1000
0000
,
2010
0000
0100
0100
0000
0001
3001
0000
,
0012
0000
0100
0100
0000
1000
1003
0000
,
0001
0100
0000
1000
0000
0100
0000
0001
,
0000
0100
0000
0010
0000
1000
0001
0010
,
0200
0000
1000
1300
0000
0010
1000
0000
,
0200
0000
0001
0301
0000
0100
0010
0000
,
0001
0100
0010
0000
0100
0010
1000
0000
,
0010
1000
0001
0000
1000
0001
0100
0000
,
0002
0000
0010
0103
0000
0001
1000
0000
,
2000
0000
0010
3100
0000
1000
0001
0000
,
1000
0001
0010
0000
0001
0010
0100
0000
,
1000
0010
0100
0002
0000
0000
1003
0000
,
1001
0000
0000
0000
1000
0000
0000
0100
0000
0000
1000
0000
0000
0000
0001
0000
,
0200
0000
0000
0000
0010
0000
0310
0000
0000
0000
1000
0000
0000
0001
0000
0000
,
1000
0000
0000
0000
1100
0000
0000
0000
0001
0000
0000
1000
0000
0000
0001
0000
,
1000
0000
0000
0000
1010
0000
0000
0010
0000
0100
0000
0001
0000
0000
0010
0000
,
0100
0000
0000
0000
1001
0000
0000
0001
0000
0000
1000
0000
0000
0000
0100
0000
,
0020
0000
0000
0000
0100
0000
0130
0000
0000
0000
1000
0000
0000
0001
0000
0000
,
1000
0000
0000
0000
1100
0000
0000
0000
0001
0000
0000
1000
0000
0000
0001
0000
,
0000
1000
0010
0100
0000
2002
0000
3003
,
0202
0003
0000
2300
0000
0000
3002
0000
,
0023
0000
0000
0200
0000
0000
0000
0000
,
0330
0000
0000
0000
;

//---------------dance-single - ----------------
#NOTES:
     dance-single:
     Beginner:
     Beginner:
     3:
     0.182916,0.258052,0.019699,0.068945,0.000000,130.000000,128.000000,2.000000,7.000000,0.000000,0.000000,0.182916,0.258052,0.019699,0.068945,0.000000,130.000000,128.000000,2.000000,7.000000,0.000000,0.000000:
0000
0000
0000
0000
,
0000
0000
0000
0000
,
0000
0000
0000
0000
,
0000
0000
0000
0000
,
2000
0000
0000
0000
,
0000
0000
3000
0000
,
0002
0000
0000
0000
,
0000
0000
0003
0000
,
1000
1000
1000
0000
,
0000
0000
0000
0000
,
0001
0001
0001
0000
,
0000
0000
0000
0000
,
0010
0010
0010
0000
,
0000
0000
0000
0000
,
0100
0100
0100
0000
,
0020
0000
0030
0000
,
0001
0001
0001
0000
,
0100
0000
0010
0000
,
1000
1000
1000
0000
,
0001
0000
1000
0000
,
0100
0100
0100
0000
,
0010
0000
0100
0000
,
1000
1000
1000
0000
,
0001
0000
0100
0000
,
0010
0000
1000
0000
,
0001
0000
0100
0000
,
0010
0000
1000
0000
,
0100
0000
0010
0000
,
0001
0000
0100
0000
,
1000
0000
0100
0000
,
0010
0000
1000
0000
,
0001
0000
0100
0000
,
0001
0001
0001
0000
,
0010
0000
0100
0000
,
1000
1000
1000
0000
,
0100
0000
0010
0000
,
0001
0001
0001
0000
,
1000
1000
1000
0000
,
2002
0000
0000
0000
,
0000
0000
3003
0000
,
0001
0000
0100
0000
,
1000
0000
0100
0000
,
0010
0010
0010
0000
,
0100
0100
0100
0000
,
0001
0000
0010
0000
,
1000
0000
0010
0000
,
0100
0100
0100
0000
,
0010
0010
0010
0000
,
0001
0000
0100
0000
,
1000
0000
0100
0000
,
0010
0010
0010
0000
,
1000
1000
1000
0000
,
0001
0000
0010
0000
,
1000
0000
0010
0000
,
0100
0100
0100
0000
,
0010
0010
0010
0000
,
2002
0000
0000
3003
,
0000
0000
0000
0000
,
0001
0001
0001
0000
,
0100
0000
1000
0000
,
0100
0100
0100
0000
,
0010
0000
1000
0000
,
0001
0001
0001
0000
,
1000
0000
0010
0000
,
0100
0000
0100
0000
,
0010
0000
0010
0000
;

//---------------dance-single - ----------------
#NOTES:
     dance-single:
     Basic:
     Easy:
     6:
     0.336283,0.357530,0.059096,0.128041,0.000000,239.000000,233.000000,6.000000,13.000000,0.000000,0.000000,0.336283,0.357530,0.059096,0.128041,0.000000,239.000000,233.000000,6.000000,13.000000,0.000000,0.000000:
0000
0000
0000
0000
,
0000
0000
0000
0000
,
0000
0000
0000
0000
,
0000
0000
0000
0000
,
1000
0100
1000
0100
,
0010
0001
0010
0001
,
1000
0010
1000
0010
,
0100
0001
0100
0001
,
1000
1000
0001
0001
,
0010
0100
0010
0000
,
0001
0001
1000
1000
,
0010
0100
0010
0000
,
1000
1000
0100
0100
,
0001
0100
1000
0000
,
0001
0001
1000
1000
,
2002
0000
0000
3003
,
0001
0100
0001
0100
,
0010
0010
0010
0000
,
1000
0100
1000
0100
,
0010
0001
1000
1001
,
0001
0100
0001
0100
,
0010
0010
0010
0000
,
1000
0100
1000
0100
,
0001
0100
1000
1001
,
1000
0010
0100
0010
,
1000
0001
1000
0001
,
0010
0100
0010
0001
,
0100
0010
0100
0010
,
1000
0100
0001
0100
,
1000
0010
0001
0010
,
1000
0010
0100
0001
,
0010
0100
0100
0100
,
1000
0100
0001
0100
,
1000
0010
0100
1001
,
0001
0100
1000
0100
,
0001
0010
0100
1001
,
1000
0010
1000
1000
,
0001
0010
0001
0001
,
1000
0010
0001
0010
,
0100
0100
0010
1001
,
2000
0100
3100
1000
,
0002
0100
0103
0001
,
1000
0010
0001
0010
,
0100
0001
1000
0001
,
2000
0010
3010
1000
,
0002
0010
0013
0001
,
1000
0100
0001
0100
,
0010
1000
0001
1000
,
0002
0100
1003
0001
,
2000
0100
3001
1000
,
0001
0010
1000
0010
,
0100
1000
0001
0100
,
0020
0100
0130
0010
,
2000
0001
3001
1000
,
0001
0100
1000
0010
,
0001
0100
0010
1000
,
0002
0000
0000
0000
,
1000
1000
1003
0001
,
1000
0100
0010
1000
,
0010
0001
0100
0010
,
1000
0100
0001
1000
,
0010
0100
1000
0001
,
0100
1000
0001
0010
,
0100
0001
1000
0001
,
0010
0000
0000
0020
0000
0000
0030
0000
,
0100
0000
0000
0200
0000
0000
0000
0000
,
0300
0000
0000
0000
;

//---------------dance-single - ----------------
#NOTES:
     dance-single:
     Difficult:
     Medium:
     8:
     0.437591,0.422535,0.384123,0.177288,0.000000,311.000000,272.000000,39.000000,18.000000,0.000000,0.000000,0.437591,0.422535,0.384123,0.177288,0.000000,311.000000,272.000000,39.000000,18.000000,0.000000,0.000000:
0000
0000
0000
0000
,
0000
0000
0000
0000
,
0000
0000
0000
0000
,
0000
0000
0000
0000
,
2000
0100
3001
1000
,
0002
0100
1003
0001
,
2000
0010
3001
1000
,
0002
0010
1003
0001
,
0011
0000
1100
0000
1000
0001
0000
0001
,
1000
0010
0001
0010
,
1010
0000
0101
0000
1000
0001
0000
0001
,
1000
0100
0001
0100
,
1100
0000
0011
0000
0001
0100
0000
0010
,
1000
0010
0001
0010
,
1010
0000
0101
0000
1000
0100
0000
0010
,
0002
0000
1003
1001
,
0001
0000
0100
0000
1000
0100
0000
0100
,
0010
0000
0010
1000
0000
1000
0001
0000
,
1000
1100
0001
0101
,
1000
0001
1000
0000
0010
0100
0010
0000
,
1000
0000
0100
0000
0001
0100
0000
0100
,
0010
0000
0010
0001
0000
0001
1000
0000
,
0001
0101
1000
1100
,
0001
1000
0001
0000
0010
0100
0010
0000
,
0002
0100
0103
0001
,
1000
1100
0001
0101
,
2000
0010
3010
1000
,
0001
0011
1000
1010
,
0002
0100
1003
0001
,
0010
1100
0010
0101
,
2000
0010
3001
1000
,
0001
1001
1001
1001
,
1000
0100
0001
0010
,
1000
1001
1001
1001
,
0001
0100
1000
0010
,
0001
1001
1001
1001
,
0002
0100
0013
0101
,
2000
0100
3010
1100
,
2000
3010
0002
0013
,
0100
0010
1000
1001
,
1000
0000
0100
0010
0000
0010
0100
0000
,
1000
0000
0010
0100
0000
0100
0010
0000
,
1000
0100
0001
0100
,
0010
0001
1000
1001
,
0001
0000
0100
0010
0000
0010
0100
0000
,
0001
0000
0010
0100
0000
0100
0010
0000
,
0001
0100
1000
0100
,
0010
1000
0001
1001
,
0001
0000
0100
0010
0000
0010
0100
0000
,
0001
0000
0010
0100
0000
0100
0010
0000
,
0001
0100
1000
0100
,
0010
1000
0001
1001
,
1000
0000
0100
0010
0000
0010
0100
0000
,
1000
0000
0010
0100
0000
0100
0010
0000
,
1000
0100
0001
0100
,
0010
0001
1000
1001
,
1000
0000
0010
0000
0001
0010
0000
0010
,
0100
0000
0100
0001
0000
0001
1000
0000
,
0001
0011
1000
1010
,
0001
1000
0001
0000
0100
0010
0100
0000
,
0001
0000
0010
0000
1000
0010
0000
0010
,
0100
0000
0100
1000
0000
1000
0001
0000
,
1000
1010
0001
0011
,
1000
0001
1000
0000
0100
0010
0100
0000
,
2000
0000
0000
3020
0000
0000
0230
0000
,
0302
0000
0000
2000
0000
0000
0000
0000
,
3003
0000
0000
0000
;

//---------------dance-double - ----------------
#NOTES:
     dance-double:
     Expert:
     Hard:
     11:
     0.524827,0.585049,0.295479,0.325027,0.019699,373.000000,343.000000,30.000000,33.000000,0.000000,0.000000,0.524827,0.585049,0.295479,0.325027,0.019699,373.000000,343.000000,30.000000,33.000000,0.000000,0.000000:
00000000
00000000
00000000
00000000
,
00000000
00000000
00000000
00000000
,
00000000
00000000
00000000
00000000
,
00000000
00000000
00000000
00000000
,
00001000
00010000
00001000
01000000
,
00100000
00000000
10000000
00000000
00010000
00100000
10000000
00100000
,
00010000
01000000
00100000
10000000
,
00010000
00000000
00100000
00000000
00001000
00000010
00000001
00000010
,
00001000
00000000
00000010
00000000
00000001
00001000
00000000
00001000
,
00000001
00000101
00001000
00001100
,
00000001
00000000
00000100
00000000
00001000
00010000
00000000
00010000
,
01000000
11000000
10000000
10010000
,
10000000
00000000
00100000
00000000
00010000
00100000
00000000
01000000
,
00010000
01010000
10000000
11000000
,
10000000
00100000
00010000
00000000
00001000
00000100
00000010
00000000
,
00002002
00003003
00000100
00001001
,
00000001
00000000
00000000
00000000
00000100
00000000
00000000
00001000
00000000
00000000
00000100
00000000
00000000
00000000
00000010
00000000
,
00002000
00000000
00000001
00003001
00000000
00000010
00000100
00001000
,
00000001
00000101
00001000
00001100
,
00000001
00000100
00001000
00000000
00010000
01000000
10000000
00010000
,
10000000
00000000
00000000
00000000
01000000
00000000
00000000
00010000
00000000
00000000
01000000
00000000
00000000
00000000
00100000
00000000
,
00020000
00000000
10000000
10030000
00000000
00100000
01000000
00010000
,
10000000
11000000
00010000
01010000
,
10000000
01000000
00010000
00001000
00000000
00000022
00000000
00000033
,
00000001
00000100
00000001
00000100
00001000
00000000
00000100
00000000
,
00000010
00010000
00001000
00100000
,
00010000
01000000
00010000
01000000
10000000
00000000
01000000
00000000
,
00100000
10000000
00001000
00010000
,
00000100
00001000
00000100
00001000
00000010
00000000
00000100
00000000
,
00001000
00010000
00100000
01000000
,
00020000
01000000
10000000
00100000
,
01030000
01010000
00110000
10010000
,
10000000
00100000
10000000
00100000
00010000
00100000
00010000
00100000
,
01000000
00001000
00010000
00000000
00000100
00001000
00000001
00000000
,
00001000
00000010
00001000
00000010
00000001
00000010
00000001
00000010
,
00000100
00000001
00001000
00000000
00000100
00010000
00001000
00000000
,
00100000
00020000
00000000
02030000
00000000
23000000
00000000
32000000
,
00000000
03020000
00000000
00230000
00000000
00302000
00000000
00013000
,
00000100
00001000
00000100
00001000
00000010
00000100
00000010
00000100
,
00000001
00001000
00000001
00001000
00000000
00002002
00000000
00003003
,
00000001
00000100
00001000
00000200
00000000
00000010
00000310
00000000
,
00001000
00000100
00000001
00000200
00000000
00000010
00000310
00000000
,
00000001
00000010
00000001
00000010
00001000
00000010
00001000
00000010
,
00001000
00010000
00001000
00010000
00100000
10000000
00010000
00000000
,
10000000
01000000
00010000
02000000
00000000
00100000
03100000
00000000
,
00010000
01000000
10000000
02000000
00000000
00100000
03100000
00000000
,
10000000
00100000
10000000
00100000
00010000
00100000
00010000
00100000
,
00010000
00001000
00010000
00001000
00000010
00000001
00001000
00000000
,
00000001
00000100
00001000
00000100
00000000
00000110
00001010
00000000
,
00001000
00000100
00000001
00000100
00000000
00000110
00000011
00000000
,
00000001
00000100
00001000
00000100
00001000
00010000
00001000
00010000
,
00100000
00010000
00100000
10000000
00010000
10000000
01000000
00000000
,
10000000
01000000
00010000
01000000
00000000
01100000
00110000
00000000
,
00010000
01000000
10000000
01000000
00000000
01100000
10100000
00000000
,
10000000
01000000
00010000
01000000
00010000
00001000
00010000
00001000
,
00000010
00001000
00000010
00000002
00000000
00000000
00001003
00000000
,
00000001
00000000
00000000
00000000
00000010
00000000
00000000
00001000
00000000
00000000
00000010
00000000
00000000
00000000
00000100
00000000
,
00002000
00000000
00000001
00003001
00000000
00000100
00000010
00001000
,
00000001
00000011
00001000
00001010
,
00000001
00000010
00001000
00000000
00010000
00100000
10000000
00010000
,
10000000
00000000
00000000
00000000
00100000
00000000
00000000
00010000
00000000
00000000
00100000
00000000
00000000
00000000
01000000
00000000
,
00020000
00000000
10000000
10030000
00000000
01000000
00100000
00010000
,
10000000
10100000
00010000
00110000
,
10000000
00100000
00010000
00001000
00000000
00000202
00000000
00000303
,
00000002
00000023
00002030
00003020
00000000
00000000
00000130
00000000
,
00002000
00003020
00000032
00000023
00000000
00000000
00000000
00000000
,
00000030
00000000
00000000
00000000
;

//---------------dance-double - ----------------
#NOTES:
     dance-double:
     Basic:
     Easy:
     7:
     0.357389,0.357530,0.108342,0.118192,0.000000,254.000000,243.000000,11.000000,12.000000,0.000000,0.000000,0.357389,0.357530,0.108342,0.118192,0.000000,254.000000,243.000000,11.000000,12.000000,0.000000,0.000000:
00000000
00000000
00000000
00000000
,
00000000
00000000
00000000
00000000
,
00000000
00000000
00000000
00000000
,
00000000
00000000
00000000
00000000
,
00001000
00010000
00001000
00010000
,
00000100
00001000
00000100
00001000
,
00000010
00000100
00000010
00000100
,
00000001
00001000
00000001
00001000
,
00000001
00000010
00001000
00000010
,
00000100
00010000
00001000
00100000
,
00010000
01000000
10000000
01000000
,
00010000
00100000
00010000
00000100
,
00001000
00000010
00000001
00000010
,
00010000
00001000
00100000
00010000
,
10000000
01000000
00010000
01000000
,
20000000
30000000
00010000
10010000
,
10000000
00100000
00010000
00010000
,
00100000
01000000
00010000
10010000
,
10000000
01000000
00010000
00001000
,
00000100
00000001
00001000
00001001
,
00000001
00000010
00001000
00001000
,
00000010
00000100
00001000
00001001
,
00000001
00000100
00001000
00010000
,
01000000
10000000
00010000
10010000
,
10000000
00100000
10000000
00100000
,
00010000
00100000
00010000
00100000
,
01000000
00001000
01000000
00001000
,
00010000
00000100
00001000
00000010
,
00001000
00000100
00001000
00000100
,
00000001
00000100
00000001
00000100
,
00000010
00000100
00001000
00000001
,
00000100
00000010
00000010
00000010
,
00001000
00000010
00000001
00000010
,
00010000
00001000
00100000
00010000
,
10000000
01000000
00010000
00001000
,
00010000
01000000
10000000
00010000
,
10000000
00100000
00100000
10000000
,
00010000
00100000
00100000
00001000
,
00010000
00000100
00001000
00000010
,
00000100
00000000
00000001
00000000
00000000
00002000
00000000
00003000
,
00000002
00000010
00000013
00000001
,
00002000
00000010
00003010
00001000
,
00000001
00000100
00001000
00010000
,
00001000
00000100
00000010
00001000
,
00000200
00010000
00010300
00001000
,
02000000
00010000
03010000
10000000
,
00010000
00100000
10000000
00100000
,
01000000
10000000
00010000
10010000
,
20000000
00100000
30100000
10000000
,
00020000
00100000
00130000
00010000
,
10000000
01000000
00010000
00001000
,
00010000
01000000
00100000
00010000
,
02000000
00001000
03001000
00010000
,
00000200
00001000
00001300
00000001
,
00001000
00000010
00000001
00000010
,
00000100
00000001
00001000
00001001
,
00000001
00000010
00001000
00001000
,
00000010
00000100
00001000
00001001
,
00000001
00000100
00001000
00010000
,
01000000
10000000
00010000
10010000
,
10000000
00100000
00010000
00010000
,
00100000
01000000
00010000
10010000
,
10000000
01000000
00010000
00001000
,
00000100
00000001
00001000
00001001
,
00000001
00000000
00000000
00000010
00000000
00000000
00000100
00000000
,
00002000
00000000
00000000
00000002
00000000
00000000
00003000
00000000
,
00000003
00000000
00000000
00000000
;

//---------------dance-double - ----------------
#NOTES:
     dance-double:
     Difficult:
     Medium:
     10:
     0.444626,0.455038,0.265931,0.128041,0.000000,316.000000,289.000000,27.000000,13.000000,0.000000,0.000000,0.444626,0.455038,0.265931,0.128041,0.000000,316.000000,289.000000,27.000000,13.000000,0.000000,0.000000:
00000000
00000000
00000000
00000000
,
00000000
00000000
00000000
00000000
,
00000000
00000000
00000000
00000000
,
00000000
00000000
00000000
00000000
,
00001000
00100000
00010000
01000000
,
00001000
00010000
00000100
00001000
,
00000010
00010000
00001000
00100000
,
00010000
01000000
00001000
00010000
,
00000100
00001001
00000100
00001001
,
00000001
00000100
00001000
00010000
,
01000000
10010000
01000000
10010000
,
10000000
00100000
00010000
00001000
,
00000010
00001001
00000010
00001001
,
00000001
00000010
00001000
00010000
,
00100000
10010000
01000000
10010000
,
20000000
00000000
30010000
10010000
,
10000000
00000000
01000000
00000000
00010000
00001000
00000000
00001000
,
00000100
00000000
00000100
00000010
00000000
00000010
00001000
00000000
,
00000001
00000011
00001000
00001010
,
00000001
00001000
00000001
00000000
00000100
00000010
00000100
00000000
,
00000001
00000000
00000100
00000000
00001000
00010000
00000000
00010000
,
01000000
00000000
01000000
00100000
00000000
00100000
00010000
00000000
,
10000000
10100000
00010000
00110000
,
10000000
00010000
01000000
00100000
00000000
20020000
00000000
30030000
,
10000000
00100000
10000000
00000000
00100000
00000000
00010000
00000000
,
00001000
00010000
00100000
01000000
,
00010000
00100000
00010000
00100000
00001000
00000000
00010000
00000000
,
00000100
00001000
00000010
00000100
,
00000001
00000010
00001000
00000000
00000010
00000000
00000001
00000000
,
00000100
00000010
00010000
00001000
,
00200000
00010000
00010000
01000000
,
01300000
10000000
00010000
10010000
,
10000000
00100000
00000000
01000000
00000000
00010000
00000000
01000000
,
00000000
00100000
10000000
00010000
,
10000000
01000000
00000000
00100000
00000000
00010000
00000000
00001000
,
00000000
00000100
00000010
00000001
,
00001000
00001100
00000001
00000101
,
00001000
00001010
00000001
00000011
,
00001000
00000001
00001000
00000000
00000010
00000100
00000010
00000000
,
00001000
00000100
00000010
00000001
00000000
00002002
00000000
00003003
,
00000001
00000000
00000100
00000010
00000000
00000010
00001000
00000000
,
00000100
00000000
00010000
00001000
00000000
00001000
00100000
00000000
,
00010000
01000000
00010000
00000000
10000000
01000000
10000000
00000000
,
00010000
10000000
00010000
00000000
01000000
00100000
01000000
00000000
,
00010000
00000000
00100000
01000000
00000000
01000000
10000000
00000000
,
00010000
00000000
01000000
00001000
00000000
00001000
00010000
00000000
,
00000100
00001000
00000010
00000000
00000100
00000001
00000010
00000000
,
00000001
00000010
00000100
00001000
00000001
00000000
00001001
00000000
,
00000001
00000000
00000010
00000100
00000000
00000100
00001000
00000000
,
00000010
00000000
00010000
00001000
00000000
00001000
01000000
00000000
,
00010000
00100000
00010000
00000000
10000000
00100000
10000000
00000000
,
00010000
10000000
00010000
00000000
00100000
01000000
00100000
00000000
,
00010000
00000000
01000000
00100000
00000000
00100000
10000000
00000000
,
00010000
00000000
00100000
00001000
00000000
00001000
00010000
00000000
,
00000010
00001000
00000100
00000000
00000010
00000001
00000100
00000000
,
00000001
00000100
00000010
00001000
00000001
00000000
00001001
00000000
,
00000001
00000000
00000010
00000000
00001000
00010000
00000000
00010000
,
00100000
00000000
00100000
01000000
00000000
01000000
00010000
00000000
,
10000000
11000000
00010000
01010000
,
10000000
00010000
10000000
00000000
00100000
01000000
00100000
00000000
,
10000000
00000000
00100000
00000000
00010000
00001000
00000000
00001000
,
00000010
00000000
00000010
00000100
00000000
00000100
00001000
00000000
,
00000001
00000101
00001000
00001100
,
00000001
00001000
00000010
00000100
00000000
00002002
00000000
00003003
,
00000002
00000000
00000000
00000203
00000000
00000000
00002300
00000000
,
00023000
00000000
00000000
00200000
00000000
00000000
00030000
00000000
,
00300000
00000000
00000000
00000000
;

//---------------para-single - ----------------
#NOTES:
     para-single:
     Freestyle [Expert]:
     Challenge:
     8:
     0.597994,0.715060,0.354575,0.334876,0.182212,425.000000,389.000000,36.000000,34.000000,0.000000,0.000000,0.597994,0.715060,0.354575,0.334876,0.182212,425.000000,389.000000,36.000000,34.000000,0.000000,0.000000:
// measure 0
00000
00000
00000
00000
,  // measure 1
00000
00000
00000
00000
,  // measure 2
00000
00000
00000
00000
,  // measure 3
00000
00000
00000
00000
,  // measure 4
00000
00000
00000
00000
,  // measure 5
00000
00000
00000
00000
,  // measure 6
00000
00000
00000
00000
,  // measure 7
00000
00000
00000
00000
,  // measure 8
00010
01000
00100
00010
00001
00100
01000
10000
,  // measure 9
00010
01000
00010
10000
00001
01000
00010
00000
,  // measure 10
01000
00010
00100
01000
10000
00100
00010
00001
,  // measure 11
01000
00010
01000
00001
10000
00010
01000
00000
,  // measure 12
00010
01000
00100
00010
00001
00100
01000
10000
,  // measure 13
00010
01000
00010
10000
00001
01000
00010
00000
,  // measure 14
01000
00010
00100
01000
10000
00100
00010
00001
,  // measure 15
10000
01000
00000
00000
00001
00010
00000
00000
00100
01010
10001
00000
01010
00000
00000
00000
,  // measure 16
00100
00000
00010
00000
01000
00000
00010
00001
00000
01000
10000
00000
00000
00000
00001
00000
,  // measure 17
10000
00000
00020
02000
00000
03030
00100
00000
,  // measure 18
00100
00010
00001
00000
00100
01000
10000
00000
00010
00000
01000
00000
00100
00000
01010
00000
,  // measure 19
10001
00000
00000
00000
00100
00000
00000
00000
10001
00000
00010
01000
00000
00000
00000
00000
,  // measure 20
00100
00000
01000
00000
00010
00000
01000
10000
00000
00010
00001
00000
00000
00000
10000
00000
,  // measure 21
00001
00000
02000
00020
00000
03030
00100
00000
,  // measure 22
00100
01000
10000
00000
00100
00010
00001
00000
01000
00000
00010
00000
10000
00000
00001
00000
,  // measure 23
01000
00010
00000
00100
00000
20002
00000
30003
,  // measure 24
10000
00100
01000
00010
,  // measure 25
00100
00000
00001
00000
01000
00010
00100
00010
,  // measure 26
00001
00100
00010
01000
,  // measure 27
00100
00000
10000
00000
00010
01000
00100
01000
,  // measure 28
00001
00010
00100
00000
10000
00100
01000
00000
,  // measure 29
00010
01000
00100
00000
01000
00010
00100
00000
,  // measure 30
00001
00100
00010
01000
00100
10000
00100
01000
,  // measure 31
00010
00100
01010
10001
,  // measure 32
10000
01000
00001
00010
00100
01010
10001
01010
,  // measure 33
00100
01010
10001
01010
,  // measure 34
00001
00010
10000
01000
00100
01010
10001
01010
,  // measure 35
00100
01010
10001
01010
,  // measure 36
00010
00001
01000
10000
00100
00010
00001
00000
,  // measure 37
01000
10000
00010
00001
00100
01000
10000
00000
,  // measure 38
00100
00010
00002
00000
10003
00000
00000
00000
00100
01000
20000
00000
30001
00000
00000
00000
,  // measure 39
10000
01000
00100
00010
00001
00000
10000
00000
00000
00000
20002
00000
00000
00000
30003
00000
,  // measure 40
00001
00010
00100
00010
00002
20000
30003
00000
,  // measure 41
10000
01000
00100
01000
20000
00002
30003
00000
,  // measure 42
00100
00010
00001
00000
01000
00000
10000
00000
00010
00000
00001
00000
00100
00000
00000
00000
,  // measure 43
00100
01000
10000
00000
00010
00000
00001
00000
01000
00000
10000
00000
00100
00000
00000
00000
,  // measure 44
10000
01000
00100
01000
20000
00002
30003
00000
,  // measure 45
00001
00010
00100
00010
00002
20000
30003
00000
,  // measure 46
00100
01000
10000
00000
00010
00000
00001
00000
01000
00000
10000
00000
00100
00000
00000
00000
,  // measure 47
00100
00010
00001
00000
01000
00000
10000
00000
00010
00000
00001
00000
00100
00000
00000
00000
,  // measure 48
00001
00000
00010
00100
01000
00000
10000
00000
00100
00000
01010
00000
10001
00000
00000
00000
,  // measure 49
10000
00000
01000
00100
00010
00000
00001
00000
00100
00000
01010
00000
10001
00000
00000
00000
,  // measure 50
00010
01000
00100
00000
10000
00000
00002
00000
00010
00000
00100
00000
01003
00000
00000
00000
,  // measure 51
01000
00010
00100
00000
00001
00000
20000
00000
01000
00000
00100
00000
30010
00000
00000
00000
,  // measure 52
10000
00000
01000
00100
00010
00000
00001
00000
00100
00000
01010
00000
10001
00000
00000
00000
,  // measure 53
00001
00000
00010
00100
01000
00000
10000
00000
00100
00000
01010
00000
10001
00000
00000
00000
,  // measure 54
01000
00010
00100
00000
00001
00000
20000
00000
01000
00000
00100
00000
30010
00000
00000
00000
,  // measure 55
00010
01000
00100
00000
10000
00000
00002
00000
00010
00000
00100
00000
01003
00000
00000
00000
,  // measure 56
00100
00000
00010
00000
01000
00000
00010
00001
00000
01000
10000
00000
00000
00000
00001
00000
,  // measure 57
10000
00000
00020
02000
00000
03030
00100
00000
,  // measure 58
00100
00010
00001
00000
00100
01000
10000
00000
00010
00000
01000
00000
00100
00000
01010
00000
,  // measure 59
10001
00000
00000
00000
00100
00000
00000
00000
10001
00000
00010
01000
00000
00000
00000
00000
,  // measure 60
00100
00000
01000
00000
00010
00000
01000
10000
00000
00010
00001
00000
00000
00000
10000
00000
,  // measure 61
00001
00000
02000
00020
00000
03030
00100
00000
,  // measure 62
00100
01000
10000
00000
00100
00010
00001
00000
01000
00000
00010
00000
10000
00000
00001
00000
,  // measure 63
01000
00010
00000
00100
00000
20002
00000
30003
,  // measure 64
02000
00000
00000
00020
00000
03030
00100
00000
,  // measure 65
02020
00000
03030
20002
00000
00000
30000
00000
,  // measure 66
00003
00000
00000
00000
;

//---------------para-single - ----------------
#NOTES:
     para-single:
     Freestyle [Normal]:
     Medium:
     3:
     0.265931,0.376736,0.236383,0.177288,0.000000,189.000000,165.000000,24.000000,18.000000,0.000000,0.000000,0.265931,0.376736,0.236383,0.177288,0.000000,189.000000,165.000000,24.000000,18.000000,0.000000,0.000000:
00000
00000
00000
00000
,
00000
00000
00000
00000
,
00000
00000
00000
00000
,
00000
00000
00000
00000
,
00000
00000
00000
00000
,
00000
00000
00000
00000
,
00000
00000
00000
00000
,
00000
00000
00000
00000
,
01000
00100
00010
00000
,
00002
00000
00003
00000
,
00010
00100
01000
00000
,
20000
00000
30000
00000
,
01000
00100
00010
00000
,
00002
00000
00003
00000
,
00010
00100
01000
00000
,
20000
00000
30000
00000
,
01010
00100
01010
00000
,
00100
00100
00001
00001
,
10000
00001
01000
00010
,
10000
10000
01010
00100
,
01010
00100
01010
00000
,
00100
00100
10000
10000
,
00001
10000
00010
01000
,
00001
00001
01010
00100
,
00010
00000
00010
00000
,
01000
00000
01000
00000
,
00100
00100
01010
00000
,
00100
00100
10001
00000
,
00010
00000
00010
00000
,
01000
00000
01000
00000
,
00100
00100
01010
00000
,
00100
00100
10001
00000
,
01000
00100
00010
00000
,
00010
00001
00001
00001
,
00010
00100
01000
00000
,
01000
10000
10000
10000
,
00010
00100
00010
00000
,
01000
00100
01000
00000
,
00200
00300
02020
03030
,
20002
00000
30003
00000
,
10010
02000
03100
00000
,
01001
00020
00130
00000
,
00010
00010
01000
01000
,
10000
00001
10000
00000
,
01001
00020
00130
00000
,
10010
02000
03100
00000
,
01000
01000
00010
00010
,
00001
10000
00001
00000
,
10010
02000
03100
00000
,
01001
00020
00130
00000
,
00010
00010
01000
01000
,
10000
00001
10000
00000
,
01001
00020
00130
00000
,
10010
02000
03100
00000
,
01000
01000
00010
00010
,
00001
10000
00001
00000
,
00200
00000
00000
00000
,
00300
00000
00000
00000
,
10000
00001
01000
00010
,
10000
10000
01010
00100
,
01010
00100
01010
00000
,
00100
00100
10000
10000
,
00001
10000
00010
01000
,
00001
00001
01010
00100
;

//---------------para-single - ----------------
#NOTES:
     para-single:
     Freestyle [Hard]:
     Hard:
     6:
     0.430555,0.472767,0.541712,0.246233,0.049247,306.000000,251.000000,55.000000,25.000000,0.000000,0.000000,0.430555,0.472767,0.541712,0.246233,0.049247,306.000000,251.000000,55.000000,25.000000,0.000000,0.000000:
00000
00000
00000
00000
,
00000
00000
00000
00000
,
00000
00000
00000
00000
,
00000
00000
00000
00000
,
00000
00000
00000
00000
,
00000
00000
00000
00000
,
00000
00000
00000
00000
,
00000
00000
00000
00000
,
01000
00100
00020
00000
01000
00000
10030
00000
,
01000
00100
00020
00000
01000
00000
10030
00000
,
00010
00100
02000
00000
00010
00000
03001
00000
,
00010
00100
02000
00000
00010
00000
03001
00000
,
01000
00100
00020
00000
00100
00000
00130
00000
,
00010
00100
02000
00000
00100
00000
03100
00000
,
01000
00100
00010
00000
00010
00100
01000
00000
,
10001
00000
00000
00000
,
00100
00000
00000
00010
00000
00000
01000
00000
00000
00000
00100
00000
00000
00100
00000
00000
,
00001
00000
01000
20000
30000
00010
00001
00000
,
00110
01100
00110
00000
,
11000
00000
00000
00000
00011
00000
00000
00000
11000
00000
00000
00100
00000
00000
00010
00000
,
00100
00000
00000
01000
00000
00000
00010
00000
00000
00000
00100
00000
00000
00100
00000
00000
,
10000
00000
00010
00002
00003
01000
10000
00000
,
01100
00000
00110
00000
01100
00000
00000
00011
,
00100
00000
00000
11000
00000
01010
00000
00000
,
00100
00010
00001
01000
,
00010
01000
00100
10010
,
00001
00100
10000
00100
,
00010
01000
10000
01010
,
00100
01000
10000
00010
,
01000
00010
00100
01001
,
10000
00100
00001
00100
,
01000
00010
00001
01010
,
10000
01000
00000
00100
00000
00010
00000
00002
,
00013
10100
10100
10100
,
00001
00010
00000
00100
00000
01000
00000
20000
,
31000
00101
00101
00101
,
01010
10000
00000
00100
00000
01000
00000
00010
,
00000
00100
00000
00001
00000
01000
00000
00010
,
00200
00000
00000
00000
00300
00100
00100
00100
,
02020
00000
03030
10100
00000
00101
00000
00000
,
01000
00100
00010
00002
00000
00000
00103
00000
,
00010
00100
01000
20000
30001
00000
00001
00000
,
00010
00100
00000
00100
00000
00110
00000
01100
,
00000
11000
00000
00100
00000
00001
00000
00000
,
00010
00100
01000
20000
00000
00000
30100
00000
,
01000
00100
00010
00002
10003
00000
10000
00000
,
01000
00100
00000
00100
00000
01100
00000
00110
,
00000
00011
00000
00100
01000
00000
10001
00000
,
00010
00100
01000
20000
00000
00000
30100
00000
,
01000
00100
00010
00002
10003
00000
10000
00000
,
01000
00100
00000
00100
00000
01100
00000
00110
,
00000
00011
00000
00100
00000
10000
00000
00000
,
01000
00100
00010
00002
00000
00000
00103
00000
,
00010
00100
01000
20000
30001
00000
00001
00000
,
00010
00100
00000
00100
00000
00110
00000
01100
,
00000
11000
00000
02200
00000
03300
00110
00000
,
00100
00000
00000
00010
00000
00000
01000
00000
00000
00000
00100
00000
00000
00100
00000
00000
,
00001
00000
01000
20000
30000
00010
00001
00000
,
00110
01100
00110
00000
,
11000
00000
00000
00000
00011
00000
00000
00000
11000
00000
00000
00100
00000
00000
00010
00000
,
00100
00000
00000
01000
00000
00000
00010
00000
00000
00000
00100
00000
00000
00100
00000
00000
,
10000
00000
00010
00002
00003
01000
10000
00000
,
01100
00000
00110
00000
01100
00000
00000
00011
,
00100
00000
00000
11000
00000
01010
00000
00000
,
10001
00000
00000
00000
;
