#TITLE:Echoing Night;
#SUBTITLE:;
#ARTIST:Akyra Eurobeat ft. Ahiru;
#TITLETRANSLIT:;
#SUBTITLETRANSLIT:;
#ARTISTTRANSLIT:;
#GENRE:SUPER DUCKYBEAT;
#CREDIT:;
#BANNER:Echoing Night.png;
#BACKGROUND:Echoing Night-bg.png;
#LYRICSPATH:Echoing Night.lrc;
#CDTITLE:Echoing Night-cdtitle.png;
#MUSIC:Echoing Night.ogg;
#OFFSET:0.000000;
#SAMPLESTART:50.741997;
#SAMPLELENGTH:15.620000;
#SELECTABLE:YES;
#BPMS:0.000000=156.000000
;
#STOPS:
;
#BGCHANGES:16.000=amoeba2.avi=1.000=1=0=1===CrossFade==,
28.000=blizzard5.avi=1.000=0=0=1=====,
32.000=wheel7r.avi=1.000=0=0=1=====,
48.000=circle1d.avi=1.000=0=0=1=====,
64.000=blizzard5.avi=1.000=0=0=1=====,
68.000=tunnel3.avi=1.000=0=0=1=====,
84.000=bluey2.avi=1.000=0=0=1=====,
100.000=cyber2.avi=1.000=0=0=1=====,
108.000=blizzard3.avi=1.000=0=0=1=====,
116.000=circle5.avi=1.000=0=0=1=====,
128.000=blizzard5.avi=1.000=0=0=1=====,
132.000=dots1.avi=1.000=0=0=1=====,
140.000=blizzard2.avi=1.000=0=0=1=====,
148.000=wheel2.avi=1.000=0=0=1=====,
156.000=beads1.avi=1.000=0=0=1=====,
160.000=blackhole2r.avi=1.000=0=0=1=====,
164.000=dots3.avi=1.000=0=0=1=====,
172.000=tunnel10.avi=1.000=0=0=1=====,
180.000=blizzard5.avi=1.000=0=0=1=====,
188.000=colors1.avi=1.000=0=0=1=====,
192.000=blizzard1.avi=1.000=0=0=1=====,
196.000=wheel7r.avi=1.000=0=0=1=====,
212.000=circle3.avi=1.000=0=0=1=====,
228.000=blizzard5.avi=1.000=0=0=1=====,
232.000=Echoing Night-bg.png=1.000=0=0=1=====,
99999=-nosongbg-=1.000=0=0=0 // don't automatically add -songbackground-
;
#KEYSOUNDS:;
#ATTACKS:;

//---------------dance-single - ----------------
#NOTES:
     dance-single:
     Expert:
     Hard:
     12:
     0.679897,0.742743,0.407624,1.145753,0.358048,432.000000,395.000000,37.000000,104.000000,0.000000,0.000000,0.679897,0.742743,0.407624,1.145753,0.358048,432.000000,395.000000,37.000000,104.000000,0.000000,0.000000:
0000
0000
0000
0000
,
0000
0000
0000
0000
,
0000
0000
0000
0000
,
0000
0000
0000
0000
,
0001
0000
0000
0100
0000
0000
1000
0000
0100
0000
0010
0000
1000
0000
0001
0000
,
1000
0000
0000
0100
0000
0000
0001
0000
0100
0000
0010
0000
0001
0000
1000
0000
,
0001
0000
0000
0010
0000
0000
1000
0000
0010
0000
0100
0000
1000
0000
0001
0000
,
0100
0000
0010
0000
0000
0000
1000
0100
0010
0000
0100
0000
2002
0000
3003
0000
,
0101
0000
0001
0100
0001
1000
0100
1000
0001
0000
1000
0000
0002
0000
0000
0000
,
2003
0000
3020
0000
0032
0000
0023
0000
2030
0000
0000
0000
3001
0010
0100
0010
,
0001
0000
1000
0010
1000
0001
0010
0001
1000
0000
0001
0000
2000
0000
0000
0000
,
3002
0000
0203
0000
2300
0000
3200
0000
0302
0000
0000
0000
1003
0100
1000
0100
,
0010
0000
0100
1000
0100
1000
0010
1000
0010
0000
0100
0000
0002
0000
0000
0000
,
2003
0000
3020
0000
0032
0000
0023
0000
0230
0000
0000
0000
0301
0010
0001
0010
,
0100
0000
0010
0001
0010
0001
0100
0001
0100
0000
0010
0000
2000
0000
0000
0000
,
3002
0203
2300
3200
0320
0000
0030
0000
,
2000
3200
0302
2003
3020
0032
0203
0310
,
1002
0000
0103
0000
0001
0100
1000
0200
,
0000
0320
0000
1030
2000
0000
3001
0010
,
0100
0011
0100
1010
,
0001
0000
1000
0010
1000
0000
0001
0010
0001
0000
1000
0000
0001
0000
0000
0000
,
2001
0000
3100
0000
1000
0100
0001
0200
,
0000
0320
0000
0032
0000
2003
0000
0010
,
3010
0101
0010
1100
,
2000
0000
3020
0000
0032
0000
0023
0000
0030
1000
0001
0000
2002
0000
3003
0000
,
0201
0010
1000
0301
,
1200
0000
0010
0000
0301
0100
1000
0020
,
0100
0000
1000
0000
0031
0010
1000
0100
,
0001
0000
0100
1000
0100
0000
1000
0010
1000
0000
0001
0000
0010
0000
2000
0000
,
0010
0000
0010
0000
3010
1000
0010
0002
,
0010
0000
0013
0001
2000
0000
3100
1000
,
0001
1000
1100
1000
0001
0101
0001
1000
,
1010
0000
1010
0000
0011
0000
0011
0000
0000
0000
2002
0000
3003
0000
0001
1000
,
0001
0100
1000
0100
0110
0000
1010
0000
,
2000
0000
3200
0000
0302
0000
0203
0000
0010
0000
0000
0000
0301
0100
0001
0000
,
0100
1000
0010
0001
0011
0000
1010
0000
,
1000
0100
0001
0010
2000
0000
3001
0000
,
1000
0000
0000
0100
0000
0001
0000
0100
0000
0000
1000
0000
1001
0000
0000
0000
,
0001
0000
0000
0100
0000
1000
0000
0100
0000
0000
0001
0000
1000
0000
0100
0000
,
0210
0000
0001
0000
1000
1000
0000
0310
,
0100
0000
1100
0000
1000
0000
1001
0000
0000
0000
1001
0000
0001
0010
0100
1000
,
0001
0100
1000
0010
1010
0000
0011
0000
,
0002
0000
0203
0000
2300
0000
3200
0000
0010
0000
0000
0000
1300
0100
1000
0000
,
0100
0001
0010
1000
1100
0000
0101
0000
,
0001
0010
1000
0100
0002
0000
1003
0000
,
0001
0000
0000
0010
0000
1000
0000
0010
0000
0000
0001
0000
1001
0000
0000
0000
,
0001
0000
0000
0100
0000
1000
0000
0100
0000
0000
0010
0000
1000
0000
0001
0000
,
0020
0000
2030
0000
3100
0200
0000
0301
,
1000
0000
1100
0000
0001
0000
0102
0000
0000
0000
1003
0000
0010
0100
0010
0100
,
0001
0000
1000
0100
1000
0001
0100
0001
1000
0000
0001
0000
2000
0000
0000
0000
,
3002
0000
0023
0000
2030
0000
3020
0000
0032
0000
0000
0000
1003
0010
0100
0010
,
1000
0000
0001
0010
0001
1000
0010
1000
0001
0000
1000
0000
0002
0000
0000
0000
,
2003
0000
3200
0000
0302
0000
0203
0000
2300
0000
0000
0000
3001
0100
0001
0100
,
0010
0000
0100
0001
0100
0001
0010
0001
0010
0000
0100
0000
2000
0000
0000
0000
,
3002
0000
0023
0000
2030
0000
3020
0000
0230
0000
0000
0000
1300
0010
1000
0010
,
0100
0000
0010
1000
0010
1000
0100
1000
0100
0000
0010
0000
0002
0000
0000
0000
,
2003
3200
0302
0203
0320
0000
0030
0000
,
0002
0203
2300
3002
0023
2030
3200
0310
,
0011
0000
0000
1100
0000
0000
2002
0000
0000
0000
3003
0000
0000
0000
0000
0000
;

//---------------dance-single - ----------------
#NOTES:
     dance-single:
     Beginner:
     Beginner:
     3:
     0.206173,0.225570,0.066101,0.033051,0.000000,131.000000,125.000000,6.000000,3.000000,0.000000,0.000000,0.206173,0.225570,0.066101,0.033051,0.000000,131.000000,125.000000,6.000000,3.000000,0.000000,0.000000:
0000
0000
0000
0000
,
0000
0000
0000
0000
,
0000
0000
0000
0000
,
0000
0000
0000
0000
,
1000
0000
0001
0000
,
1000
0000
0001
0000
,
0100
0000
0010
0000
,
0100
0000
1001
0000
,
1000
0000
0100
0000
,
0010
0010
0010
0000
,
0100
0000
1000
0000
,
0001
0001
0001
0000
,
0100
0000
0010
0000
,
0100
0100
0100
0000
,
0001
0000
1000
0000
,
0010
0010
0010
0000
,
1001
0000
0000
0000
,
0001
0000
1000
0000
,
0100
0000
0010
0000
,
0100
0000
1000
0000
,
0001
0001
0001
0000
,
1000
0000
0010
0000
,
0100
0000
0010
0000
,
1000
0000
0001
0000
,
0100
0100
0100
0000
,
0001
0000
0010
0000
,
1000
0000
0010
0000
,
0100
0000
1000
0000
,
0001
0000
0100
0000
,
0020
0000
0030
0000
,
0200
0000
0300
0000
,
0001
0000
0010
0000
,
0100
0100
0100
0000
,
0010
0000
0001
0000
,
1000
1000
1000
0000
,
0010
0000
0100
0000
,
0001
0001
0001
0000
,
1000
0000
0100
0100
,
0100
0000
0010
0010
,
0010
0000
1000
1000
,
2000
0000
0000
3000
,
0001
0000
0010
0000
,
0100
0100
0100
0000
,
0010
0000
0001
0000
,
1000
1000
1000
0000
,
0010
0000
0100
0100
,
0100
0000
0010
0010
,
0010
0000
1000
0000
,
0001
0000
1001
0000
,
1000
0000
0100
0000
,
0010
0010
0010
0000
,
0100
0000
1000
0000
,
0001
0001
0001
0000
,
0100
0000
0010
0000
,
0100
0100
0100
0000
,
0001
0000
1000
0000
,
0010
0010
0010
0000
,
1001
0000
0000
0000
,
1001
0000
1001
0000
;

//---------------dance-single - ----------------
#NOTES:
     dance-single:
     Basic:
     Easy:
     7:
     0.380868,0.387518,0.253388,0.143219,0.005508,242.000000,219.000000,23.000000,13.000000,0.000000,0.000000,0.380868,0.387518,0.253388,0.143219,0.005508,242.000000,219.000000,23.000000,13.000000,0.000000,0.000000:
0000
0000
0000
0000
,
0000
0000
0000
0000
,
0000
0000
0000
0000
,
0000
0000
0000
0000
,
2000
3000
0100
1000
,
0002
0003
0100
0001
,
2000
3000
0010
1000
,
0001
0010
0100
1001
,
1000
0100
0001
0001
,
0100
1000
0001
1001
,
1000
0010
0001
0001
,
0010
1000
0001
1000
,
0001
0100
1000
1000
,
0100
0001
1000
1001
,
0001
0010
1000
1000
,
0010
0001
2000
3000
,
0001
0001
0001
0000
1000
1000
1000
0000
,
0101
0100
1000
0100
,
0010
1000
0001
0010
,
0100
1000
0001
0100
,
0010
0100
0001
1001
,
1000
0100
0001
0100
,
0010
0001
0010
1000
,
0010
0100
1000
0010
,
0100
0000
0001
0002
0000
0000
1003
0000
,
0001
0010
1000
0010
,
0200
0010
0310
0100
,
1000
0010
0001
0010
,
0200
0010
0310
0100
,
0001
0100
0010
1001
,
1000
0100
0010
1001
,
0001
0100
1000
0100
,
0010
0000
1000
1000
0000
0001
0000
0000
,
1000
1100
0001
0101
,
1000
0001
0020
0130
,
1000
1010
0001
0011
,
1000
0010
0200
0310
,
1000
0100
0010
0011
,
0001
0100
0010
1010
,
1000
0100
0001
0100
,
1000
0000
0001
0001
0000
1001
0000
0000
,
0001
0101
1000
1100
,
0001
1000
0020
0130
,
0001
0011
1000
1010
,
0001
0010
0200
0310
,
0001
0100
0010
1010
,
1000
0100
0010
0011
,
0001
0100
1000
0100
,
0001
0000
1000
1000
0000
0001
0001
0000
,
1000
0100
0001
0001
,
0100
1000
0001
1001
,
1000
0010
0001
0001
,
0010
1000
0001
1001
,
0001
0100
1000
1000
,
0100
0001
1000
1001
,
0001
0010
1000
1000
,
0010
0001
2000
3000
,
0001
0001
0001
0000
1000
1000
1000
0000
,
0010
0000
0000
0010
0000
0000
0020
0000
0000
0000
0030
0000
0000
0000
0000
0000
;

//---------------dance-single - ----------------
#NOTES:
     dance-single:
     Difficult:
     Medium:
     10:
     0.492611,0.484397,0.341523,0.264405,0.005508,313.000000,282.000000,31.000000,24.000000,0.000000,0.000000,0.492611,0.484397,0.341523,0.264405,0.005508,313.000000,282.000000,31.000000,24.000000,0.000000,0.000000:
0000
0000
0000
0000
,
0000
0000
0000
0000
,
0000
0000
0000
0000
,
0000
0000
0000
0000
,
1000
0000
0100
0000
0010
0001
0010
0001
,
1000
0000
0010
0000
0100
0001
0100
0001
,
1000
0000
0100
0000
0010
0100
0010
0100
,
1000
0000
0000
0001
0000
0000
1001
0000
,
0001
0000
0100
0000
1000
0100
0002
0000
,
0010
0000
0100
0000
1003
1000
1001
0000
,
1000
0000
0100
0000
0001
0100
2000
0000
,
0010
0000
0001
0000
3100
1000
1001
0000
,
0001
0000
0100
0000
1000
0100
0020
0000
,
1000
0000
0001
0000
0130
0010
1001
0000
,
1000
0000
0100
0000
0001
0100
0010
0000
,
0001
0100
0010
1000
0002
0000
0003
0000
,
0010
0010
0010
0010
0100
0100
0100
0100
,
0010
0101
0010
1100
,
2000
0010
3001
1000
,
0100
0011
0100
1010
,
0010
0001
1000
0000
0010
1000
0001
0000
,
0100
1001
0010
1001
,
1000
0100
0001
0000
0001
0100
1000
0000
,
0010
1001
0100
1001
,
0001
0100
1000
0200
0000
0000
0310
0000
,
2000
0010
3001
1001
,
0002
0010
1003
1001
,
2000
0100
3001
1001
,
0001
0100
1000
0000
1000
0100
0010
0000
,
2000
0000
0100
0000
0001
0000
3100
1000
,
0002
0000
0100
0000
1000
0000
0103
0001
,
0010
1100
0010
0101
,
1000
0001
1000
0100
0000
2002
0000
3003
,
1000
0100
0001
0100
2000
0000
3001
0000
,
0100
0010
0100
0000
0010
0000
1001
0000
,
0001
0100
1000
0100
0002
0000
1003
0000
,
0010
0100
0010
0000
0100
0000
1001
0000
,
1000
0100
0001
0000
0100
0100
0100
0000
,
1000
0010
0001
0000
0010
0010
0010
0000
,
0100
0011
0100
1010
,
0001
0100
1000
0100
0000
0010
1001
0000
,
0001
0100
1000
0100
0002
0000
1003
0000
,
0100
0010
0100
0000
0010
0000
1001
0000
,
1000
0100
0001
0100
2000
0000
3001
0000
,
0010
0100
0010
0000
0100
0000
1001
0000
,
0001
0100
1000
0000
0100
0100
0100
0000
,
0001
0010
1000
0000
0010
0010
0010
0000
,
0100
1010
0100
0011
,
1000
0100
0001
0200
0000
0300
0010
0001
,
1000
0000
0010
0000
0001
0010
2000
0000
,
0100
0000
0010
0000
3001
0001
1001
0000
,
0001
0000
0010
0000
1000
0010
0002
0000
,
0100
0000
1000
0000
0013
0001
1001
0000
,
1000
0000
0010
0000
0001
0010
0200
0000
,
0001
0000
1000
0000
0310
0100
1001
0000
,
0001
0000
0010
0000
1000
0010
0100
0000
,
1000
0010
0100
0001
2000
0000
3000
0000
,
0100
0100
0100
0100
0010
0010
0010
0010
,
0001
0000
0000
1000
0000
0000
2002
0000
0000
0000
3003
0000
0000
0000
0000
0000
;

//---------------dance-double - ----------------
#NOTES:
     dance-double:
     Expert:
     Hard:
     12:
     0.621665,0.678156,0.341523,0.892365,0.225846,395.000000,364.000000,31.000000,81.000000,0.000000,0.000000,0.621665,0.678156,0.341523,0.892365,0.225846,395.000000,364.000000,31.000000,81.000000,0.000000,0.000000:
00000000
00000000
00000000
00000000
,
00000000
00000000
00000000
00000000
,
00000000
00000000
00000000
00000000
,
00000000
00000000
00000000
00000000
,
00001000
00000000
00000000
00010000
00000000
00000000
01000000
00000000
10000000
00000000
01000000
00000000
00010000
00000000
00001000
00000000
,
00000100
00000000
00000000
00000010
00000000
00000000
00001000
00000000
00000001
00000000
00001000
00000000
00000001
00000000
00001000
00000000
,
00000001
00000000
00000000
00000010
00000000
00000000
00001000
00000000
00010000
00000000
01000000
00000000
10000000
00000000
00010000
00000000
,
10000000
00000000
00100000
00000000
00000000
00000000
01000000
00010000
10000000
00000000
00010000
00000000
20020000
00000000
30030000
00000000
,
10000000
00000000
00010000
00100000
00000000
00001000
00010000
00000000
00000100
00000000
00001000
00000000
00000002
00000000
00000000
00000000
,
00001003
00000100
00000001
00000100
00001000
00000001
00001001
00000000
,
00000001
00000000
00001000
00000010
00000000
00010000
00001000
00000000
01000000
00000000
00010000
00000000
20000000
00000000
00000000
00000000
,
30010000
01000000
10000000
01000000
00010000
10000000
10010000
00000000
,
10000000
00000000
00100000
00010000
00000000
00100000
01000000
00000000
00001000
00000000
00010000
00000000
00000200
00000000
00000000
00000000
,
00000310
00000001
00000100
00001000
00000100
00000010
00001001
00000000
,
00000001
00000000
00000010
00001000
00000000
00000010
00000100
00000000
00010000
00000000
00001000
00000000
02000000
00000000
00000000
00000000
,
03100000
00000000
10000000
00000000
01000000
00000000
00010000
00000000
01000000
00000000
10000000
00010000
01000000
00000000
01010000
00000000
,
00020000
02030000
23000000
30020000
00230000
02300000
03020000
10030000
,
20010000
00000000
31000000
00000000
10000000
01000000
00010000
00002000
,
00000000
00003200
00000000
00000310
00000020
00000000
00001030
00000001
,
00001000
00001100
00000001
00000101
,
00001000
00000100
00000001
00000100
00010000
00001000
00100000
00000000
,
00120000
00000000
10030000
00000000
00010000
01000000
10000000
02000000
,
00000000
03002000
00000000
00023000
00000000
00030200
00000000
00000310
,
00000010
00000101
00000010
00001100
,
00002000
00000000
00003020
00000000
00000032
00000000
00000023
00000000
00000000
00001030
00000001
00000000
00002002
00000000
00003003
00000000
,
00000201
00001000
00000010
00000301
,
00001200
00000000
00000001
00000000
00000310
00000100
00001000
00000001
,
00020000
00000000
00031000
00000000
00100000
00010000
00100000
00010000
,
01000000
00000000
00100000
10000000
00100000
00000000
10000000
01000000
10000000
00000000
00010000
00000000
01000000
00000000
10000000
00000000
,
02000000
00000000
00100000
00000000
13000000
01000000
00100000
10000000
,
00002000
00000000
00013000
00010000
00000200
00000000
00001300
00000001
,
00001000
00000010
00000001
00000010
00010000
00001000
00100000
00010000
,
10000000
00000000
11000000
00000000
00010000
00000000
01010000
00000000
00000000
00000000
20020000
00000000
30030000
00000000
00010000
10000000
,
01000000
00010000
00001000
00010000
01000000
00000000
11000000
00000000
,
20000000
30200000
00320000
00032000
00003020
00000000
00000031
00000000
,
00000100
00001000
00010000
00001000
00000100
00000000
00000101
00000000
,
00000002
00000023
00002030
00023000
00230000
00000000
10300000
00000000
,
00010000
00000000
00000000
01000000
00000000
10000000
00000000
01000000
00000000
00000000
00010000
00000000
10010000
00000000
00000000
00000000
,
10000000
00000000
00000000
01000000
00000000
00010000
00000000
00001000
00000000
00000000
00000100
00000000
00001000
00000000
00010000
00000000
,
02000000
00000000
23000000
00000000
30001000
00002000
00000000
00013000
,
00000100
00001000
00000010
00000100
00000000
00002002
00000000
00003003
,
00000100
00001000
00010000
00001000
00000100
00000000
00000101
00000000
,
00000002
00000023
00002030
00023000
00230000
00000000
10300000
00000000
,
01000000
00010000
00001000
00010000
01000000
00000000
11000000
00000000
,
20000000
30200000
00320000
00032000
00003020
00000000
00000031
00000000
,
00001000
00000000
00000000
00000100
00000000
00000001
00000000
00000100
00000000
00000000
00001000
00000000
00001001
00000000
00000000
00000000
,
00000001
00000000
00000000
00000100
00000000
00001000
00000000
00010000
00000000
00000000
01000000
00000000
00010000
00000000
00001000
00000000
,
00000200
00000000
00000302
00000000
00010003
00020000
00000000
00031000
,
00200000
00000000
00320000
00000000
02030000
00000000
03200000
00000000
00000000
00000000
00300000
00000000
10000000
00010000
10000000
00010000
,
10000000
00000000
00010000
01000000
00000000
00001000
00010000
00000000
00000010
00000000
00001000
00000000
00000002
00000000
00000000
00000000
,
00001003
00000010
00000001
00000010
00001000
00000001
00001001
00000000
,
00000001
00000000
00001000
00000100
00000000
00010000
00001000
00000000
00100000
00000000
00010000
00000000
20000000
00000000
00000000
00000000
,
30010000
00100000
10000000
00100000
00010000
10000000
10010000
00000000
,
10000000
00000000
01000000
00010000
00000000
01000000
00100000
00000000
00001000
00000000
00010000
00000000
00000020
00000000
00000000
00000000
,
00000130
00000001
00000010
00001000
00000010
00000100
00001001
00000000
,
00000001
00000000
00000100
00001000
00000000
00000100
00000010
00000000
00010000
00000000
00001000
00000000
00200000
00000000
00000000
00000000
,
01300000
00000000
10000000
00000000
00100000
00000000
00010000
00000000
00100000
00000000
10000000
00010000
00100000
00000000
00110000
00000000
,
00020000
00230000
20300000
30020000
02030000
03200000
00320000
10030000
,
10010000
00000000
00000000
00011000
00000000
00000000
00002002
00000000
00000000
00000000
00003003
00000000
00000000
00000000
00000000
00000000
;

//---------------dance-double - ----------------
#NOTES:
     dance-double:
     Basic:
     Easy:
     6:
     0.377721,0.450176,0.308472,0.286438,0.000000,240.000000,212.000000,28.000000,26.000000,0.000000,0.000000,0.377721,0.450176,0.308472,0.286438,0.000000,240.000000,212.000000,28.000000,26.000000,0.000000,0.000000:
00000000
00000000
00000000
00000000
,
00000000
00000000
00000000
00000000
,
00000000
00000000
00000000
00000000
,
00000000
00000000
00000000
00000000
,
00020000
00030000
00002000
00003000
,
00200000
00300000
00020000
00030000
,
20000000
30000000
00200000
00300000
,
01000000
00010000
10000000
10010000
,
10000000
01000000
10000000
10000000
,
00010000
01000000
00001000
00010000
,
00000100
00001000
00000001
00000001
,
00000100
00000010
00001000
00001001
,
00000001
00000100
00000001
00000001
,
00001000
00000100
00010000
00001000
,
01000000
00010000
10000000
10000000
,
01000000
00100000
00010000
10010000
,
20000000
30200000
02300000
03020000
,
10030000
11000000
10000000
11000000
,
00010000
01010000
00010000
01010000
,
20000000
00100000
30010000
10000000
,
00001000
00010000
00000010
00001001
,
00000001
00000101
00000001
00000101
,
00001000
00001100
00001000
00001100
,
00000002
00000010
00001003
00000001
,
00010000
00001000
00100000
10010000
,
20000000
01000000
31000000
10000000
,
00020000
01000000
01030000
00010000
,
20000000
30100000
00020000
00130000
,
02000000
00100000
03100000
10010000
,
10000000
01000000
00010000
00001000
,
00000100
00000010
00001000
00000001
,
00002000
00000010
00003100
00001000
,
00000001
00000000
00001000
00001000
00000000
00001001
00000000
00000000
,
00000001
00000101
00001000
00001100
,
00000001
00000100
00000020
00001030
,
00000100
00011000
00001000
00101000
,
00010000
01000000
00200000
01300000
,
00010000
00100000
01000000
01000000
,
10000000
01000000
00010000
00001000
,
00000100
00000100
00000010
00000010
,
00001000
00000001
00001000
00001001
,
00000001
00000011
00001000
00001010
,
00000001
00000010
00000200
00001300
,
00000010
00011000
00001000
01001000
,
00010000
00100000
02000000
03100000
,
00010000
01000000
00100000
00100000
,
10000000
00100000
00010000
00001000
,
00000010
00000010
00000100
00000100
,
00001000
00000001
00001000
00001001
,
00000001
00000100
00000001
00000001
,
00001000
00000100
00010000
00001000
,
01000000
00010000
10000000
10000000
,
01000000
00100000
00010000
10010000
,
10000000
01000000
10000000
10000000
,
00010000
01000000
00001000
00010000
,
00000100
00001000
00000001
00000001
,
00000100
00000010
00001000
00001001
,
00000002
00000023
00000230
00002300
,
00003001
00000000
00000000
00001001
00000000
00000000
00000000
00000000
;

//---------------dance-double - ----------------
#NOTES:
     dance-double:
     Difficult:
     Medium:
     10:
     0.520940,0.516691,0.396607,0.297455,0.022034,331.000000,295.000000,36.000000,27.000000,0.000000,0.000000,0.520940,0.516691,0.396607,0.297455,0.022034,331.000000,295.000000,36.000000,27.000000,0.000000,0.000000:
00000000
00000000
00000000
00000000
,
00000000
00000000
00000000
00000000
,
00000000
00000000
00000000
00000000
,
00000000
00000000
00000000
00000000
,
00001000
00000000
00000000
00100000
00000000
00000000
00010000
00000000
20000000
00000000
00000000
00000000
31000000
00000000
00000000
00000000
,
10000000
00000000
00000000
00010000
00000000
00000000
00100000
00000000
00001000
00000000
00010000
00000000
00000100
00000000
00001000
00000000
,
00000001
00000000
00000000
00000100
00000000
00000000
00000010
00000000
00020000
00000000
00000000
00000000
00031000
00000000
00000000
00000000
,
00100000
00010000
00000000
10000000
00100000
01000000
00010000
00000000
,
11000000
00000000
01010000
00000000
10000000
00010000
10000000
00000000
,
00010000
01000000
00001000
00010000
00000200
00000000
00000310
00000000
,
00000011
00000000
00001010
00000000
00000001
00001000
00000001
00000000
,
00001000
00000010
00010000
00001000
00200000
00000000
01300000
00000000
,
11000000
00000000
01010000
00000000
10000000
00010000
10000000
00000000
,
00010000
10000000
00001000
00010000
00000200
00000000
00000310
00000000
,
00000101
00000000
00001100
00000000
00000001
00001000
00000001
00000000
,
00001000
00000001
00010000
00001000
02000000
00000000
03100000
00000000
,
10000000
00010000
10000000
00010000
10000000
00010000
10000000
00010000
,
01000000
00000000
10010000
00000000
10000000
01000000
00010000
00000000
,
02000000
00100000
03010000
01000000
,
00100000
00011000
00000010
00001001
,
00000001
00000100
00001000
00000000
00001000
00000100
00000001
00000000
,
00000100
00000000
00001001
00000000
00000001
00000100
00001000
00000000
,
00000200
00000010
00001300
00000100
,
00000010
00011000
00100000
10010000
,
10000000
01000000
00010000
02000000
00000000
00000000
13000000
00000000
,
00020000
00100000
01030000
00010000
,
00200000
00001000
00310000
00011000
,
00000020
00000000
00000031
00000000
00000100
00000010
00000100
00000000
,
00000010
00001000
00000100
00000000
00000010
00000001
00000100
00000000
,
00000010
00000101
00000001
00001000
,
00000100
00011000
00100000
00010000
,
02000000
00100000
10000000
03010000
,
01000000
00100000
10000000
00010000
00000000
20020000
00000000
30030000
,
10000000
01000000
00010000
00000000
01000000
00000000
00110000
00000000
,
10000000
00100000
00010000
00001000
00020000
00000000
00130000
00000000
,
00010000
00100000
01000000
00000000
00001000
00000000
00011000
00000000
,
00000100
00001000
00000001
00001000
00000020
00000000
00000130
00000000
,
00000001
00000010
00001000
00000010
00000001
00001000
00000001
00000000
,
00001000
00000100
00000001
00000100
00001000
00000001
00001000
00000010
,
00000100
00000101
00000010
00001100
,
00000001
00000100
00001000
00010000
00000000
00022000
00000000
00033000
,
00000001
00000100
00001000
00000000
00000100
00000000
00001010
00000000
,
00000001
00000010
00001000
00010000
00002000
00000000
00003010
00000000
,
00001000
00000010
00000100
00000000
00010000
00000000
00011000
00000000
,
01000000
00010000
10000000
00010000
00200000
00000000
01300000
00000000
,
10000000
00100000
00010000
00100000
10000000
00010000
10000000
00000000
,
00010000
01000000
10000000
01000000
00010000
10000000
00010000
00100000
,
01000000
11000000
00100000
01010000
,
10000000
01000000
00010000
02000000
00000000
03000000
10010000
00000000
,
11000000
00000000
01010000
00000000
10000000
00010000
10000000
00000000
,
00010000
01000000
00001000
00010000
00000200
00000000
00000310
00000000
,
00000011
00000000
00001010
00000000
00000001
00001000
00000001
00000000
,
00001000
00000010
00010000
00001000
00200000
00000000
01300000
00000000
,
11000000
00000000
01010000
00000000
10000000
00010000
10000000
00000000
,
00010000
10000000
00001000
00010000
00000200
00000000
00000310
00000000
,
00000101
00000000
00001100
00000000
00000001
00001000
00000001
00000000
,
00001000
00000001
00010000
00001000
02000000
00000000
03100000
00000000
,
10000000
00010000
10000000
00010000
10000000
00010000
10000000
00010000
,
01000000
00000000
00000000
01000000
00000000
00000000
02000000
00000000
00000000
00000000
03000000
00000000
00000000
00000000
00000000
00000000
;

//---------------para-single - ----------------
#NOTES:
     para-single:
     Freestyle [Expert]:
     Challenge:
     8:
     0.673602,0.836042,0.672028,0.143219,0.137711,428.000000,367.000000,61.000000,13.000000,0.000000,0.000000,0.673602,0.836042,0.672028,0.143219,0.137711,428.000000,367.000000,61.000000,13.000000,0.000000,0.000000:
// measure 0
00000
00000
00000
00000
,  // measure 1
00000
00000
00000
00000
,  // measure 2
00000
00000
00000
00000
,  // measure 3
00000
00000
00000
00000
,  // measure 4
00000
00000
00000
00100
00000
00000
00000
00101
,  // measure 5
00000
00000
00000
00100
00000
00000
00000
10100
,  // measure 6
00000
00000
00000
00100
00000
00000
00000
01010
,  // measure 7
00100
00000
01010
00000
00000
00000
00100
00010
00001
00000
10000
00000
01010
00000
00000
00000
,  // measure 8
00010
01000
00100
20000
00100
00010
30001
00000
,  // measure 9
00001
00010
10000
01000
00100
01010
10001
00000
,  // measure 10
01000
00010
00100
00002
00100
01000
10003
00000
,  // measure 11
10000
01000
00001
00010
00100
01010
10001
00000
,  // measure 12
00010
01000
00100
20000
00100
00010
30001
00000
,  // measure 13
00001
00010
10000
01000
00100
01010
10001
00000
,  // measure 14
01000
00010
00100
00002
00100
01000
10003
00000
,  // measure 15
10000
00000
01000
00000
00001
00000
00010
00000
00100
00000
00010
00001
10000
00000
01000
00000
,  // measure 16
00001
00010
00100
01000
10000
01000
00100
00010
,  // measure 17
00001
01010
10000
01010
,  // measure 18
00100
10001
00100
10001
,  // measure 19
00100
00010
00001
00000
00100
01000
10000
00000
,  // measure 20
00000
00000
00100
00010
00001
00000
00100
01000
10000
00000
00001
00000
01010
00000
00000
00000
,  // measure 21
10000
01010
00001
01010
,  // measure 22
00100
10001
00100
10001
,  // measure 23
00100
01000
10000
00000
00100
00010
00001
00000
,  // measure 24
00100
00000
01000
00000
00010
00000
10001
00000
00000
00010
01000
00000
00100
00000
00000
00000
,  // measure 25
00100
00010
00001
00010
00100
01000
01010
00000
,  // measure 26
00100
01000
10000
01000
00100
00010
01010
00000
,  // measure 27
00100
00010
00002
00000
00100
00000
00000
00000
00100
01000
10003
00000
01010
00000
00000
00000
,  // measure 28
01010
00000
00100
00010
00001
00000
00100
01000
10000
00000
00100
00000
01010
00000
00000
00000
,  // measure 29
00001
00100
00010
01000
00100
10000
01010
00000
,  // measure 30
10000
00100
01000
00010
00100
00001
01010
00000
,  // measure 31
00010
00001
00000
00000
00100
01000
00000
00000
00010
01000
00000
00000
01000
10000
00000
00000
,  // measure 32
01010
00100
01010
10001
00000
01010
00000
00000
,  // measure 33
00100
00010
00001
00010
10100
00000
00101
00000
,  // measure 34
00001
10000
00010
02000
00100
00010
03001
00000
,  // measure 35
00100
01000
10000
01000
00101
00000
10100
00000
,  // measure 36
10000
00001
01000
00020
00100
01000
10030
00000
,  // measure 37
00100
00010
01000
00100
10000
00010
01010
00000
,  // measure 38
00100
01000
00010
00100
00001
01000
01010
00000
,  // measure 39
00100
00010
00001
00000
00100
00010
01000
00000
00100
01000
10000
00000
00100
01000
00010
00000
,  // measure 40
00100
00000
01010
00000
10001
00000
01010
00000
00000
00000
00100
01010
10001
00000
00000
00000
,  // measure 41
00100
01000
10000
01000
00101
00000
10100
00000
,  // measure 42
10000
00001
01000
00020
00100
01000
10030
00000
,  // measure 43
00100
00010
00001
00010
10100
00000
00101
00000
,  // measure 44
00001
10000
00010
02000
00100
00010
03001
00000
,  // measure 45
00100
01000
00010
00100
00001
01000
01010
00000
,  // measure 46
00100
00010
01000
00100
10000
00010
01010
00000
,  // measure 47
00100
01000
10000
00000
00100
01000
00010
00000
00100
00010
00001
00000
00100
00010
01000
00000
,  // measure 48
00100
00000
01010
00000
10001
00000
01010
00000
00000
00000
00100
01010
10001
00000
00000
00000
,  // measure 49
00010
01000
00100
20000
00100
00010
30001
00000
,  // measure 50
00001
00010
10000
01000
00100
01010
10001
00000
,  // measure 51
01000
00010
00100
00002
00100
01000
10003
00000
,  // measure 52
10000
01000
00001
00010
00100
01010
10001
00000
,  // measure 53
00010
01000
00100
20000
00100
00010
30001
00000
,  // measure 54
00001
00010
10000
01000
00100
01010
10001
00000
,  // measure 55
01000
00010
00100
00002
00100
01000
10003
00000
,  // measure 56
10000
00000
01000
00000
00001
00000
00010
00000
00100
00000
00010
00001
10000
00000
01000
00000
,  // measure 57
00001
00010
00100
01000
10000
01000
00100
00010
,  // measure 58
00001
00000
00000
10000
00000
00000
01010
00000
00000
00000
00000
00000
00000
00000
00000
00000
;

//---------------para-single - ----------------
#NOTES:
     para-single:
     Freestyle [Hard]:
     Hard:
     6:
     0.412345,0.479233,0.253388,0.187287,0.000000,262.000000,239.000000,23.000000,17.000000,0.000000,0.000000,0.412345,0.479233,0.253388,0.187287,0.000000,262.000000,239.000000,23.000000,17.000000,0.000000,0.000000:
00000
00000
00000
00000
,
00000
00000
00000
00000
,
00000
00000
00000
00000
,
00000
00000
00000
00000
,
00000
00000
00000
01000
00000
00000
00000
00010
,
00000
00000
00000
10000
00000
00000
00000
00001
,
00000
00000
00000
01000
00000
00000
00000
00010
,
00200
00300
00000
00000
,
00010
00000
00010
00000
01000
00010
01000
00000
,
00001
00010
00100
01000
20000
00000
30000
00000
,
00100
00000
00100
00000
10000
00100
10000
00000
,
01000
00100
00010
01000
00200
00000
00300
00000
,
01000
00000
01000
00000
00010
01000
00010
00000
,
10000
01000
00100
00010
00002
00000
00003
00000
,
00100
00000
00100
00000
00001
00100
00001
00000
,
00010
00100
01000
00010
00200
00000
00300
00000
,
10000
01000
00100
00010
00001
00010
00100
01000
,
10000
00000
10000
00000
,
00001
00000
00001
00000
,
00110
01100
00110
00001
,
01100
00110
01100
10000
,
00001
00000
00001
00000
,
10000
00000
10000
00000
,
01100
00110
01100
00001
,
00010
01000
00100
00100
00000
00000
00000
00000
,
10000
01000
00100
00010
,
00002
00000
00100
00103
,
00001
00010
00100
01000
,
20000
00000
00100
30100
,
00010
20000
01000
30100
,
01000
00002
00010
00103
,
10000
00000
01010
00000
00001
01010
00000
00000
,
00100
01000
00010
10001
00000
01010
00000
00000
,
00010
00000
01000
10000
01000
00000
10100
00000
,
01000
00100
00010
00002
20000
00000
30003
00000
,
01000
00000
00010
00100
00010
00000
01001
00000
,
00010
00100
01000
10000
00100
00000
01010
00000
,
01000
00100
00010
00000
00001
00000
00001
00000
,
00010
00100
01000
00000
10000
00000
10000
00000
,
00010
00000
01000
00000
00001
10000
00000
01010
,
00000
00100
00000
00100
00100
00000
01010
00000
,
01000
00000
00010
00001
00010
00000
00101
00000
,
00010
00100
01000
20000
00002
00000
30003
00000
,
00010
00000
01000
00100
01000
00000
10010
00000
,
01000
00100
00010
00001
00100
00000
01010
00000
,
00010
00100
01000
00000
10000
00000
10000
00000
,
01000
00100
00010
00000
00001
00000
00001
00000
,
01000
00000
00010
00000
10000
00001
00000
01010
,
00000
00100
00100
00100
00000
00000
01010
00000
,
01000
00000
01000
00000
00010
01000
00010
00000
,
10000
01000
00100
00010
00002
00000
00003
00000
,
00100
00000
00100
00000
00001
00100
00001
00000
,
00010
00100
01000
00010
00200
00000
00300
00000
,
00010
00000
00010
00000
01000
00010
01000
00000
,
00001
00010
00100
01000
20000
00000
30000
00000
,
00100
00000
00100
00000
10000
00100
10000
00000
,
01000
00100
00010
01000
00200
00000
00300
00000
,
00001
00010
00100
01000
10000
01000
00100
00010
,
00001
00000
00000
00000
;

//---------------para-single - ----------------
#NOTES:
     para-single:
     Freestyle [Normal]:
     Medium:
     3:
     0.330506,0.383387,0.385590,0.099152,0.000000,210.000000,175.000000,35.000000,9.000000,0.000000,0.000000,0.330506,0.383387,0.385590,0.099152,0.000000,210.000000,175.000000,35.000000,9.000000,0.000000,0.000000:
00000
00000
00000
00000
,
00000
00000
00000
00000
,
00000
00000
00000
00000
,
00000
00000
00000
00000
,
10100
00000
00000
00000
,
00101
00000
00000
00000
,
10100
00000
00000
00000
,
00101
00000
00000
00000
,
01000
00010
01000
00010
,
00101
00101
00101
00000
,
00010
10000
00010
10000
,
01100
01100
01100
00000
,
00010
01000
00010
01000
,
10100
10100
10100
00000
,
01000
00001
01000
00001
,
00110
00110
00110
00000
,
00001
00010
00100
01000
,
10000
00000
10000
00000
,
00001
00000
00001
00000
,
10000
00001
10000
00001
,
10010
01001
10010
01000
,
00001
00000
00001
00000
,
10000
00000
10000
00000
,
00001
10000
00001
10000
,
01001
00000
00000
10010
00000
00000
00000
00000
,
10000
01000
00100
00010
,
00002
00003
10001
00000
,
00001
00010
00100
01000
,
20000
30000
10001
00000
,
01000
00100
00010
00000
,
00010
00100
01000
00000
,
00020
02000
03030
00100
,
02000
03010
00100
00000
,
01000
00100
00010
00001
,
00100
00000
01000
10000
00000
00000
00000
00000
,
00001
00010
00100
01000
,
10000
00000
01000
00100
00010
00000
00000
00000
,
01000
01000
00010
00010
,
10000
10000
00001
00001
,
00010
00100
01000
20000
,
00100
00010
00002
30003
,
00010
00100
01000
10000
,
00100
00000
00010
00001
00000
00000
00000
00000
,
10000
01000
00100
00010
,
00001
00000
00010
00100
01000
00000
00000
00000
,
00010
00010
01000
01000
,
00001
00001
10000
10000
,
01000
00100
00010
00002
,
00100
01000
20000
30003
,
00010
01000
00010
01000
,
10100
10100
10100
00000
,
01000
00001
01000
00001
,
00110
00110
00110
00000
,
01000
00010
01000
00010
,
00101
00101
00101
00000
,
00010
10000
00010
10000
,
01100
01100
01100
00000
,
10000
01000
00100
00010
,
00001
00000
00000
00000
;
