#VERSION:0.83;
#TITLE:Bubbles on the Wind;
#SUBTITLE:;
#ARTIST:BVG with Z3N;
#TITLETRANSLIT:;
#SUBTITLETRANSLIT:;
#ARTISTTRANSLIT:;
#GENRE:WISTFUL EUROBEAT;
#ORIGIN:BVG original eurobeat Vol. 1;
#CREDIT:;
#BANNER:Bubbles on the Wind.png;
#BACKGROUND:Bubbles on the Wind-bg.png;
#PREVIEWVID:;
#JACKET:Bubbles on the Wind-jacket.png;
#CDIMAGE:;
#DISCIMAGE:;
#LYRICSPATH:Bubbles on the Wind.lrc;
#CDTITLE:Bubbles on the Wind-cdtitle.png;
#MUSIC:Bubbles on the Wind.ogg;
#OFFSET:-0.034883;
#SAMPLESTART:65.677711;
#SAMPLELENGTH:14.839999;
#SELECTABLE:YES;
#BPMS:0.000=153.000;
#STOPS:;
#DELAYS:;
#WARPS:;
#TIMESIGNATURES:0.000=4=4;
#TICKCOUNTS:0.000=4;
#COMBOS:0.000=1;
#SPEEDS:0.000=1.000=0.000=0;
#SCROLLS:0.000=1.000;
#FAKES:;
#LABELS:0.000=Song Start;
#BGCHANGES:20.000=bubble4.avi=1.000=1=0=1===CrossFade==,
36.000=sun1.avi=1.000=0=0=1=====,
40.000=star1.avi=1.000=0=0=1=====,
56.000=heart9.avi=1.000=0=0=1=====,
70.000=ferriswheel1.avi=1.000=0=0=1=====,
72.000=tropical1.avi=1.000=0=0=1=====,
80.000=wind1.avi=1.000=0=0=1=====,
88.000=bubble3.avi=1.000=0=0=1=====,
96.000=heart11.avi=1.000=0=0=1=====,
104.000=tropical1.avi=1.000=0=0=1=====,
112.000=wind1.avi=1.000=0=0=1=====,
120.000=bubble3.avi=1.000=0=0=1=====,
128.000=heart9.avi=1.000=0=0=1=====,
136.000=beads2.avi=1.000=0=0=1=====,
144.000=flower1.avi=1.000=0=0=1=====,
152.000=heart3.avi=1.000=0=0=1=====,
160.000=sun1.avi=1.000=0=0=1=====,
164.000=fireworks3.avi=1.000=0=0=1=====,
168.000=bubble4.avi=1.000=0=0=1=====,
184.000=balloon1.avi=1.000=0=0=1=====,
192.000=sun1.avi=1.000=0=0=1=====,
196.000=tropical1.avi=1.000=0=0=1=====,
200.000=bubble4.avi=1.000=0=0=1=====,
208.000=heart2.avi=1.000=0=0=1=====,
216.000=heart1.avi=1.000=0=0=1=====,
224.000=bubble4.avi=1.000=0=0=1=====,
228.000=beads2.avi=1.000=0=0=1=====,
232.000=sun1.avi=1.000=0=0=1=====,
236.000=flower1.avi=1.000=0=0=1=====,
240.000=balloon1.avi=1.000=0=0=1=====,
242.000=bubble3.avi=1.000=0=0=1=====,
244.000=beads1.avi=1.000=0=0=1=====,
248.000=bubble4r.avi=1.000=0=0=1=====,
256.000=bubble4.avi=1.000=0=0=1=====,
264.000=ferriswheel1.avi=1.000=0=0=1=====,
280.000=heart9.avi=1.000=0=0=1=====,
292.000=flower1.avi=1.000=0=0=1=====,
296.000=bubble4.avi=1.000=0=0=1=====,
303.000=Bubbles on the Wind-bg.png=1.000=0=0=1=====,
99999=-nosongbg-=1.000=0=0=0 // don't automatically add -songbackground-
;
#KEYSOUNDS:;
#ATTACKS:
;

//---------------dance-single - ----------------
#NOTEDATA:;
#CHARTNAME:Expert;
#STEPSTYPE:dance-single;
#DESCRIPTION:;
#CHARTSTYLE:;
#DIFFICULTY:Hard;
#METER:13;
#RADARVALUES:0.579151,0.703025,0.329794,0.410232,0.152831,504.000000,463.000000,41.000000,51.000000,0.000000,0.000000,0.000000,0.000000,0.000000,0.579151,0.703025,0.329794,0.410232,0.152831,504.000000,463.000000,41.000000,51.000000,0.000000,0.000000,0.000000,0.000000,0.000000;
#CREDIT:BlindedVanguard573;
#NOTES:
0000
0000
0000
0000
,
0000
0000
0000
0000
,
0000
0000
0000
0000
,
0000
0000
0000
0000
,
0000
0000
0000
0000
,
1001
0000
0001
0100
0000
0001
1000
0100
,
1000
0000
0010
1000
0000
0001
0010
0001
,
1000
0010
0001
0000
1000
0100
0001
0000
,
2000
0000
0000
0000
3001
0000
0010
0000
0100
1000
0000
0001
0100
0000
0010
0000
,
1002
0000
1000
0000
0000
0000
1003
0000
0001
0100
0000
1000
0100
0000
0001
0000
,
1000
0100
1000
0100
0010
0000
0002
0000
0000
0000
1000
0000
1003
0000
0000
0000
,
0001
0100
0001
0100
0010
0000
2000
0000
0000
0000
0001
0000
3001
0000
0000
0000
,
1000
0000
0100
0010
0001
0000
0101
0000
0000
0000
1010
0000
0000
0000
0201
0000
,
0000
0000
1300
0100
0010
0100
0001
1000
,
0001
0100
0001
0100
0010
0000
2000
0000
0000
0000
0001
0000
3001
0000
0000
0000
,
1000
0100
1000
0100
0010
0000
0002
0000
0000
0000
1000
0000
1003
0000
0000
0000
,
0001
0000
0100
0010
1000
0000
1100
0000
0000
0000
0011
0000
0000
0000
1200
0000
,
0000
0000
0301
0100
0010
0100
1000
0001
,
0000
1000
0010
1000
0010
0100
1000
0200
,
0000
0000
0301
0000
1000
0100
0010
0002
,
0000
0010
0000
1003
0001
0100
0010
2000
,
0010
0000
3001
0000
1000
0010
0001
0020
,
0000
0130
0001
0100
0001
1000
0100
2000
,
0010
0000
3001
0000
1000
0100
0001
0200
,
0000
0310
0001
1000
0010
0100
0001
2000
,
0100
0000
0000
0000
3001
0000
0000
0000
1000
0010
0000
1000
0001
0000
1001
0000
,
0000
0001
0010
0001
0010
0100
0001
0200
,
0000
0000
1300
0000
0001
0100
0010
2000
,
0000
3010
1000
0001
1000
0100
0010
0002
,
0010
0000
1003
0000
0001
0010
1000
0020
,
0000
0130
1000
0100
1000
0001
0100
0002
,
0010
0000
1003
0000
0001
0100
1000
0200
,
0000
0310
1000
0001
0010
0100
1000
0002
,
0100
0000
1003
0000
0001
0100
1000
0100
,
0101
0000
0001
0011
0010
0110
0100
2100
,
0000
0000
3001
1000
0001
0100
1000
0200
,
0000
0310
1000
0001
1001
0000
1000
0100
,
0001
0000
0100
0000
1000
0000
0001
0000
1000
0010
1000
0010
1000
0000
0001
0000
,
1000
0100
0001
0100
0010
0010
0000
1002
,
0000
0103
1000
0200
0000
0301
0010
0002
,
0000
1003
0010
1000
0001
0100
0001
1000
,
0001
0000
0010
0000
1000
0000
0010
0000
1002
0000
0000
1003
0001
0100
0010
1000
,
0001
0010
1000
0010
0012
0000
0103
1000
,
0100
0010
1000
0002
1000
0000
1003
0001
,
1000
0100
0001
0010
0000
0001
0100
2000
,
0010
0000
3100
0000
1000
0010
0001
0010
,
1000
0100
0010
0100
0102
0000
0103
0010
,
0001
0100
0010
2000
0010
0000
3001
0100
,
1000
0010
1000
1100
0000
0101
0000
1002
,
0000
0000
0000
0000
0013
0100
0010
0100
1000
0100
1000
0100
2000
0000
0000
0000
,
3001
0100
1000
0100
0102
0000
0013
1000
,
0010
0100
1000
0002
0000
1003
0001
1000
,
0001
0010
1000
0100
0000
1000
0010
0002
,
0100
0000
0013
0001
1000
0100
0001
0100
,
1000
0010
0100
0010
0012
0000
0013
0100
,
0001
0010
0100
2000
0100
0000
3001
0010
,
1000
0100
1000
1010
0000
0011
0001
1002
,
0000
0000
0000
0000
0103
0010
0100
0010
1000
0010
1000
0010
2000
0000
3001
0000
,
0101
0000
0000
0000
0000
0000
0000
1000
,
1100
0000
0000
0000
0000
0000
0000
0001
,
0011
0000
0000
1000
1010
0000
0000
1000
,
1001
0000
0001
0000
0100
0000
0010
0000
1000
0100
0010
0001
0010
0100
1000
0001
,
1000
0010
1000
0010
0100
0000
0002
0000
0000
0000
1000
0000
1003
0000
0000
0000
,
0001
0010
0001
0010
0100
0000
2000
0000
0000
0000
0001
0000
3001
0000
0000
0000
,
1000
0000
0010
0100
0001
0000
0011
0000
0000
0000
1100
0000
0000
0000
0021
0000
,
0000
0000
1030
0010
0100
0010
0001
1000
,
0002
0000
0000
0010
0000
0100
0103
0001
,
2000
0000
0000
0010
0000
0100
3100
1000
,
0001
0100
0101
0000
1000
0100
1100
0000
,
1001
0000
0000
0110
0000
0010
0100
0001
,
0002
0000
0000
0100
0000
0010
0013
0001
,
2000
0000
0000
0100
0000
0010
3010
1000
,
0001
0010
0011
0000
1000
0010
1010
0000
,
0001
0010
0010
1000
0001
0100
0100
1000
,
2002
0000
0000
0000
,
0000
0000
0000
0000
,
3003
0000
0000
0000
;

//---------------dance-single - ----------------
#NOTEDATA:;
#CHARTNAME:Beginner;
#STEPSTYPE:dance-single;
#DESCRIPTION:;
#CHARTSTYLE:;
#DIFFICULTY:Beginner;
#METER:3;
#RADARVALUES:0.166621,0.213964,0.008044,0.128700,0.000000,145.000000,144.000000,1.000000,16.000000,0.000000,0.000000,0.000000,0.000000,0.000000,0.166621,0.213964,0.008044,0.128700,0.000000,145.000000,144.000000,1.000000,16.000000,0.000000,0.000000,0.000000,0.000000,0.000000;
#CREDIT:BlindedVanguard573;
#NOTES:
0000
0000
0000
0000
,
0000
0000
0000
0000
,
0000
0000
0000
0000
,
0000
0000
0000
0000
,
0000
0000
0000
0000
,
1000
0000
0000
0000
,
0001
0000
0000
0000
,
0100
0000
0100
0000
,
0200
0000
0000
0000
,
0300
0000
0000
0000
,
0010
0000
1000
0000
,
0001
0000
0100
0000
,
0001
0000
0010
0000
,
0100
0100
0100
0000
,
0010
0000
0001
0000
,
0100
0000
0010
0000
,
1000
0000
0001
0000
,
1000
1000
1000
0000
,
0001
0000
0010
0000
,
0100
0000
1000
0000
,
0001
0000
0100
0000
,
0010
0000
1000
0000
,
0001
0000
0010
0000
,
1000
0000
0010
0000
,
0001
0000
0100
0000
,
1000
0000
0100
0100
,
0100
0000
0010
0000
,
1000
0000
0100
0000
,
0001
0000
0100
0000
,
0010
0000
0001
0000
,
1000
0000
0010
0000
,
0001
0000
0010
0000
,
0100
0000
0001
0000
,
1000
0000
0001
0001
,
0001
0000
0010
0000
,
0100
0100
0100
0000
,
1000
0000
0001
0000
,
0100
0100
0100
0000
,
0010
0000
1000
0000
,
0001
0001
0001
0000
,
0010
0000
0100
0000
,
1000
1000
1000
0000
,
0001
0001
0001
0000
,
0100
0000
0010
0000
,
1000
1000
1000
0000
,
0002
0000
0003
0000
,
0010
0000
0100
0000
,
1000
1000
1000
0000
,
0010
0000
0100
0000
,
0020
0000
0030
0000
,
1000
0000
0010
0000
,
0100
0100
0100
0000
,
0001
0000
1000
0000
,
0002
0000
0003
0000
,
0010
0000
0100
0000
,
1000
1000
1000
0000
,
0010
0000
0100
0000
,
2002
0000
3003
0000
,
1000
0000
0010
0000
,
0100
0000
0001
0000
,
1000
1000
1000
0000
,
0001
0001
0001
0000
,
1000
0000
0100
0000
,
0010
0000
0001
0000
,
1000
1000
1000
0000
,
0001
0001
0001
0000
,
0200
0000
0000
0300
,
0020
0000
0000
0030
,
2000
3000
0002
0003
,
2000
0000
0000
3000
,
0002
0000
0000
0003
,
0020
0000
0000
0030
,
0200
0300
0020
0030
,
0001
0001
0001
0001
,
0002
0000
0000
0000
,
0000
0000
0000
0000
,
0003
0000
0000
0000
;

//---------------dance-single - ----------------
#NOTEDATA:;
#CHARTNAME:Basic;
#STEPSTYPE:dance-single;
#DESCRIPTION:;
#CHARTSTYLE:;
#DIFFICULTY:Easy;
#METER:5;
#RADARVALUES:0.297619,0.336229,0.112613,0.160875,0.000000,259.000000,245.000000,14.000000,20.000000,0.000000,0.000000,0.000000,0.000000,0.000000,0.297619,0.336229,0.112613,0.160875,0.000000,259.000000,245.000000,14.000000,20.000000,0.000000,0.000000,0.000000,0.000000,0.000000;
#CREDIT:BlindedVanguard573;
#NOTES:
0000
0000
0000
0000
,
0000
0000
0000
0000
,
0000
0000
0000
0000
,
0000
0000
0000
0000
,
0000
0000
0000
0000
,
1000
0000
0100
1000
,
0001
0000
0100
0001
,
1000
1000
0001
0001
,
0010
0100
0010
0000
,
2002
0000
0000
3003
,
0001
0100
0010
1001
,
1000
0100
0010
1001
,
0001
0100
1000
0100
,
0001
0001
1000
1000
,
0001
0010
0100
1001
,
1000
0010
0100
1001
,
0001
0010
1000
0010
,
0001
0001
1000
1000
,
0001
0100
0001
0100
,
0020
0030
0100
0100
,
0001
0010
0001
0010
,
0200
0300
0010
0010
,
0001
1000
0001
1000
,
0020
0030
0100
0100
,
0010
1000
0001
0100
,
0001
0010
0100
1001
,
1000
0100
0001
0100
,
2000
3000
0001
0001
,
1000
0010
0001
0010
,
2000
3000
0001
0001
,
1000
0100
0001
0100
,
0020
0030
0100
0100
,
1000
0010
0001
0010
,
0200
0300
0010
1000
,
0001
0010
0001
0010
,
0100
1000
0100
1000
,
0001
0100
0001
0100
,
0010
1000
0001
0000
,
1000
0100
1000
0100
,
0010
0001
0010
0001
,
1000
0010
1000
0010
,
0100
0001
2000
3000
,
0001
0010
1000
0010
,
0100
1000
0001
0100
,
1000
0100
0010
1000
,
0001
0001
1000
1000
,
0001
0010
1000
0010
,
0100
1000
0001
0100
,
0010
1000
0001
0100
,
0020
0030
0100
0100
,
0001
0100
1000
0010
,
1000
0100
0001
1000
,
0001
0010
1000
0100
,
2000
3000
0010
0001
,
1000
0010
0001
0100
,
0001
0010
1000
0001
,
0010
0010
0100
0100
,
2002
0000
0000
3003
,
1001
0000
0000
0000
,
0110
0000
0000
0000
,
0101
0000
1100
0000
,
1000
0100
0010
0001
,
1000
0010
0100
0101
,
0001
0010
0100
1100
,
1000
0100
0001
0100
,
1000
1000
0001
0001
,
2000
0000
3010
1000
,
0002
0000
0013
0001
,
1000
1000
0001
0001
,
0100
0010
0100
0010
,
2000
0000
3100
1000
,
0002
0000
0103
0001
,
1000
0100
0001
0100
,
1000
1000
0001
0001
,
2002
0000
0000
0000
,
0000
0000
0000
0000
,
3003
0000
0000
0000
;

//---------------dance-single - ----------------
#NOTEDATA:;
#CHARTNAME:Difficult;
#STEPSTYPE:dance-single;
#DESCRIPTION:;
#CHARTSTYLE:;
#DIFFICULTY:Medium;
#METER:8;
#RADARVALUES:0.406784,0.458494,0.281532,0.241313,0.000000,354.000000,319.000000,35.000000,30.000000,0.000000,0.000000,0.000000,0.000000,0.000000,0.406784,0.458494,0.281532,0.241313,0.000000,354.000000,319.000000,35.000000,30.000000,0.000000,0.000000,0.000000,0.000000,0.000000;
#CREDIT:BlindedVanguard573;
#NOTES:
0000
0000
0000
0000
,
0000
0000
0000
0000
,
0000
0000
0000
0000
,
0000
0000
0000
0000
,
0000
0000
0000
0000
,
1000
0000
0000
0010
0000
0000
0100
0000
,
0001
0000
0000
0100
0000
0000
0010
0000
,
1000
1000
0001
0001
,
0010
0100
1000
0001
,
2001
0000
0100
3100
,
1000
0000
0010
0100
0000
0100
0001
0000
,
1000
0000
0100
0010
0000
0010
0001
0000
,
2000
3010
0002
0013
,
0100
0101
1100
1001
,
0001
0000
0010
0100
0000
1000
0001
0000
,
1000
0000
0010
0100
0000
0001
1000
0000
,
0002
0010
2003
0010
,
3001
0101
1100
1001
,
1000
0010
1000
0000
0010
0000
0100
0000
,
0002
0000
1003
0000
0100
0010
0100
0000
,
1000
0000
0010
0000
0100
0001
0100
0000
,
0002
1003
0100
0110
,
0010
0000
0001
0000
1000
0100
1000
0000
,
0002
0000
0103
0000
0010
1000
0001
0000
,
0010
0000
0100
0000
1000
0001
0100
0000
,
0010
1000
0001
1001
,
1000
0000
0100
0000
0001
0100
1000
0000
,
0020
0130
0001
1001
,
0001
0000
0010
0000
1000
0010
0001
0000
,
0200
0310
0100
1001
,
1000
0100
0010
0000
0001
0010
0100
0000
,
2000
0000
3001
0000
0100
0010
0100
0000
,
1000
0010
0100
0000
0001
0100
0010
0000
,
2000
0000
3001
0000
0010
0100
0010
0100
,
1000
1010
1000
1001
,
0001
0000
0011
0000
0001
1000
0001
0000
,
1000
1100
0001
0101
,
1000
0000
1001
0000
0001
0100
1000
0100
,
0001
0011
0100
1010
,
0100
0000
1001
0000
1000
0010
0001
0000
,
0010
0101
0010
1100
,
1000
0010
0100
0001
2000
0000
3001
0000
,
1000
0100
0010
0000
0002
0000
1003
0000
,
0001
0100
0010
0000
2000
0000
3001
0000
,
1000
0100
0001
0000
0001
0100
1000
0000
,
0020
0130
0101
1100
,
0001
0000
0100
0000
1000
0100
0001
0000
,
1000
0000
0100
0000
0001
0100
1000
0000
,
0010
0100
0001
0000
0010
0100
1000
0000
,
0020
0000
0130
0000
0001
1000
1001
0000
,
0001
0100
0010
0000
2000
0000
3001
0000
,
1000
0100
0010
0000
0002
0000
1003
0000
,
0001
0100
1000
0000
1000
0100
0001
0000
,
0020
0130
1100
0101
,
1000
0000
0100
0000
0001
0100
1000
0000
,
0001
0000
0100
0000
1000
0100
0001
0000
,
0010
0100
1000
0000
0010
0100
0001
0000
,
0020
0000
0130
0000
1000
0001
1001
0000
,
0101
0000
0000
0000
0000
0000
0000
1000
,
0100
0000
0000
0000
0000
0000
0000
1000
,
0010
0000
0000
0100
0001
0000
0000
1000
,
0100
1000
0001
0100
0001
0000
1001
0000
,
0001
0000
0100
1000
0000
1000
0100
0000
,
0001
0000
0010
1000
0000
1000
0010
0000
,
0001
0100
0010
0000
1000
0100
0010
0000
,
0002
1003
1100
0101
,
2000
0000
0000
0010
0000
0000
3100
0000
,
1000
0000
0000
0010
0000
0000
0101
0000
,
0001
0010
1000
0000
1000
0010
0001
0000
,
0200
0310
2000
3001
,
2000
0000
0000
0100
0000
0000
3010
0000
,
1000
0000
0000
0100
0000
0000
0011
0000
,
0001
0100
1000
0000
1000
0100
0001
0000
,
0020
0130
2000
3001
,
2002
0000
0000
0000
,
0000
0000
0000
0000
,
3003
0000
0000
0000
;

//---------------dance-double - ----------------
#NOTEDATA:;
#CHARTNAME:Expert;
#STEPSTYPE:dance-double;
#DESCRIPTION:;
#CHARTSTYLE:;
#DIFFICULTY:Hard;
#METER:13;
#RADARVALUES:0.620519,0.764157,0.498713,0.370013,0.205116,540.000000,478.000000,62.000000,46.000000,0.000000,0.000000,0.000000,0.000000,0.000000,0.620519,0.764157,0.498713,0.370013,0.205116,540.000000,478.000000,62.000000,46.000000,0.000000,0.000000,0.000000,0.000000,0.000000;
#CREDIT:BlindedVanguard573;
#NOTES:
00000000
00000000
00000000
00000000
,
00000000
00000000
00000000
00000000
,
00000000
00000000
00000000
00000000
,
00000000
00000000
00000000
00000000
,
00000000
00000000
00000000
00000000
,
00012000
00000000
00100000
00103000
00000000
00001000
00010000
00000010
,
00002000
00000000
00000001
00003001
00000000
00001000
00000001
00000100
,
00000010
00001000
00001100
00000000
00000010
00000001
00000101
00000000
,
00000001
00000100
00001000
00010000
01000000
10000000
00010000
10000000
,
20020000
00000000
00000000
00000000
30030000
00000000
00000000
00000000
10000000
01000000
00000000
00010000
01000000
00000000
10000000
00000000
,
00010000
01000000
00010000
01000000
00100000
00000000
20000000
00000000
00000000
00000000
00010000
00000000
30010000
00000000
00000000
00000000
,
00100000
00001000
00100000
00001000
00010000
00000000
00000200
00000000
00000000
00000000
00001300
00000000
00001001
00000000
00000000
00000000
,
00000001
00000000
00000100
00000010
00001000
00000000
00001010
00000000
00000000
00000000
00010100
00000000
00000000
00000000
00001020
00000000
,
00000000
00000000
00000031
00000010
00000100
00000010
00001000
00000001
,
00001000
00000100
00001000
00000100
00000010
00000000
00000002
00000000
00000000
00000000
00001000
00000000
00001003
00000000
00000000
00000000
,
00000010
00010000
00000010
00010000
00001000
00000000
02000000
00000000
00000000
00000000
03010000
00000000
10010000
00000000
00000000
00000000
,
10000000
00000000
01000000
00100000
00010000
00000000
00110000
00000000
00000000
00000000
01001000
00000000
00000000
00000000
00210000
00000000
,
00000000
00000000
10300000
00100000
01000000
00100000
00010000
10000000
,
00010000
01000000
00010000
01000000
00100000
00010000
00100000
00010000
,
10000000
01000000
10000000
01000000
00100000
10000000
00100000
10000000
,
00010000
00100000
00010000
00100000
00000100
00001000
00000100
00001000
,
00000010
00000100
00000010
00000100
00000001
00001000
00001001
00000000
,
00001000
00000010
00001000
00000010
00000100
00001000
00000100
00001000
,
00000001
00000010
00000001
00000010
00000100
00000001
00000100
00000001
,
00001000
00000100
00001000
00000100
00100000
00010000
00100000
00010000
,
01000000
00000000
00100000
00000000
01000000
00000000
00100000
00000000
10000000
00010000
00000000
00010000
10000000
00000000
10010000
00000000
,
20000000
01000000
00010000
00100000
,
30020000
01000000
10000000
00130000
,
00012000
00000000
00100000
00000000
01003000
00001000
00010000
00000200
,
00000010
00000000
00000001
00000000
00001300
00000100
00001000
00000002
,
00000010
00000000
00001000
00001000
00000000
00000100
00000103
00000000
,
00002010
00000001
00000100
00003010
,
00010200
00100000
00001000
00010300
,
00000100
00000000
00010000
00000000
01000000
00000000
10000000
00000000
00010000
01000000
00100000
10000000
00100000
01000000
00010000
10000000
,
02000000
00000000
03100000
00110000
00000000
10100000
00000000
00210000
,
00001000
00000000
00010000
00000000
00301000
00100000
00000100
00000010
,
00000011
00000000
00000100
00001100
00000000
00000101
00000000
00001200
,
00010000
00000000
00001000
00000000
00010300
00000100
00100000
01000000
,
10010000
00000000
01000000
10100000
00000000
00110000
00000000
10020000
,
00100000
00000000
01000000
00000000
10030000
01000000
00010000
00001000
,
00000100
00000000
00000010
00001010
00000000
00000011
00000000
00001001
,
00000001
00000010
00000100
00001000
00000001
00000100
00000010
00001000
00000002
00000000
00000000
00001003
00000100
00010000
00001000
00100000
,
00010000
01000000
10000000
01000000
01002000
00000000
00013000
00000000
,
00001000
00010000
00000100
00001000
00000020
00000000
00000130
00000000
,
00000001
00000010
00000011
00000000
00001000
00000010
00001010
00000000
,
00001002
00000000
00000000
00000000
00000103
00000001
00001000
00000000
00000100
00001000
00000001
00001000
00000020
00000000
00000030
00000000
,
00001000
00000100
00000001
00000100
00020100
00000000
00031000
00000000
,
00010000
00001000
01000000
00010000
00200000
00000000
01300000
00000000
,
10000000
00100000
10100000
00000000
00010000
00100000
00110000
00000000
,
20010000
00000000
00000000
00000000
31000000
10000000
00010000
00000000
01000000
00010000
10000000
00010000
00200000
00000000
00300000
00000000
,
00010000
01000000
10000000
00010000
00100000
01000000
00001000
00010000
,
00000100
00001000
00000010
00000001
00000010
00001000
00001001
00000000
,
00000001
00000010
00000100
00000000
00002200
00000000
00003300
00000000
00001000
00000010
00000100
00000000
00000202
00000000
00000303
00000000
,
00001002
00000000
00000000
00000000
00000103
00001000
00000100
00000000
00001000
00010000
00001000
00010000
00200000
00000000
00300000
00000000
,
00001000
00000100
00000001
00001000
00000010
00000100
00010000
00001000
,
01000000
00010000
00100000
10000000
00100000
00010000
10010000
00000000
,
10000000
00100000
01000000
00000000
02020000
00000000
03030000
00000000
00010000
00100000
01000000
00000000
22000000
00000000
33000000
00000000
,
20010000
00000000
00000000
00000000
31000000
00010000
01000000
00000000
00010000
00001000
00010000
00001000
00000020
00000000
00000030
00000000
,
00001001
00000000
00000000
00000000
00000000
00000000
00000000
00010000
,
00011000
00000000
00000000
00000000
00000000
00000000
00000000
10000000
,
10010000
00000000
00000000
00001000
00011000
00000000
00000000
00000001
,
00001001
00000000
00000001
00000000
00001000
00000000
00000100
00000000
00010000
00001000
00100000
00010000
01000000
00001000
00010000
00100000
,
10000000
01000000
10000000
01000000
00100000
00000000
00010000
00000000
01000000
00000000
10000000
00000000
01000000
00000000
00001000
00000000
,
00010000
00000010
00010000
00000010
00001000
00000000
00000100
00000000
00000001
00000000
00000100
00000000
00000010
00000000
00000001
00000000
,
00001000
00000000
00000010
00000100
00000010
00000000
00001000
00000000
00000001
00000000
00000010
00000100
00000010
00000000
00000001
00000000
,
00000100
00001000
00011000
00010000
01010000
01000000
11000000
10000000
,
10010000
00010000
00000000
10000000
00000000
00001000
00000000
00010000
,
00000000
00000001
00000000
00001000
00000000
00010000
00000000
00001000
,
00100000
00010000
01010000
00010000
10000000
00100000
10100000
10000000
,
00020000
00100000
10030000
00010000
10000000
01000000
00010000
00000100
,
00001001
00001000
00000000
00000001
00000000
00010000
00000000
00001000
,
00000000
10000000
00000000
00010000
00000000
00001000
00000000
00010000
,
00000100
00001000
00001010
00001000
00000001
00000100
00000101
00000001
,
00002000
00000100
00003001
00001000
00000001
00000010
00001000
00010000
,
00022000
00000000
00000000
00000000
,
00000000
00000000
00000000
00000000
,
00033000
00000000
00000000
00000000
;

//---------------dance-double - ----------------
#NOTEDATA:;
#CHARTNAME:Basic;
#STEPSTYPE:dance-double;
#DESCRIPTION:;
#CHARTSTYLE:;
#DIFFICULTY:Easy;
#METER:6;
#RADARVALUES:0.304514,0.336229,0.112613,0.152831,0.000000,265.000000,251.000000,14.000000,19.000000,0.000000,0.000000,0.000000,0.000000,0.000000,0.304514,0.336229,0.112613,0.152831,0.000000,265.000000,251.000000,14.000000,19.000000,0.000000,0.000000,0.000000,0.000000,0.000000;
#CREDIT:BlindedVanguard573;
#NOTES:
00000000
00000000
00000000
00000000
,
00000000
00000000
00000000
00000000
,
00000000
00000000
00000000
00000000
,
00000000
00000000
00000000
00000000
,
00000000
00000000
00000000
00000000
,
00001000
00100000
00100000
00001000
,
00010000
00000010
00000010
00010000
,
00001000
00001000
00010000
00010000
,
00000100
00001000
00000001
00001000
,
00002002
00000000
00000000
00003003
,
00000001
00000100
00001000
00001000
,
00000100
00000010
00010000
00010000
,
00001000
00100000
00001000
00100000
,
00010000
01000000
00100000
10010000
,
10000000
01000000
00010000
00010000
,
01000000
00100000
00001000
00001000
,
00010000
00000010
00010000
00000010
,
00001000
00000100
00000010
00001001
,
00000001
00000100
00000001
00000100
,
00000020
00000030
00001000
00001000
,
00000100
00010000
00000100
00010000
,
00002000
00003000
01000000
01000000
,
00100000
10000000
00010000
01000000
,
00200000
00300000
10000000
01000000
,
00010000
01000000
10000000
00010000
,
00100000
00001000
00010000
00000100
,
00001000
00000010
00000001
00000010
,
00000200
00000300
00000001
00001000
,
00000100
00010000
00001000
00100000
,
00020000
00030000
01000000
10000000
,
01000000
00100000
10000000
00001000
,
00020000
00030000
00001000
00010000
,
00000100
00001000
00000010
00000100
,
00000001
00000010
00000100
00001001
,
00000001
00000100
00001000
00000100
,
00000020
00000030
00001000
00000001
,
00001000
00000100
00000001
00000100
,
00010000
00001000
00100000
00000000
,
00010000
01000000
10000000
01000000
,
00010000
00100000
10000000
00100000
,
00010000
01000000
00001000
00010000
,
00000100
00001000
00002002
00003003
,
00000001
00000100
00000010
00001000
,
00000001
00000010
00000100
00001000
,
00000001
00000100
00001000
00010000
,
00200000
00300000
01000000
00010000
,
10000000
01000000
00010000
01000000
,
10000000
00100000
00010000
00100000
,
10000000
00100000
00010000
00001000
,
00000010
00000001
00001000
00001001
,
00000001
00000010
00000100
00001000
,
00000001
00000100
00000010
00001000
,
00000001
00000010
00001000
00010000
,
02000000
03000000
00100000
00010000
,
10000000
00100000
00010000
00100000
,
10000000
01000000
00010000
01000000
,
10000000
01000000
00010000
00001000
,
00000100
00000001
00001000
00001001
,
00001001
00000000
00000000
00000000
,
00011000
00000000
00000000
00000000
,
10010000
00000000
00011000
00000000
,
00001001
00000001
00001000
00000001
,
00001000
00000100
00000001
00000001
,
00000100
00001000
00000010
00000010
,
00010000
00001000
00100000
00010000
,
01000000
00100000
10000000
10010000
,
20000000
30000000
01000000
00010000
,
02000000
03000000
00010000
01000000
,
00010000
00001000
00000010
00000001
,
00000010
00001000
00000010
00000100
,
00002000
00003000
00000010
00000001
,
00000020
00000030
00000100
00000001
,
00001000
00000100
00000001
00000100
,
00010000
00001000
00100000
00010000
,
20020000
00000000
00000000
00000000
,
00000000
00000000
00000000
00000000
,
30030000
00000000
00000000
00000000
;

//---------------dance-double - ----------------
#NOTEDATA:;
#CHARTNAME:Difficult;
#STEPSTYPE:dance-double;
#DESCRIPTION:;
#CHARTSTYLE:;
#DIFFICULTY:Medium;
#METER:10;
#RADARVALUES:0.452749,0.458494,0.329794,0.297619,0.004022,394.000000,353.000000,41.000000,37.000000,0.000000,0.000000,0.000000,0.000000,0.000000,0.452749,0.458494,0.329794,0.297619,0.004022,394.000000,353.000000,41.000000,37.000000,0.000000,0.000000,0.000000,0.000000,0.000000;
#CREDIT:BlindedVanguard573;
#NOTES:
00000000
00000000
00000000
00000000
,
00000000
00000000
00000000
00000000
,
00000000
00000000
00000000
00000000
,
00000000
00000000
00000000
00000000
,
00000000
00000000
00000000
00000000
,
00011000
00000000
00001000
00100000
00000000
00001000
00100000
00000000
,
00001000
00000000
00010000
00000010
00000000
00010000
00000010
00000000
,
00000100
00000001
00000010
00000000
00000100
00001000
00000010
00000000
,
00001002
00000000
00000103
00000000
00000001
00000010
00000100
00000000
,
00002100
00000000
00000000
00000000
00003001
00000000
00000000
00000000
00000100
00000000
00000000
00000100
00000000
00000000
00000100
00000000
,
00000001
00000100
00000010
00002000
00000000
00000001
00003001
00000000
,
00001000
00000100
00000010
00000002
00000000
00001000
00001003
00000000
,
00000001
00000100
00001000
00010000
00000000
00001000
00000000
00000100
,
00000010
00001010
00011000
01010000
,
10000000
01000000
00100000
00020000
00000000
10000000
10030000
00000000
,
00010000
01000000
00100000
20000000
00000000
00010000
30010000
00000000
,
10000000
01000000
00010000
00001000
00000000
00010000
00000000
01000000
,
00100000
00110000
00011000
00001100
,
00001000
00000010
00001000
00000000
00000001
00000010
00000001
00000000
,
00002000
00003001
00000101
00001100
,
00000001
00000100
00001000
00000000
00000100
00000010
00001000
00000000
,
00000002
00001003
00001010
00000011
,
00000001
00000100
00001000
00000000
00010000
01000000
10000000
00000000
,
00200000
01300000
10010000
01100000
,
10000000
00100000
00010000
00000000
00001000
00010000
00100000
00000000
,
10000000
01000000
00100000
00010000
10000000
00000000
10010000
00000000
,
00010000
00100000
00010000
00000000
10000000
00100000
10000000
00000000
,
00020000
10030000
11000000
01010000
,
10000000
01000000
00010000
00000000
01000000
00100000
00010000
00000000
,
20000000
30010000
00110000
10100000
,
10000000
01000000
00010000
00000000
00001000
00000100
00000001
00000000
,
00000020
00000130
00001001
00000110
,
00000001
00000010
00001000
00000000
00010000
00001000
00000010
00000000
,
00000001
00000100
00000010
00001000
00000001
00000000
00001001
00000000
,
00000201
00000000
00001300
00000000
00000100
00000010
00000100
00000010
,
00020000
00031000
00011000
10010000
,
10000000
00100000
00010000
00000000
00001000
00000000
00010000
00000000
,
00100000
10000000
01000000
00100000
00010000
00000000
10010000
00000000
,
10000000
01000000
00010000
00000000
00001000
00010000
00000000
00011000
,
00000000
00001000
00010000
00000100
00000000
00001000
00000001
00000100
,
00000000
00000010
00001000
00000000
00000001
00000010
00001000
00000000
,
00000010
00000001
00001000
00000001
00000200
00000000
00000310
00000000
,
00001000
00000100
00000001
00000000
00000200
00000000
00010300
00000000
,
00001000
00100000
00010000
00000000
20000000
00000000
30010000
00000000
,
10000000
00100000
00010000
00000000
10000000
01000000
00010000
00000000
,
00200000
01300000
11000000
01010000
,
00010000
01000000
10000000
00000000
02000000
00000000
03001000
00000000
,
00010000
00000010
00001000
00000000
00000002
00000000
00001003
00000000
,
00000001
00000010
00001000
00000000
00000001
00000100
00001000
00000000
,
00000020
00000130
00000101
00001100
,
00000001
00000100
00001000
00000100
00000020
00000000
00001030
00000000
,
00000100
00010000
00000100
00010000
00002000
00000000
00103000
00000000
,
00010000
01000000
10000000
00000000
10000000
01000000
00100000
00000000
,
20000000
30010000
11000000
01010000
,
10000000
01000000
00010000
01000000
00200000
00000000
00310000
00000000
,
01000000
00001000
01000000
00001000
00020000
00000000
00030010
00000000
,
00001000
00000100
00000001
00000000
00000001
00000100
00000010
00000000
,
00000002
00001003
00000101
00001100
,
00001001
00000000
00000000
00000000
00000000
00000000
00000000
00010000
,
00001000
00000000
00000000
00000000
00000000
00000000
00000000
10000000
,
00010000
00000000
00000000
01000000
00100000
00000000
00000000
10000000
,
01000000
00100000
00010000
00001000
00010000
00100000
01000000
10000000
,
00010000
01000000
10000000
02000000
00000000
00100000
03100000
00000000
,
10000000
01000000
00010000
02000000
00000000
00100000
03100000
00000000
,
00120000
01030000
20100000
31000000
,
20010000
30002000
00023000
00030002
,
00000003
00001000
00000000
00000100
00000000
00000001
00000000
00000100
,
00000000
00010000
00000000
00001000
00000000
00100000
00000000
00010000
,
00000000
01000000
00000000
01000000
00000000
00100000
00000000
00100000
,
00000000
10000000
00000000
00010000
00000000
00100000
01000000
00100000
,
00000000
00010000
00000000
01000000
00000000
10000000
00000000
01000000
,
00000000
00001000
00000000
00010000
00000000
00000010
00000000
00001000
,
00000000
00000100
00000000
00000100
00000000
00000010
00000000
00000010
,
00000000
00000001
00000000
00001000
00000000
00000010
00000100
00000010
,
00000220
00000000
00000000
00000000
,
00000000
00000000
00000000
00000000
,
00000330
00000000
00000000
00000000
;

//---------------para-single - ----------------
#NOTEDATA:;
#CHARTNAME:Freestyle [Expert];
#STEPSTYPE:para-single;
#DESCRIPTION:;
#CHARTSTYLE:;
#DIFFICULTY:Challenge;
#METER:8;
#RADARVALUES:0.528590,0.703025,0.233269,0.233269,0.333816,460.000000,431.000000,29.000000,29.000000,0.000000,0.000000,0.000000,0.000000,0.000000,0.528590,0.703025,0.233269,0.233269,0.333816,460.000000,431.000000,29.000000,29.000000,0.000000,0.000000,0.000000,0.000000,0.000000;
#CREDIT:BlindedVanguard573;
#NOTES:
// measure 0
00000
00000
00000
00000
,  // measure 1
00000
00000
00000
00000
,  // measure 2
00000
00000
00000
00000
,  // measure 3
00000
00000
00000
00000
,  // measure 4
00000
00000
00000
00000
,  // measure 5
00000
00000
00000
00000
,  // measure 6
00000
00000
00000
00000
,  // measure 7
00000
00000
00000
00000
,  // measure 8
00000
00000
00000
00000
,  // measure 9
20002
30003
00000
00000
,  // measure 10
10000
01000
00100
00010
00001
00000
02000
00000
00000
00000
00010
00000
03001
00000
00000
00000
,  // measure 11
00001
00010
00100
01000
10000
00000
00020
00000
00000
00000
01000
00000
10030
00000
00000
00000
,  // measure 12
00100
00010
00001
00010
00100
01000
10000
01000
,  // measure 13
00100
00000
00100
00000
01010
10001
01010
00000
,  // measure 14
00001
00010
00100
01000
10000
00000
00020
00000
00000
00000
01000
00000
10030
00000
00000
00000
,  // measure 15
10000
01000
00100
00010
00001
00000
02000
00000
00000
00000
00010
00000
03001
00000
00000
00000
,  // measure 16
00100
01000
10000
01000
00100
00010
00001
00010
,  // measure 17
00100
00000
00100
00000
01010
10001
01010
00000
,  // measure 18
00100
00010
00001
00000
00100
00000
00000
00000
00010
00100
01000
00000
10000
00000
00000
00000
,  // measure 19
00001
00001
10000
10000
,  // measure 20
00100
01000
10000
00000
00100
00000
00000
00000
01000
00100
00010
00000
00001
00000
00000
00000
,  // measure 21
10000
10000
00001
00001
,  // measure 22
10000
01000
00100
01000
10000
00000
00000
00000
00001
00010
00100
00010
00001
00000
00000
00000
,  // measure 23
01000
10000
00000
00000
10000
00000
00000
00000
00010
00001
00000
00000
00001
00000
00000
00000
,  // measure 24
10000
01000
00100
01000
10000
00000
00000
00000
00001
00010
00100
00010
00001
00000
00000
00000
,  // measure 25
01000
10000
00000
00000
10000
00000
00000
00000
00010
00001
00000
00001
00010
00000
00100
00000
,  // measure 26
10000
00100
00010
00000
00010
00100
10000
00100
,  // measure 27
01000
10000
01000
00000
00010
00001
00010
00000
,  // measure 28
00001
00100
01000
00000
01000
00100
00001
00100
,  // measure 29
00010
00001
00010
00000
01000
10000
01000
00000
,  // measure 30
10000
01000
00100
00010
00100
01000
10000
00000
,  // measure 31
00001
00010
00100
01000
00100
00010
00001
00000
,  // measure 32
00100
00010
00001
00000
00100
01000
10000
00000
,  // measure 33
20002
30003
00100
00100
,  // measure 34
10000
00000
00000
00000
10000
01000
00000
00000
00001
00000
00000
00000
00001
00010
00000
00000
,  // measure 35
00100
01000
10000
00000
00100
00010
00001
00000
,  // measure 36
10000
01000
00100
01000
10000
00000
00000
00000
00001
00010
00100
00010
00001
00000
00000
00000
,  // measure 37
10000
00000
01000
00000
00100
00000
00010
00000
00001
00010
00100
01000
10000
00000
00000
00000
,  // measure 38
00001
00000
00000
00000
00001
00010
00000
00000
10000
00000
00000
00000
10000
01000
00000
00000
,  // measure 39
00100
00010
00001
00000
00100
01000
10000
00000
,  // measure 40
00001
00010
00100
00010
00001
00000
00000
00000
10000
01000
00100
01000
00100
00000
00000
00000
,  // measure 41
00001
00010
00100
01000
10000
01000
00100
00010
00002
00000
00000
00000
00003
00000
00000
00000
,  // measure 42
10000
01000
00100
01000
20000
00000
30001
00000
,  // measure 43
00001
00010
00100
00010
00002
00000
10003
00000
,  // measure 44
00100
00100
01010
01010
,  // measure 45
20002
00000
00000
00000
30003
00000
00000
00000
10000
01000
00100
00010
00001
00000
00000
00000
,  // measure 46
00001
00010
00100
00010
00002
00000
10003
00000
,  // measure 47
10000
01000
00100
01000
20000
00000
30001
00000
,  // measure 48
00100
00100
01010
01010
,  // measure 49
20002
00000
00000
00000
30003
00000
00000
00000
00001
00010
00100
01000
10000
00000
00000
00000
,  // measure 50
00001
00010
00100
00010
00001
00000
00010
00000
20000
00000
00000
00000
30001
00000
00000
00000
,  // measure 51
10000
01000
00100
01000
10000
00000
01000
00000
00002
00000
00000
00000
10003
00000
00000
00000
,  // measure 52
10000
01000
00100
00010
00001
00000
00000
00000
00001
00010
00100
01000
10000
00000
00000
00000
,  // measure 53
20002
00000
00000
00000
30003
00000
00000
00000
10000
01000
00100
00010
00001
00000
00000
00000
,  // measure 54
10000
01000
00100
01000
10000
00000
01000
00000
00002
00000
00000
00000
10003
00000
00000
00000
,  // measure 55
00001
00010
00100
00010
00001
00000
00010
00000
20000
00000
00000
00000
30001
00000
00000
00000
,  // measure 56
00001
00010
00100
01000
10000
00000
00000
00000
10000
01000
00100
00010
00001
00000
00000
00000
,  // measure 57
20002
00000
00000
00000
30003
00000
00000
00000
00001
00010
00100
01000
10000
00000
00000
00000
,  // measure 58
10001
00000
00000
00000
,  // measure 59
01010
00000
00000
00000
,  // measure 60
00100
00100
01010
10001
,  // measure 61
10000
00000
01000
00000
00100
00000
00010
00000
01000
00100
00010
00001
00010
00100
01000
10000
,  // measure 62
00001
00010
00100
00010
00001
00000
00010
00000
20000
00000
00000
00000
30001
00000
00000
00000
,  // measure 63
10000
01000
00100
00010
00100
00000
01000
00000
20000
00000
00000
00000
30001
00000
00000
00000
,  // measure 64
10000
01000
00100
01000
10000
00000
00000
00000
00001
00010
00100
00010
00001
00000
00000
00000
,  // measure 65
10000
01000
00100
00010
00001
00010
00100
01000
20000
00000
00000
00000
30000
00000
00000
00000
,  // measure 66
00001
00001
10000
10000
,  // measure 67
00100
00100
01010
10001
,  // measure 68
10000
01000
00100
00010
00100
00010
00001
00010
,  // measure 69
00100
00100
01010
10001
,  // measure 70
10000
10000
00001
00001
,  // measure 71
00100
00100
01010
10001
,  // measure 72
00001
00010
00100
01000
00100
01000
10000
01000
,  // measure 73
00100
00000
00100
00000
01010
00000
10001
01010
,  // measure 74
00200
00000
00000
00000
,  // measure 75
00000
00000
00000
00000
,  // measure 76
00300
00000
00000
00000
;

//---------------para-single - ----------------
#NOTEDATA:;
#CHARTNAME:Freestyle [Normal];
#STEPSTYPE:para-single;
#DESCRIPTION:;
#CHARTSTYLE:;
#DIFFICULTY:Medium;
#METER:3;
#RADARVALUES:0.264295,0.397362,0.120656,0.032175,0.000000,230.000000,215.000000,15.000000,4.000000,0.000000,0.000000,0.000000,0.000000,0.000000,0.264295,0.397362,0.120656,0.032175,0.000000,230.000000,215.000000,15.000000,4.000000,0.000000,0.000000,0.000000,0.000000,0.000000;
#CREDIT:BlindedVanguard573;
#NOTES:
00000
00000
00000
00000
,
00000
00000
00000
00000
,
00000
00000
00000
00000
,
00000
00000
00000
00000
,
00000
00000
00000
00000
,
00000
00000
00000
00000
,
00000
00000
00000
00000
,
00000
00000
00000
00000
,
00000
00000
00000
00000
,
20002
30003
00000
00000
,
00001
00010
00001
00000
,
10000
00100
10000
00000
,
00010
01000
00100
00010
,
01000
00100
00010
00001
,
10000
01000
10000
00000
,
00001
00100
00001
00000
,
01000
00010
00100
01000
,
00010
00100
01000
10000
,
00010
00100
00010
00000
,
01000
00100
01000
00000
,
00010
01000
00010
10000
,
00001
01000
00010
00100
,
00100
00010
00001
00000
,
00100
01000
10000
00000
,
00001
00010
00100
01000
,
10000
01000
00100
00010
,
01000
00100
01000
00000
,
00010
00100
00010
00000
,
01000
00010
01000
00001
,
10000
00010
01000
00100
,
00100
01000
10000
00000
,
00100
00010
00001
00000
,
10000
01000
00100
00010
,
00001
00010
00100
01000
,
00001
01000
00010
10000
,
00100
01000
00010
00000
,
10000
00010
01000
00010
,
00100
00001
00010
00000
,
00001
00010
00100
00000
,
00010
00100
01000
00000
,
10000
01000
00100
00000
,
01000
00100
00010
00001
,
10000
00100
10000
00000
,
00001
00010
00001
00000
,
10000
00001
10000
00010
,
01000
00100
01010
10001
,
00001
00100
00001
00000
,
10000
01000
10000
00000
,
00001
10000
00001
01000
,
00010
00100
01010
10001
,
00001
00010
00100
00010
,
00100
01000
10000
00000
,
10000
01000
00100
01000
,
00100
00010
00001
00000
,
00001
00100
00010
01000
,
00100
10000
00010
01000
,
00001
00010
00100
01000
,
01010
10001
01010
00100
,
01010
00000
00000
00000
,
10001
00000
00000
00000
,
01010
00000
00100
00000
,
01010
10001
01010
00100
,
00001
00010
00100
01000
,
10000
01000
00100
00010
,
10000
00010
01000
00001
,
00100
00010
01000
00010
,
00100
00000
00001
00000
,
10000
00000
00010
00000
,
01000
00000
00001
00000
,
00100
00010
01000
00100
,
10000
00000
00010
00000
,
01000
00000
00100
00000
,
00001
00000
01000
00000
,
00001
00010
00100
01000
,
20002
00000
00000
00000
,
00000
00000
00000
00000
,
30003
00000
00000
00000
;

//---------------para-single - ----------------
#NOTEDATA:;
#CHARTNAME:Freestyle [Hard];
#STEPSTYPE:para-single;
#DESCRIPTION:;
#CHARTSTYLE:;
#DIFFICULTY:Hard;
#METER:6;
#RADARVALUES:0.441258,0.519627,0.273488,0.144788,0.000000,384.000000,350.000000,34.000000,18.000000,0.000000,0.000000,0.000000,0.000000,0.000000,0.441258,0.519627,0.273488,0.144788,0.000000,384.000000,350.000000,34.000000,18.000000,0.000000,0.000000,0.000000,0.000000,0.000000;
#CREDIT:BlindedVanguard573;
#NOTES:
00000
00000
00000
00000
,
00000
00000
00000
00000
,
00000
00000
00000
00000
,
00000
00000
00000
00000
,
00000
00000
00000
00000
,
00000
00000
00000
00000
,
00000
00000
00000
00000
,
00000
00000
00000
00000
,
00000
00000
00000
00000
,
20002
30003
00000
00000
,
00001
00010
00100
00000
00010
00000
01010
00000
,
10000
01000
00100
00000
00010
00000
01010
00000
,
00100
10000
01000
00000
00100
00001
00010
00000
,
00100
01010
10001
01010
,
00100
00010
00001
00000
00100
00000
01010
00000
,
00100
01000
10000
00000
00100
00000
01010
00000
,
10000
00100
01000
00000
00001
00100
00010
00000
,
00100
01010
10001
01010
,
00100
00010
00001
00000
00100
01000
10000
00000
,
00010
00010
01000
01000
,
00001
00100
00010
00000
10000
00100
01000
00000
,
00010
00010
01000
01000
,
00001
00010
00100
00000
10000
01000
00100
00000
,
00010
01000
00100
00000
01000
00010
00100
00000
,
00001
00100
00010
01000
00100
00000
10000
00000
,
10000
00100
01000
00010
00100
00000
00001
00000
,
00100
01000
10000
00000
00100
00010
00001
00000
,
01000
01000
00010
00010
,
10000
00100
01000
00000
00001
00100
00010
00000
,
01000
01000
00010
00010
,
10000
01000
00100
00000
00001
00010
00100
00000
,
01000
00010
00100
00000
00010
01000
00100
00000
,
10000
00100
01000
00010
00100
00000
00001
00000
,
00001
00100
00010
01000
00100
00000
10000
00000
,
01000
00100
00010
00000
00010
00100
01000
00000
,
10000
00100
01000
00000
00010
00000
01010
00000
,
00010
00100
01000
00000
01000
00100
00010
00000
,
00001
00100
00010
00000
01000
00000
01010
00000
,
00001
00010
00100
01000
00100
00010
01000
00000
,
10000
01000
00100
00010
01000
00010
00100
00000
,
00001
01000
00010
00000
10000
00010
01000
00000
,
00001
00010
10000
01000
20002
00000
30003
00000
,
10000
01000
00100
00010
00001
00010
00100
00000
,
00001
00010
00100
01000
10000
01000
00100
00000
,
00001
01000
00010
00000
10000
00010
00100
00000
,
00001
10000
00010
01000
00100
01010
10001
00000
,
00001
00010
00100
01000
10000
01000
00100
00000
,
10000
01000
00100
00010
00001
00010
00100
00000
,
10000
00010
01000
00000
00001
01000
00100
00000
,
10000
00001
01000
00010
00100
01010
10001
00000
,
00001
00010
00100
01000
10000
01000
00100
00000
,
10000
01000
00100
00010
00001
00010
00100
00000
,
10000
00010
01000
00000
00001
01000
00100
00000
,
10000
00001
01000
00010
00100
01010
10001
00000
,
10000
01000
00100
00010
00001
00010
00100
00000
,
00001
00010
00100
01000
10000
01000
00100
00000
,
00001
01000
00010
00000
10000
00010
00100
00000
,
00001
10000
00010
01000
00100
01010
10001
00000
,
01010
00000
00000
00000
00000
00000
00000
00100
,
10001
00000
00000
00000
00000
00000
00000
00010
,
00101
00000
00000
01000
10100
00000
00000
00100
,
10000
01000
00100
00010
00001
00010
00100
01000
,
00100
01000
10000
00000
00100
00000
01010
00000
,
00100
00010
00001
00000
00100
00000
01010
00000
,
00001
00100
00010
00000
10000
00100
01000
00000
,
00100
01010
10001
01010
,
20000
00000
00000
00200
00000
00000
30300
00000
,
00002
00000
00000
00200
00000
00000
00303
00000
,
10000
01000
00100
00000
00001
00010
00100
00000
,
02020
00000
03030
00000
01000
00100
00010
00000
,
00002
00000
00000
00200
00000
00000
00303
00000
,
20000
00000
00000
00200
00000
00000
30300
00000
,
00001
00010
00100
00000
10000
01000
00100
00000
,
02020
00000
03030
00000
00010
00100
01000
00100
,
02020
00000
00000
00000
,
00000
00000
00000
00000
,
03030
00000
00000
00000
;
