#TITLE:Blossoming Spell;
#SUBTITLE:;
#ARTIST:Ryuko Pegasasu ft. KISAKI;
#TITLETRANSLIT:;
#SUBTITLETRANSLIT:;
#ARTISTTRANSLIT:;
#GENRE:FLORAL EUROBEAT;
#CREDIT:;
#BANNER:Blossoming Spell.png;
#BACKGROUND:Blossoming Spell-bg.png;
#LYRICSPATH:Blossoming Spell.lrc;
#CDTITLE:Blossoming Spell-cdtitle.png;
#MUSIC:Blossoming Spell.ogg;
#OFFSET:-0.018459;
#SAMPLESTART:66.182190;
#SAMPLELENGTH:15.420000;
#SELECTABLE:YES;
#BPMS:0.000000=145.000000
;
#STOPS:
;
#BGCHANGES:16.000=flower2.avi=1.000=1=0=1===CrossFade==,
24.000=tunnel10.avi=1.000=0=0=1=====,
32.000=colors4.avi=1.000=0=0=1=====,
48.000=fireworks1.avi=1.000=0=0=1=====,
56.000=alice4.avi=1.000=0=0=1=====,
60.000=alice5.avi=1.000=0=0=1=====,
64.000=water2.avi=1.000=0=0=1=====,
80.000=heart5.avi=1.000=0=0=1=====,
88.000=star6.avi=1.000=0=0=1=====,
96.000=ring12a.avi=1.000=0=0=1=====,
112.000=moon1.avi=1.000=0=0=1=====,
120.000=alice5.avi=1.000=0=0=1=====,
128.000=sun2.avi=1.000=0=0=1=====,
136.000=light2.avi=1.000=0=0=1=====,
144.000=alice4.avi=1.000=0=0=1=====,
152.000=alice5.avi=1.000=0=0=1=====,
160.000=bubble2.avi=1.000=0=0=1=====,
168.000=bubble1.avi=1.000=0=0=1=====,
176.000=flower1.avi=1.000=0=0=1=====,
184.000=alice4.avi=1.000=0=0=1=====,
188.000=alice5.avi=1.000=0=0=1=====,
192.000=bubble2.avi=1.000=0=0=1=====,
200.000=bubble1.avi=1.000=0=0=1=====,
208.000=flower1.avi=1.000=0=0=1=====,
216.000=alice4.avi=1.000=0=0=1=====,
220.000=alice5.avi=1.000=0=0=1=====,
224.000=colors2.avi=1.000=0=0=1=====,
240.000=colors3.avi=1.000=0=0=1=====,
248.000=alice4.avi=1.000=0=0=1=====,
252.000=alice5.avi=1.000=0=0=1=====,
256.000=colors4.avi=1.000=0=0=1=====,
272.000=fireworks1.avi=1.000=0=0=1=====,
280.000=alice4.avi=1.000=0=0=1=====,
284.000=alice5.avi=1.000=0=0=1=====,
287.000=Blossoming Spell-bg.png=1.000=0=0=1=====,
99999=-nosongbg-=1.000=0=0=0 // don't automatically add -songbackground-
;
#KEYSOUNDS:;
#ATTACKS:;

//---------------dance-single - ----------------
#NOTES:
     dance-single:
     Expert:
     Hard:
     12:
     0.520749,0.584825,0.431245,0.553295,0.130187,448.000000,395.000000,53.000000,68.000000,0.000000,0.000000,0.520749,0.584825,0.431245,0.553295,0.130187,448.000000,395.000000,53.000000,68.000000,0.000000,0.000000:
0000
0000
0000
0000
,
0000
0000
0000
0000
,
0000
0000
0000
0000
,
0000
0000
0000
0000
,
0000
0000
0000
0000
,
0000
0000
0000
0000
,
0102
0000
1003
2100
0000
3001
1000
1002
,
0000
0000
1003
0010
1000
0000
0001
0010
0001
0000
0000
0000
2002
0000
3003
0000
,
0000
0000
0001
0010
0000
0010
0001
0000
0011
0000
0000
0000
1001
0000
0000
0000
,
1000
0000
0010
0000
0100
0000
0001
0000
0000
0000
1000
0100
0000
1000
0001
0000
,
0000
0000
0001
0010
0000
0010
0001
0000
1010
0000
0000
0000
1001
0000
0000
0000
,
0001
0000
0010
0000
0100
0000
1000
0000
0000
0000
0001
0100
0001
0000
0100
0000
,
0020
0000
0030
0000
0100
0000
0001
0000
1000
0000
0100
0010
0000
0010
0100
0000
,
1000
0000
0010
0000
0001
0000
0010
0000
0100
0000
0001
1000
0000
1000
0001
0000
,
0012
0000
1003
2010
0000
3001
1000
1002
,
0000
0000
1003
0100
1000
0000
0001
0100
0001
0000
0000
0000
2002
0000
3003
0000
,
0201
0000
1300
0100
0010
0100
0001
1000
,
0000
2001
0000
0010
0000
0100
3100
0000
,
1000
0100
0001
0100
1000
0010
0100
0001
,
0000
1002
0000
0010
0000
0100
0103
0000
,
0001
0100
1000
0100
0001
1000
0001
0000
,
1000
0100
0001
0100
1000
0001
1000
0000
,
1020
0000
0032
0000
2003
0000
3100
0200
,
0000
0320
0000
2030
0000
3001
1000
0001
,
1200
0000
0301
0100
0010
0100
1000
0001
,
0000
1002
0000
0010
0000
0100
0103
0001
,
0000
0100
1000
0100
0001
0010
0100
1000
,
0000
2001
0000
0010
0000
0100
3100
0000
,
1000
0100
0001
0100
1000
0001
1000
0000
,
0001
0100
1000
0100
0001
1000
0001
0000
,
0021
0000
2030
0000
3002
0000
0103
0200
,
0000
0310
0002
0000
1000
0000
0103
0000
,
0021
0000
1000
1000
0200
0000
0330
0210
,
0000
2300
0000
3002
0000
0103
0010
1000
,
1200
0000
0001
0001
0020
0000
0330
0120
,
0000
0032
0000
2003
0000
3010
0100
0001
,
2000
0000
0100
3001
0000
1000
0010
0001
,
0010
1000
0001
1000
0000
0100
0010
0100
,
0000
1100
0000
0011
0000
0001
2000
0002
,
0000
0000
0000
3003
,
1000
0100
0010
0100
0001
0100
1000
0000
,
1010
1000
1001
0000
0102
0000
1003
0000
,
0001
0010
0100
0010
1000
0010
0001
0000
,
0001
0100
1000
0001
0020
0000
0130
0000
,
0001
0100
0010
0100
1000
0100
0001
0000
,
0011
0001
1001
0000
2100
0000
3001
0000
,
1000
0010
0100
0010
0001
0010
1000
0002
,
0000
0000
0013
0000
0010
0000
0100
0000
0100
0000
1000
0000
1000
0000
0001
1000
,
0001
0100
1000
0100
0010
1000
0001
0000
,
0011
0110
1100
0000
1002
0000
0103
0000
,
0001
0100
1000
0100
0010
1000
0001
0000
,
1000
0000
0100
0000
0001
0000
1000
0000
0020
0000
0000
0000
0130
0000
1000
0001
,
1000
0100
0001
0100
0010
0001
1000
0000
,
0101
0110
1010
0000
1002
0000
0103
0000
,
0001
0010
1000
0010
0001
0100
1000
0100
,
0000
1010
0000
0101
0000
0011
0000
2200
,
0000
0000
0000
0000
,
3300
0000
0000
0000
,
0002
0100
0103
0001
,
2000
0100
3100
1000
,
0002
0000
0010
0000
0103
0100
0001
0000
,
2000
0000
0010
0000
3100
0100
1000
0000
,
0002
0000
0203
2300
0000
3200
0302
2003
,
0000
0000
3001
0100
0001
0000
1000
0100
1000
0000
0000
0000
2002
0000
3003
0000
,
0000
0000
1000
0100
0000
0100
1000
0000
1100
0000
0000
0000
1001
0000
0000
0000
,
0001
0000
0100
0000
0010
0000
1000
0000
0000
0000
0001
0010
0000
0001
1000
0000
,
0000
0000
1000
0100
0000
0100
1000
0000
0101
0000
0000
0000
1001
0000
0000
0000
,
1000
0000
0100
0000
0010
0000
0001
0000
0000
0000
1000
0010
1000
0000
0010
0000
,
0200
0000
0300
0000
0010
0000
1000
0000
0001
0000
0010
0100
0000
0100
0010
0000
,
0001
0000
0100
0000
1000
0000
0100
0000
0010
0000
1000
0001
0000
0001
1000
0000
,
2100
0000
3001
0102
0000
1003
0001
2001
,
0000
0000
3001
0010
0001
0000
1000
0010
1000
0000
0000
0000
2002
0000
3003
0000
;

//---------------dance-single - ----------------
#NOTES:
     dance-single:
     Beginner:
     Beginner:
     3:
     0.173195,0.204333,0.000000,0.089504,0.000000,149.000000,149.000000,0.000000,11.000000,0.000000,0.000000,0.173195,0.204333,0.000000,0.089504,0.000000,149.000000,149.000000,0.000000,11.000000,0.000000,0.000000:
0000
0000
0000
0000
,
0000
0000
0000
0000
,
0000
0000
0000
0000
,
0000
0000
0000
0000
,
2000
0000
3000
0000
,
0002
0000
0003
0000
,
0010
0000
0010
0000
,
0100
0000
1000
1000
,
1000
0000
0010
0000
,
0100
0100
0100
0000
,
0001
0000
1000
0000
,
0010
0010
0010
0000
,
1000
0000
0100
0000
,
0001
0001
0001
0000
,
0100
0000
0010
0000
,
1000
1000
1000
0000
,
0001
0000
1000
0000
,
0010
0000
0100
0000
,
0001
0000
1000
0000
,
0100
0100
0100
0000
,
0010
0000
0001
0000
,
0100
0000
0010
0000
,
1000
0000
0001
0000
,
0010
0010
0010
0010
,
0010
0000
0001
0000
,
0100
0000
1000
0000
,
0100
0000
0010
0000
,
1000
1000
1000
0000
,
0001
0000
0010
0000
,
1000
0000
0010
0000
,
0100
0000
1000
0000
,
0001
0001
0001
0001
,
0002
0000
0003
0000
,
0020
0000
0030
0000
,
0200
0000
0300
0000
,
2000
0000
3000
0000
,
0002
0000
0003
0000
,
2000
0000
3000
0000
,
0020
0000
0030
0000
,
0100
0100
0100
0100
,
0100
0000
0010
0000
,
1000
1000
1000
0000
,
0001
0000
0010
0000
,
0100
0100
0100
0000
,
1000
0000
0010
0000
,
0001
0001
0001
0000
,
0010
0000
0100
0000
,
0001
0000
1000
1000
,
1000
0000
0100
0000
,
0001
0001
0001
0000
,
0100
0000
0010
0000
,
0001
0001
0001
0000
,
1000
0000
0010
0000
,
0100
0100
0100
0000
,
0010
0010
0010
0000
,
1000
0000
0001
0000
,
2000
0000
0000
3000
,
0000
0000
0000
0000
,
0002
0000
0003
0000
,
0010
0000
0100
0000
,
1000
1000
1000
0000
,
0001
0001
0001
0000
,
0100
0000
0000
0010
,
0000
0000
1000
1000
,
1000
0000
0001
0000
,
0010
0000
0100
0100
,
0100
0000
0010
0000
,
0001
0000
1000
1000
,
1000
0000
0010
0000
,
0100
0000
1000
0000
,
0100
0000
0001
0000
,
0010
0000
0100
0100
;

//---------------dance-single - ----------------
#NOTES:
     dance-single:
     Basic:
     Easy:
     6:
     0.311519,0.321094,0.113914,0.211554,0.000000,268.000000,254.000000,14.000000,26.000000,0.000000,0.000000,0.311519,0.321094,0.113914,0.211554,0.000000,268.000000,254.000000,14.000000,26.000000,0.000000,0.000000:
0000
0000
0000
0000
,
0000
0000
0000
0000
,
0000
0000
0000
0000
,
0000
0000
0000
0000
,
2000
0001
3001
1000
,
0020
0100
0130
0010
,
1000
0000
0000
0100
0000
0010
0000
0100
,
0000
1000
0001
1001
,
0001
0100
0010
0100
,
0001
0010
0100
1001
,
1000
0010
0100
0010
,
1000
0100
0010
1001
,
0001
0100
1000
1000
,
0001
0010
1000
1000
,
0001
0000
0000
0010
0000
0100
0000
0010
,
0000
0001
1000
1001
,
0001
0100
0010
0100
,
0001
0010
0100
1000
,
0010
0100
1000
0100
,
0010
1000
0100
0010
,
0001
0100
1000
1000
,
0100
0010
1000
1000
,
0100
0010
0100
1000
,
0001
0100
0010
1001
,
1000
0100
0010
0100
,
1000
0010
0100
0001
,
0010
0100
0001
0100
,
0010
0001
0100
0010
,
1000
0100
0001
0001
,
0100
0010
0001
0001
,
0100
0010
0100
0001
,
1000
0100
0010
1001
,
0002
0100
1003
0001
,
1000
0100
0001
0100
,
2000
0100
3001
1000
,
0001
0100
1000
0100
,
0002
0010
0013
0001
,
2000
0010
3010
1000
,
0001
0010
1000
0100
,
0001
0001
0001
0001
,
1000
0100
0001
0100
,
1000
0001
2002
3003
,
0001
0100
1000
0100
,
0010
1000
0002
0003
,
1000
0100
0001
0100
,
0010
0001
2002
3003
,
0001
0100
1000
0100
,
0010
1000
1000
1000
,
0001
0010
1000
0100
,
1000
0010
0022
0033
,
0001
0100
1000
0010
,
1000
0100
0002
0003
,
1000
0100
0001
0010
,
0001
0100
2200
3300
,
1000
1000
0001
0001
,
0100
0010
1000
0001
,
0020
0000
0230
0000
,
2300
0000
3002
0000
,
0203
0000
0320
0000
,
2030
0000
3002
0000
,
2003
0010
3010
1000
,
0002
0010
0013
0001
,
1000
0000
0000
0010
0000
0100
0000
0001
,
0000
1000
0100
0110
,
1000
0100
0010
0100
,
1000
0010
0100
1001
,
0001
0010
0100
0010
,
0001
0100
0010
1001
,
1000
0100
0001
0001
,
1000
0010
0001
0001
,
1000
0000
0000
0010
0000
0100
0000
0010
,
0000
1000
0001
1001
;

//---------------dance-single - ----------------
#NOTES:
     dance-single:
     Difficult:
     Medium:
     8:
     0.438219,0.468674,0.333605,0.447518,0.032547,377.000000,336.000000,41.000000,55.000000,0.000000,0.000000,0.438219,0.468674,0.333605,0.447518,0.032547,377.000000,336.000000,41.000000,55.000000,0.000000,0.000000:
0000
0000
0000
0000
,
0000
0000
0000
0000
,
0000
0000
0000
0000
,
0000
0000
0000
0000
,
0000
0001
0100
0010
0000
0100
0010
1000
,
0000
0010
1000
0001
0000
1000
0100
0010
,
0200
0000
1300
2000
0000
3002
0000
2003
,
0000
3001
0100
0010
1000
0000
1001
0000
,
0000
0000
1000
0000
0000
0100
0000
0000
0010
0000
0000
0000
1001
0000
0000
0000
,
0001
0100
0010
0100
0002
0000
1003
0000
,
0000
0000
0001
0000
0000
0100
0000
0000
0010
0000
0000
0000
1001
0000
0000
0000
,
1000
0100
0010
0100
2000
0000
3001
0000
,
1001
0000
0000
0000
0001
0000
0100
0000
0010
0000
0000
0010
0000
0000
0100
0000
,
0001
0000
0010
0000
0100
0000
0010
0000
0001
0000
0000
1000
0000
0000
0001
0000
,
2001
0000
0010
3020
0000
0230
0000
0302
,
0000
1003
0100
0010
0001
0000
1001
0000
,
0002
0100
1000
0010
,
0103
0001
0011
1100
,
2000
0010
0001
0100
,
3010
1000
0101
1100
,
0002
0000
0103
0000
1000
0100
0001
0000
,
2000
0000
3100
0000
0001
0100
1000
0000
,
0010
1001
0100
1001
,
0001
0100
0010
1000
0010
0100
0001
1000
,
0002
0010
1000
0100
,
0013
0001
0101
1010
,
2000
0100
0001
0010
,
3100
1000
0011
1010
,
0002
0000
0013
0000
1000
0010
0001
0000
,
2000
0000
3010
0000
0001
0010
1000
0000
,
0100
1001
0010
1001
,
0001
0010
0100
1000
0100
0010
0001
1000
,
0002
0000
0010
0010
0013
0000
0101
0000
,
0001
0100
1000
0100
,
0020
0000
1000
1000
1000
0030
0101
0000
,
0001
0010
1000
0100
,
0002
0000
1000
1000
1003
0000
1001
0000
,
0200
0000
0010
0010
0310
0000
0110
0000
,
0010
1000
0000
0100
0000
0001
0100
1000
,
0010
0100
0010
0100
0010
0100
0010
0000
,
1000
0100
0010
0000
0001
0010
0100
0000
,
1100
0101
2002
3003
,
0001
0100
0010
0000
1000
0010
0100
0000
,
0001
0010
1000
0010
0002
0000
1003
0000
,
0001
0100
0010
0000
1000
0010
0100
0000
,
0011
1100
2002
3003
,
1000
0100
0001
0000
0100
0001
0010
0000
,
0001
0010
1000
0000
0001
1000
1001
0000
,
0001
0100
0010
0000
1000
0010
0100
0000
,
0101
1100
2002
3003
,
1000
0100
0010
0000
0001
0010
0100
0000
,
1000
0010
0001
0010
2000
0000
3001
0000
,
1000
0100
0010
0000
0001
0010
0100
0000
,
1010
0101
2002
3003
,
0001
0100
1000
0000
0100
1000
0010
0000
,
0002
0203
2300
3020
,
0032
0000
0000
0000
,
0003
0000
0000
0000
,
2000
3010
0002
0013
,
0200
0310
2000
3001
,
2000
0000
0100
0000
0001
0000
3010
1000
,
0002
0000
0010
0000
1000
0000
0103
0001
,
2000
0000
3100
0200
0000
0320
0000
0032
,
0000
1003
0010
0100
0001
0000
1001
0000
,
0000
0000
0001
0000
0000
0100
0000
0000
0010
0000
0000
0000
1001
0000
0000
0000
,
1000
0100
0010
0100
2000
0000
3001
0000
,
0000
0000
1000
0000
0000
0100
0000
0000
0010
0000
0000
0000
1001
0000
0000
0000
,
0001
0100
0010
0100
0002
0000
1003
0000
,
1001
0000
0000
0000
1000
0000
0100
0000
0010
0000
0000
0010
0000
0000
0100
0000
,
1000
0000
0010
0000
0100
0000
0010
0000
1000
0000
0000
0001
0000
0000
1000
0000
,
1002
0000
0010
0023
0000
0230
0000
2300
,
0000
3001
0100
0010
1000
0000
2002
0000
,
3003
0000
0000
0000
;

//---------------dance-double - ----------------
#NOTES:
     dance-double:
     Expert:
     Hard:
     12:
     0.519586,0.555584,0.390561,0.471928,0.093572,447.000000,399.000000,48.000000,58.000000,0.000000,0.000000,0.519586,0.555584,0.390561,0.471928,0.093572,447.000000,399.000000,48.000000,58.000000,0.000000,0.000000:
00000000
00000000
00000000
00000000
,
00000000
00000000
00000000
00000000
,
00000000
00000000
00000000
00000000
,
00000000
00000000
00000000
00000000
,
00000000
00001000
01000000
00100000
00000000
10000000
01000000
00010000
,
00000000
01000000
00100000
00001000
00000000
00010000
00000100
00001000
,
00000020
00000000
00000230
00000302
00000000
00002003
00000000
00003020
,
00000000
00000130
00001000
00010000
00100000
00000000
20020000
30030000
,
00000000
00000000
10000000
00100000
00000000
10000000
00010000
00000000
10010000
00000000
00000000
00000000
02001000
00000000
00000000
00000000
,
03010000
00000000
00100000
00000000
10000000
00000000
00100000
00000000
00000000
00000000
00001000
00010000
00000000
00010000
00001000
00000000
,
00000000
00000000
00000010
00000001
00000000
00000001
00001000
00000000
00000101
00000000
00000000
00000000
00020010
00000000
00000000
00000000
,
00031000
00000000
01000000
00000000
10000000
00000000
01000000
00000000
00000000
00000000
00100000
10000000
00010000
00000000
10000000
00000000
,
10010000
00000000
00000000
00000000
10000000
00000000
01000000
00000000
00010000
00000000
00010000
01000000
00000000
01000000
00100000
00000000
,
00001000
00000000
00010000
00000000
00000100
00000000
00001000
00000000
00000010
00000000
00000010
00000100
00000000
00000100
00000001
00000000
,
00002000
00000000
00003100
00000002
00000000
00000203
00000000
00020300
,
00000000
00031000
00100000
00010000
10000000
00000000
10010000
00000000
,
10200000
00000000
00010000
00000000
01000000
01000000
01300000
00000000
,
00100000
10000000
01000000
00010000
00001000
00000100
00000010
00000000
,
00002010
00000000
00000100
00000000
00000001
00000001
00003001
00000000
,
00001000
00000100
00000001
00000100
00010000
00001000
01000000
00000000
,
00100000
10000000
01000000
00010000
01000000
00100000
00001000
00000000
,
00010000
00000010
00000100
00001000
00010000
00000100
00001000
00000000
,
00001002
00000000
00020003
00000000
00032000
00000000
10003000
20000000
,
00000000
30020000
00000000
02030000
00000000
03100000
10000000
00000000
,
12000000
00000000
00010000
00000000
00100000
00100000
03100000
00000000
,
01000000
10000000
00100000
00010000
00001000
00000010
00000100
00000000
,
00002100
00000000
00000010
00000000
00000001
00000001
00003001
00000000
,
00001000
00000010
00000001
00000010
00010000
00001000
00100000
00000000
,
01000000
10000000
00100000
00010000
00100000
01000000
00001000
00000000
,
00010000
00000100
00000010
00001000
00010000
00000010
00001000
00000000
,
00001002
00000000
00020003
00000000
00032000
00000000
10003000
20000000
,
00000000
00000000
30010000
00000000
00200000
00000000
00000000
00000000
01300000
00000000
10000000
00010000
10000000
00000000
00010000
00000000
,
20000000
00000000
30100000
00010000
00002000
00000000
00003010
00000000
,
00000001
00001000
00001100
00000000
00001000
00000001
00000101
00000000
,
00000002
00000000
00000103
00001000
00020000
00000000
01030000
00000000
,
10000000
00010000
00110000
00000000
00010000
10000000
10100000
00000000
,
10000000
00100000
01000000
10000000
01000000
00100000
10000000
01000000
,
00010000
01000000
00100000
00001000
00010000
00000100
00001000
00000010
,
00000000
00001010
00000000
00000101
00000000
00000001
00000100
00002000
,
00020000
00000000
00000000
00033000
,
00001000
00010000
00100000
10000000
00100000
00010000
00001000
00000000
,
00011000
00010000
00010100
00000000
00001002
00000000
00000103
00000000
,
00000001
00000100
00001000
00010000
00001000
00000100
00000001
00000000
,
00000010
00000100
00000010
00000100
00002000
00000000
00003001
00000000
,
00010000
00001000
00000100
00000001
00000100
00001000
00010000
00000000
,
00011000
00001000
00101000
00000000
20010000
00000000
30100000
00000000
,
10000000
00100000
00010000
00001000
00010000
00100000
10000000
00020000
,
00000000
10030000
00001000
00010000
00000001
00001000
00001001
00000000
,
00000001
00000100
00001000
00010000
01000000
10000000
00010000
00000000
,
10010000
00001000
00011000
00000000
00001002
00000000
00000103
00000000
,
00000001
00000010
00001000
00010000
00100000
10000000
00010000
00000000
,
10010000
00010000
01010000
01000000
01200000
00000000
00310000
00000000
,
00100000
10000000
01000000
00010000
00001000
00000100
00000010
00000000
,
00001010
00000101
00001001
00000000
00000210
00000000
00000301
00000000
,
00001000
00000100
00000001
00000100
00010000
00001000
00100000
00010000
,
00000000
00110000
00000000
11000000
00000000
01010000
00000000
20200000
,
00000000
00000000
00000000
00000000
,
30300000
00000000
00000000
00000000
,
10000000
01000000
00010000
00001000
,
00000100
00000010
00001000
00000001
,
00002000
00000010
00003100
00001000
,
00000002
00000010
00000103
00000001
,
00001002
00000000
00000023
00000032
00000000
00002003
00000000
00003200
,
00000000
00000310
00001000
00010000
01000000
00000000
10010000
00000000
,
00000000
00000000
10000000
01000000
00000000
10000000
00010000
00000000
10010000
00000000
00000000
00000000
00201000
00000000
00000000
00000000
,
00310000
00000000
01000000
00000000
10000000
00000000
01000000
00000000
00000000
00000000
00001000
00010000
00000000
00010000
00001000
00000000
,
00000000
00000000
00000100
00000001
00000000
00000001
00001000
00000000
00000011
00000000
00000000
00000000
00020100
00000000
00000000
00000000
,
00031000
00000000
00100000
00000000
10000000
00000000
00100000
00000000
00000000
00000000
01000000
10000000
00010000
00000000
10000000
00000000
,
10010000
00000000
00000000
00000000
10000000
00000000
00100000
00000000
00010000
00000000
00010000
00100000
00000000
00100000
01000000
00000000
,
00001000
00000000
00010000
00000000
00000010
00000000
00001000
00000000
00000100
00000000
00000100
00000010
00000000
00000010
00000001
00000000
,
00002000
00000000
00003010
00000002
00000000
00000023
00000000
00020030
,
00000000
00031000
01000000
00010000
10000000
00000000
20020000
30030000
;

//---------------dance-double - ----------------
#NOTES:
     dance-double:
     Basic:
     Easy:
     6:
     0.312682,0.350285,0.211554,0.219691,0.000000,269.000000,243.000000,26.000000,27.000000,0.000000,0.000000,0.312682,0.350285,0.211554,0.219691,0.000000,269.000000,243.000000,26.000000,27.000000,0.000000,0.000000:
00000000
00000000
00000000
00000000
,
00000000
00000000
00000000
00000000
,
00000000
00000000
00000000
00000000
,
00000000
00000000
00000000
00000000
,
00000000
00100000
00000000
00001000
,
00000000
00010000
00000000
00000010
,
00000100
00000001
00001000
00000001
,
00000010
00000100
00001000
00001001
,
00000001
00000100
00001000
00001000
,
00000100
00000010
00001000
00001001
,
00001000
00000100
00010000
00010000
,
00001000
00100000
00010000
10010000
,
10000000
00100000
00010000
00010000
,
00001000
00000100
00000010
00000010
,
00001000
00000000
00000000
00000001
00000000
00000010
00000000
00000100
,
00000000
00001000
00000001
00001001
,
00000002
00000010
00000103
00000001
,
00002000
00000010
00003100
00001000
,
00000001
00000100
00001000
00010000
,
01000000
10000000
00010000
10010000
,
20000000
00100000
30010000
10000000
,
00020000
00100000
10030000
00010000
,
10000000
01010000
00010000
11000000
,
10000000
01000000
00010000
00001000
,
00000200
00000010
00000310
00000100
,
00000001
00001000
00000100
00000011
,
00000002
00000100
00001003
00000001
,
00000100
00001000
00010000
00011000
,
00010000
00100000
01000000
01000000
,
00010000
00100000
01000000
01000000
,
10000000
01000000
00010000
00001000
,
00010000
01000000
10000000
10010000
,
10000000
00100000
00020000
00030000
,
00100000
01000000
00010000
10010000
,
10000000
01000000
00020000
00030000
,
00001000
00000100
00000010
00001001
,
00000001
00000100
00000100
00000001
,
00001000
00000100
00000100
00001000
,
00000001
00000100
00001000
00010000
,
02000000
00000000
00000000
03000000
,
00100000
00010000
01000000
00010000
,
10000000
00010000
20020000
30030000
,
10000000
01000000
00010000
00001000
,
00000100
00000010
00002002
00003003
,
00000001
00000010
00001000
00000010
,
00000001
00000100
00002020
00003030
,
00001000
00000100
00000001
00000100
,
00020000
00001000
00001000
00031000
,
00010000
00001000
01000000
00100000
,
10010000
10010000
20020000
30030000
,
10000000
01000000
00010000
00001000
,
00000100
00000010
00002002
00003003
,
00000001
00000010
00001000
00000010
,
00001001
00001001
00002002
00003003
,
00000001
00000100
00001000
00000100
,
00000010
00010000
00001000
00100000
,
00020000
00000000
00000000
00000000
,
00030000
00000000
00000000
00000000
,
20000000
30000000
00200000
00300000
,
02000000
03000000
00020000
00030000
,
10000000
01000000
00010000
01000000
,
10000000
00100000
00010000
00100000
,
10000000
00000000
00000000
00100000
00000000
01000000
00000000
00010000
,
00000000
10000000
01000000
00110000
,
10000000
00100000
00010000
00010000
,
00100000
01000000
00010000
10010000
,
00010000
00100000
00001000
00001000
,
00010000
00000100
00001000
00001001
,
00000001
00000100
00001000
00001000
,
00010000
00100000
01000000
01000000
,
00010000
00000000
00000000
10000000
00000000
01000000
00000000
00100000
,
00000000
00010000
10000000
10010000
;

//---------------dance-double - ----------------
#NOTES:
     dance-double:
     Difficult:
     Medium:
     8:
     0.457980,0.467046,0.431245,0.260374,0.000000,394.000000,341.000000,53.000000,32.000000,0.000000,0.000000,0.457980,0.467046,0.431245,0.260374,0.000000,394.000000,341.000000,53.000000,32.000000,0.000000,0.000000:
00000000
00000000
00000000
00000000
,
00000000
00000000
00000000
00000000
,
00000000
00000000
00000000
00000000
,
00000000
00000000
00000000
00000000
,
00002000
00010000
01003000
00001000
,
00020000
00001000
00030100
00010000
,
00000100
00000000
00000000
00001100
00000000
00000101
00000000
00001001
,
00000000
00000001
00001000
00000000
00000001
00000000
00001001
00000000
,
00000001
00000100
00001000
00000000
00000100
00000000
00001010
00000000
,
00001000
00000100
00000001
00000000
00000001
00000100
00010000
00000000
,
00001000
00100000
00010000
00000000
10000000
00000000
10010000
00000000
,
00010000
01000000
10000000
00000000
10000000
01000000
00100000
00000000
,
20000000
00000000
30010000
00000000
00100000
01000000
10000000
00000000
,
00010000
01000000
00001000
00000000
00010000
00000100
00001000
00000000
,
00001010
00000000
00000000
00000101
00000000
00001100
00000000
00000101
,
00000000
00000001
00000010
00001000
00000010
00000000
00001001
00000000
,
00000002
00000000
00000100
00000000
00001000
00001000
00001003
00000000
,
00000001
00010000
00001000
00000000
00100000
00010000
10000000
00000000
,
00020000
00000000
01000000
00000000
10000000
10000000
10030000
00000000
,
00010000
10000000
00001000
00000000
00010000
00000100
00001000
00000000
,
00000010
00000100
00000010
00000100
00000001
00000001
00000001
00000000
,
00000010
00000100
00000010
00000100
00001000
00001000
00001000
00000000
,
00000002
00000203
00002300
00023000
,
02030000
00000000
23000000
00000000
30010000
01000000
10000000
01000000
,
00100000
00000000
10010000
00000000
10000000
01000000
00010000
01000000
,
00200000
00000000
00301000
00000000
00010000
00000010
00010000
00000010
,
00000100
00000000
00000001
00000000
00001000
00000100
00000001
00000100
,
00000010
00000000
00000001
00000000
00001000
00000001
00001001
00000000
,
00000001
00000100
00001000
00000000
00010000
00010000
01000000
00000000
,
10000000
00100000
00010000
00000000
00001000
00001000
00000010
00000000
,
00000001
00000101
00001000
00001100
,
00000001
00000100
00001000
00000000
00000100
00000010
00001000
00000001
,
00002000
00000100
00003001
00001001
,
00000001
00000100
00001000
00010000
00000000
00001000
00000100
00000010
,
00002000
00000000
00000001
00000001
00003001
00000000
00001001
00000000
,
00000001
00000010
00001000
00010000
00000000
00001000
00000010
00000001
,
00001000
00000000
00001100
00000000
00000001
00000100
00001000
00010000
,
01000000
00000000
10010000
00000000
10000000
00100000
00010000
00100000
,
00000000
10100000
00000000
01010000
00000000
10000000
00010000
20000000
,
00000000
00000000
00000000
30000000
,
00010000
01000000
10000000
00000000
10000000
01000000
00010000
00000000
,
01010000
01001000
00021000
00030100
,
00001000
00000100
00000001
00000000
00000001
00000100
00001000
00000000
,
00001010
00000101
00001002
00000103
,
00000001
00000100
00001000
00000000
00010000
01000000
10000000
00000000
,
10100000
01010000
20010000
31000000
,
10000000
01000000
00010000
00001000
00010000
01000000
10000000
00020000
,
00000000
20030000
30002000
00023000
,
00030100
00001000
00000010
00000000
00010000
00001000
01000000
00000000
,
10100000
00110000
00021000
00030100
,
00001000
00000010
00000001
00000000
00000010
00000100
00000001
00000000
,
00000101
00001100
00012000
00103000
,
00010000
01000000
10000000
00000000
10000000
01000000
00010000
00000000
,
01010000
00110000
00102000
00013000
,
00000100
00001000
00000010
00000100
00000001
00000010
00000100
00001000
,
00000000
00001100
00000000
00000011
00000000
00000101
00000000
00002020
,
00000000
00000000
00000000
00000000
,
00003030
00000000
00000000
00000000
,
00000002
00000010
00000103
00000001
,
00002000
00000010
00003100
00001000
,
00000002
00000100
00001003
00001001
,
00002000
00000100
00003001
00001001
,
00000001
00000000
00000100
00001000
00000000
00010000
00000000
01000000
,
00000000
10000000
00010000
10000000
00010000
00000000
10010000
00000000
,
10000000
01000000
00010000
00000000
01000000
00000000
00110000
00000000
,
00010000
01000000
10000000
00000000
10000000
01000000
00001000
00000000
,
00010000
00000010
00001000
00000000
00000001
00000000
00001001
00000000
,
00001000
00000100
00000001
00000000
00000001
00000100
00000010
00000000
,
00000002
00000000
00001003
00000000
00000010
00000100
00000001
00000000
,
00001000
00000100
00010000
00000000
00001000
01000000
00010000
00000000
,
00110000
00000000
00000000
11000000
00000000
01010000
00000000
11000000
,
00000000
10000000
00100000
00010000
00100000
00000000
10010000
00000000
;

//---------------para-single - ----------------
#NOTES:
     para-single:
     Freestyle [Expert]:
     Challenge:
     7:
     0.578868,0.672549,0.496338,0.032547,0.292921,498.000000,437.000000,61.000000,4.000000,0.000000,0.000000,0.578868,0.672549,0.496338,0.032547,0.292921,498.000000,437.000000,61.000000,4.000000,0.000000,0.000000:
// measure 0
00000
00000
00000
00000
,  // measure 1
00000
00000
00000
00000
,  // measure 2
00000
00000
00000
00000
,  // measure 3
00000
00000
00000
00000
,  // measure 4
00000
00000
00000
00000
,  // measure 5
00000
00000
00000
00000
,  // measure 6
01010
00000
01000
00010
00000
00010
00100
01000
,  // measure 7
00000
00000
00001
00010
00000
00000
10000
01000
00100
00000
00000
00010
00000
00000
01010
00000
,  // measure 8
00000
00000
10000
01000
00000
00001
00010
00000
00100
00000
00000
00000
01010
00000
00000
00000
,  // measure 9
10000
00000
01000
00000
00100
00000
00010
00000
00000
00000
00001
00100
00010
00000
01000
00000
,  // measure 10
00000
00000
00010
00001
00000
01000
10000
00000
01010
00000
00000
00000
00100
00000
00000
00000
,  // measure 11
01100
00000
00110
00000
00011
00000
00100
00000
00000
00000
01000
10000
00000
00100
00010
00000
,  // measure 12
01001
00000
00000
00000
00010
00100
00000
01000
10010
00000
00000
01100
00000
00000
10000
01000
,  // measure 13
00100
00000
00000
00001
00010
00000
01000
00000
00100
00000
00000
10000
00000
01000
00100
00000
,  // measure 14
01001
10000
01000
00101
00000
01010
00000
10100
,  // measure 15
00000
00000
01000
00100
00000
00000
00010
00100
01000
00000
00000
10000
00000
00000
00001
00000
,  // measure 16
01000
00100
00010
00001
00000
00000
00001
00000
,  // measure 17
00010
00100
01000
10000
00000
00000
10000
00000
,  // measure 18
01010
00000
00001
10000
00001
00000
01010
00000
,  // measure 19
01000
00100
00010
01000
10000
00010
00001
00000
,  // measure 20
10000
00000
00100
00100
00100
00000
01000
00000
,  // measure 21
00001
00000
00100
00100
00100
00000
00010
00000
,  // measure 22
00100
00000
10000
00000
00100
00000
00001
00010
,  // measure 23
00000
00000
01000
00000
00000
00000
01010
00000
10100
00000
01000
00100
00010
00000
00001
00000
,  // measure 24
00010
00100
01000
10000
00000
00000
10000
00000
,  // measure 25
01000
00100
00010
00001
00000
00000
00001
00000
,  // measure 26
01010
00000
10000
00001
10000
00000
01010
00000
,  // measure 27
00010
00100
01000
00010
00001
01000
10000
00000
,  // measure 28
00001
00000
00100
00100
00100
00000
00010
00000
,  // measure 29
10000
00000
00100
00100
00100
00000
01000
00000
,  // measure 30
00100
00000
00001
00000
00100
00000
10000
01000
,  // measure 31
00000
00000
00010
00000
00000
00000
01010
00000
00101
00000
00010
00100
01000
00000
10000
00000
,  // measure 32
00010
00000
01000
00100
00010
00000
01000
00110
,  // measure 33
00000
00000
00001
00000
00000
00000
10000
00000
00000
00000
01000
00100
00010
00000
01000
00000
,  // measure 34
00001
00000
01000
00010
10000
00000
00010
01001
,  // measure 35
00000
10010
00000
00100
00000
01100
00110
00001
,  // measure 36
01000
00000
00010
00100
00000
01000
00000
00010
,  // measure 37
01100
00000
10000
00000
00010
00000
00001
00000
00000
00000
00010
00100
01000
00000
00010
00000
,  // measure 38
00000
00000
10000
00000
00010
00000
01000
00000
00000
00000
00010
00100
01000
00000
10010
00000
,  // measure 39
00100
00010
00000
00000
00001
00000
00100
01000
10000
00000
00010
00000
00100
00000
00100
00000
,  // measure 40
01000
00010
01000
00100
00001
00100
00010
00000
,  // measure 41
00100
00000
01000
00000
10000
00000
00000
00000
01000
00100
00010
00000
00001
00000
00000
00000
,  // measure 42
00000
00100
00010
01000
00100
00010
00001
00000
,  // measure 43
00100
01000
10000
00100
00010
01000
00100
00000
,  // measure 44
00001
10000
00010
10000
01000
00100
01000
00000
,  // measure 45
00010
00000
00100
00000
00010
00000
00000
00000
00100
01000
10000
00000
00001
00000
00000
00000
,  // measure 46
01010
10000
00100
01010
00001
00100
01010
20002
,  // measure 47
30003
00000
01000
10000
00000
00000
00010
00001
01000
00000
00000
00100
00000
00000
01000
00100
,  // measure 48
00010
01000
00010
00100
10000
00100
01000
00000
,  // measure 49
00100
00000
00010
00000
00001
00000
00000
00000
00010
00100
01000
00000
10000
00000
00000
00000
,  // measure 50
00000
00100
01000
00010
00100
01000
10000
00000
,  // measure 51
00100
00010
00001
00100
01000
00010
00100
00000
,  // measure 52
10000
00001
01000
00001
00010
00100
00010
00000
,  // measure 53
01000
00000
00100
00000
01000
00000
00000
00000
00100
00010
00001
00000
10000
00000
00000
00000
,  // measure 54
01010
00001
00100
01010
10000
00100
01010
20002
,  // measure 55
30003
00000
00010
00001
00000
00000
01000
10000
00010
00000
00000
00100
00000
00000
01000
00000
,  // measure 56
00000
00000
10000
01000
00000
00001
00010
00000
00100
00000
00000
00000
01010
00000
00000
00000
,  // measure 57
10000
00000
01000
00000
00100
00000
00010
00000
00000
00000
00001
00100
00010
00000
01000
00000
,  // measure 58
00000
00000
00010
00001
00000
01000
10000
00000
01010
00000
00000
00000
00100
00000
00000
00000
,  // measure 59
01100
00000
00110
00000
00011
00000
00100
00000
00000
00000
01000
10000
00000
00100
00010
00000
,  // measure 60
01001
00000
00000
00000
00010
00100
00000
01000
10010
00000
00000
01100
00000
00000
10000
01000
,  // measure 61
00100
00000
00000
00001
00010
00000
01000
00000
00100
00000
00000
10000
00000
01000
00100
00000
,  // measure 62
01001
10000
01000
00101
00000
01010
00000
10100
,  // measure 63
00000
00000
01000
00100
00000
00000
00010
00100
01000
00000
00000
10000
00000
00000
00010
00000
,  // measure 64
00000
00000
00001
00010
00000
10000
01000
00000
00100
00000
00000
00000
01010
00000
00000
00000
,  // measure 65
00001
00000
00010
00000
00100
00000
01000
00000
00000
00000
10000
00100
01000
00000
00010
00000
,  // measure 66
00000
00000
01000
10000
00000
00010
00001
00000
01010
00000
00000
00000
00100
00000
00000
00000
,  // measure 67
00110
00000
01100
00000
11000
00000
00100
00000
00000
00000
00010
00001
00000
00100
01000
00000
,  // measure 68
10010
00000
00000
00000
01000
00100
00000
00010
01001
00000
00000
00110
00000
00000
00001
00010
,  // measure 69
00100
00000
00000
10000
01000
00000
00010
00000
00100
00000
00000
00001
00000
00010
00100
00000
,  // measure 70
10010
00001
00010
10100
00000
01010
00000
00101
,  // measure 71
00000
00000
00010
00100
00000
00000
01000
00100
00010
00000
00000
00001
00000
00000
10000
00000
;

//---------------para-single - ----------------
#NOTES:
     para-single:
     Freestyle [Normal]:
     Medium:
     3:
     0.255725,0.350285,0.122050,0.016273,0.000000,220.000000,205.000000,15.000000,2.000000,0.000000,0.000000,0.255725,0.350285,0.122050,0.016273,0.000000,220.000000,205.000000,15.000000,2.000000,0.000000,0.000000:
00000
00000
00000
00000
,
00000
00000
00000
00000
,
00000
00000
00000
00000
,
00000
00000
00000
00000
,
00000
00010
00000
01000
,
00000
00001
00000
10000
,
00010
00000
01000
00000
,
00100
01000
00010
00100
,
00010
00000
01000
00000
,
00100
00010
00001
00000
,
01000
00000
00010
00000
,
00100
01000
10000
00000
,
00010
00010
01000
01000
,
00100
00010
00001
00000
,
01000
01000
00010
00010
,
00100
01000
10000
00000
,
00010
00000
00010
00000
,
01000
00000
01000
00000
,
00100
00010
00001
00000
,
00100
01000
10000
00000
,
01000
00100
00010
00001
,
00010
00100
01000
10000
,
00001
00001
10000
10000
,
00010
01000
00100
00000
,
00010
00000
00010
00000
,
01000
00000
01000
00000
,
00100
00010
00001
00000
,
00100
01000
10000
00000
,
01000
00100
00010
00001
,
00010
00100
01000
10000
,
00001
00001
10000
10000
,
00010
01000
00100
00000
,
00010
00010
01000
01000
,
00100
01010
10001
00000
,
01000
01000
00010
00010
,
00100
01010
10001
00000
,
00001
00010
00100
00000
,
10000
01000
00100
00000
,
00010
00010
01000
01000
,
01010
10001
00000
00000
,
00001
00010
00100
00010
,
00001
00000
10000
00000
,
10000
01000
00100
01000
,
10000
00000
00001
00000
,
10000
01000
00100
00010
,
00001
00010
00100
00000
,
10000
10000
00001
00001
,
01000
00010
00100
01010
,
10000
01000
00100
01000
,
10000
00000
00001
00000
,
00001
00010
00100
00010
,
00001
00000
10000
00000
,
00001
00010
00100
01000
,
10000
01000
00100
00000
,
00001
00001
10000
10000
,
00010
01000
00100
01010
,
20002
00000
00000
00000
,
30003
00000
00000
00000
,
00000
00000
00000
00000
,
00000
00000
00000
00000
,
01000
01000
00010
00010
,
00100
01010
10001
00000
,
00010
00010
01000
01000
,
00100
01010
10001
01010
,
00010
00000
01000
00000
,
00100
00010
00001
00000
,
01000
00000
00010
00000
,
00100
01000
10000
00000
,
00010
00010
01000
01000
,
00100
00010
00001
00000
,
01000
01000
00010
00010
,
00100
01000
10000
01010
;

//---------------para-single - ----------------
#NOTES:
     para-single:
     Freestyle [Hard]:
     Hard:
     6:
     0.380100,0.437856,0.341741,0.089504,0.000000,327.000000,285.000000,42.000000,11.000000,0.000000,0.000000,0.380100,0.437856,0.341741,0.089504,0.000000,327.000000,285.000000,42.000000,11.000000,0.000000,0.000000:
00000
00000
00000
00000
,
00000
00000
00000
00000
,
00000
00000
00000
00000
,
00000
00000
00000
00000
,
00000
00010
00000
00101
,
00000
01000
00000
10100
,
10000
01000
00100
00010
,
00001
00010
00100
00000
01010
00000
10001
00000
,
00000
00000
10000
01000
00100
00000
00010
00000
,
00001
00010
00100
00000
01000
00000
01010
00000
,
00000
00000
00001
00010
00100
00000
01000
00000
,
10000
01000
00100
00000
00010
00000
01010
00000
,
00001
00000
00100
00000
00010
01000
00100
00000
,
10000
00000
00100
00000
01000
00010
00100
00000
,
00001
00000
00000
10000
00000
00010
00000
01000
,
00000
00100
00000
01010
00100
01010
10001
00000
,
00001
00100
00010
01000
,
00100
10000
00010
00100
,
10000
00100
01000
00010
,
00100
00001
00100
00010
,
10000
01000
00100
00010
00002
00000
00003
00000
,
00001
00010
00100
01000
20000
00000
30000
00000
,
00010
00010
01000
01000
,
00001
00010
00100
00000
10000
01000
00100
00000
,
10000
00100
01000
00010
,
00100
00001
01000
00100
,
00001
00100
00010
01000
,
00100
10000
00100
01000
,
00001
00010
00100
01000
20000
00000
30000
00000
,
10000
01000
00100
00010
00002
00000
00003
00000
,
01000
01000
00010
00010
,
10000
01000
00100
00000
00001
00010
00100
00000
,
20000
30000
00002
00003
,
00100
00000
01010
00000
00100
01010
10001
00000
,
00002
00003
20000
30000
,
00100
00000
01010
00000
00100
01010
10001
00000
,
00001
00100
00010
00000
01000
00000
00100
00000
,
10000
00100
01000
00000
00010
00000
00100
00000
,
00001
00001
10000
10000
,
02020
00000
00000
03030
,
00100
00010
00001
00000
00100
01000
10000
00000
,
01010
00100
10001
00000
,
10000
01000
00100
00000
00001
00010
00100
00000
,
01000
00010
00100
00000
01010
00000
10001
00000
,
00100
01000
10000
00000
00100
00010
00001
00000
,
01010
00100
10001
00000
,
00001
00010
00100
00000
10000
01000
00100
00000
,
00010
01000
00100
00000
01010
00000
10001
00000
,
00100
00010
00001
00000
00100
01000
10000
00000
,
01010
00100
10001
00000
,
10000
01000
00100
00000
00001
00010
00100
00000
,
01000
00010
00100
00000
01010
00000
10001
00000
,
00100
01000
10000
00000
00100
00010
00001
00000
,
01010
00100
10001
00000
,
00001
00010
00100
00000
10000
01000
00100
00000
,
00010
01000
00100
00000
01010
00000
10001
00000
,
00200
00000
00000
00000
,
00300
00000
00000
00000
,
00000
00000
00000
00000
,
00000
00000
00000
00000
,
00001
00100
00010
01000
,
00100
10000
00010
00100
,
01010
00000
00000
00100
00000
01010
00000
10001
,
00000
01010
00000
00100
00100
00000
01010
00000
,
00000
00000
10000
01000
00100
00000
00010
00000
,
00001
00010
00100
00000
01000
00000
01010
00000
,
00000
00000
00001
00010
00100
00000
01000
00000
,
10000
01000
00100
00000
00010
00000
01010
00000
,
00001
00000
00100
00000
00010
01000
00100
00000
,
10000
00000
00100
00000
01000
00010
00100
00000
,
00001
00000
00000
10000
00000
00010
00000
01000
,
00000
00100
00000
01010
00100
01010
10001
00000
;
