#TITLE:557-3129;
#SUBTITLE:;
#ARTIST:Michael Staple ft. Slothington;
#TITLETRANSLIT:;
#SUBTITLETRANSLIT:;
#ARTISTTRANSLIT:;
#GENRE:CELLULAR EUROBEAT;
#CREDIT:;
#BANNER:557-3129.png;
#BACKGROUND:557-3129-bg.png;
#LYRICSPATH:557-3129.lrc;
#CDTITLE:557-3129-cdtitle.png;
#MUSIC:557-3129.ogg;
#OFFSET:-0.011682;
#SAMPLESTART:52.497749;
#SAMPLELENGTH:15.620000;
#SELECTABLE:YES;
#BPMS:0.000000=160.000000
;
#STOPS:200.500000=0.375000,
201.500000=0.375000,
202.500000=0.375000
;
#BGCHANGES:24.000=robot16.avi=1.000=1=0=1===CrossFade==,
32.000=robot14.avi=1.000=0=0=1=Centered====,
36.000=robot15.avi=1.000=0=0=1=====,
40.000=robot17.avi=1.000=0=0=1=====,
48.000=robot18.avi=1.000=0=0=1=====,
56.000=robot16.avi=1.000=0=0=1=====,
64.000=robot17.avi=1.000=0=0=1=====,
68.000=robot18a.avi=1.000=0=0=1=====,
72.000=blackhole2.avi=1.000=0=0=1=====,
88.000=tunnel11.avi=1.000=0=0=1=====,
104.000=heart3.avi=1.000=0=0=1=====,
108.000=blackhole1.avi=1.000=0=0=1=====,
112.000=fusion1.avi=1.000=0=0=1=====,
120.000=text22.avi=1.000=0=0=1=====,
124.000=text3.avi=1.000=0=0=1=====,
128.000=tunnel1.avi=1.000=0=0=1=====,
136.000=amoeba3.avi=1.000=0=0=1=====,
140.000=robot18.avi=1.000=0=0=1=====,
156.000=robot17.avi=1.000=0=0=1=====,
164.000=robot16.avi=1.000=0=0=1=====,
172.000=robot18.avi=1.000=0=0=1=====,
188.000=robot17.avi=1.000=0=0=1=====,
200.000=robot18a.avi=1.000=0=0=1=====,
201.000=robot18b.avi=1.000=0=0=1=====,
202.000=robot18a.avi=1.000=0=0=1=====,
205.000=bluey1.avi=1.000=0=0=1=====,
221.000=tunnel6.avi=1.000=0=0=1=====,
229.000=tunnel14.avi=1.000=0=0=1=====,
233.000=robot18a.avi=1.000=0=0=1=====,
235.000=robot18b.avi=1.000=0=0=1=====,
237.000=557-3129-bg.png=1.000=0=0=1=====,
99999=-nosongbg-=1.000=0=0=0 // don't automatically add -songbackground-
;
#KEYSOUNDS:;
#ATTACKS:;

//---------------dance-single - ----------------
#NOTES:
     dance-single:
     Expert:
     Hard:
     13:
     0.673465,0.910550,0.546730,0.587993,0.381679,457.000000,404.000000,53.000000,57.000000,0.000000,0.000000,0.673465,0.910550,0.546730,0.587993,0.381679,457.000000,404.000000,53.000000,57.000000,0.000000,0.000000:
0000
0000
0000
0000
,
0000
0000
0000
0000
,
0000
0000
0000
0000
,
0000
0000
0000
0000
,
0000
0000
0000
0000
,
0000
0000
0000
0000
,
1001
0000
1001
0000
0001
0100
1000
0100
,
0001
0010
1000
0010
0000
0000
0000
0000
,
0110
0000
0000
0000
,
2002
0000
0000
3003
,
0001
0100
0001
0100
0010
0000
1000
0100
1000
0100
0010
0000
0001
1000
0001
1000
,
0200
2300
3002
0203
0000
0310
1000
0001
,
1000
0010
0000
0010
0000
1000
0001
0000
0010
0001
0000
0001
0000
1000
0001
0000
,
1000
0100
0000
0100
0000
1000
0001
0000
2000
0000
3200
0000
0302
0000
0203
0000
,
1300
0010
1000
0010
0100
0000
0001
0010
0001
0010
0100
0000
1000
0001
1000
0001
,
0200
0302
2003
3200
0000
0310
0001
1000
,
0001
0100
1000
0001
0001
0010
0100
0001
,
1000
0100
0010
0001
1000
0000
1001
0000
0000
0000
2002
0000
0000
0000
3003
0000
,
0102
0000
0000
0000
1000
0000
0000
0000
0010
0000
0000
0010
0000
0000
0010
0000
,
0100
0000
0000
0100
0003
0000
0000
0000
0001
0000
0000
0010
0000
0000
0100
0000
,
2000
0000
0000
0000
0100
0000
0000
0000
0010
0000
0000
0010
0000
0000
0010
0000
,
3002
0000
0000
0000
1003
0000
0000
0000
0001
0000
0000
0100
0000
0000
1000
0000
,
0200
0000
0000
0000
0300
0000
0010
0000
1000
0000
0000
1000
0000
0000
0001
0000
,
0020
0000
0000
0000
0030
0000
0100
1000
0001
0000
0000
0001
0000
0000
0100
0000
,
2000
0100
3100
1000
,
0100
0000
0000
0000
0001
0000
0000
1000
0100
0010
0001
0010
0100
1000
0001
1000
,
0001
0000
0101
0000
1010
1001
0000
1000
,
0100
0001
1000
0020
0000
0130
1000
0001
,
0011
0000
1100
0000
1001
1001
0000
1000
,
0010
0000
0001
0000
0010
0000
0100
0000
0001
0010
0001
0010
0100
1000
0100
1000
,
0001
0100
1000
0100
0002
0100
1003
0001
,
1000
0100
0001
0100
2000
0100
3001
1000
,
0001
0100
0100
1000
1000
0001
0001
0010
,
0010
0100
0100
0001
0001
1000
1000
0001
,
0010
0000
0010
0000
0010
0000
0010
0000
0001
0100
0010
1000
0002
0000
0003
0000
,
1100
0000
0011
0000
0101
0100
1000
0100
,
0110
0010
1000
2010
0000
3001
0000
2001
,
0000
3100
0001
1000
0010
0100
1000
0001
,
0100
0010
0010
1000
1000
0001
0001
0000
,
0101
0000
1010
0000
1100
0100
0001
0100
,
0110
0010
0001
0012
0000
1003
0000
1002
,
0000
0100
0103
0000
0011
0011
0000
0001
,
0100
0000
1000
0000
0100
0000
0010
0000
1000
0100
0010
0001
0010
0100
1000
0001
,
0100
0000
1010
0000
1001
0001
0101
0100
,
0110
0010
1010
1002
0000
0103
0000
0021
,
0000
1030
0010
0001
0100
0010
1000
0100
,
0001
1000
1000
0010
0010
0100
0100
0000
,
1100
0000
0011
0000
1001
1000
1100
0100
,
0110
0010
0011
2001
0000
3100
0000
1020
,
0000
0031
0010
0000
1010
0101
0000
0001
,
0011
0000
0011
0000
1010
0000
1010
0000
1001
0000
1001
0000
0001
0000
0100
0010
,
1000
0000
1001
0000
1000
0100
1000
0100
0010
0000
0001
0100
0001
0100
0010
0000
,
1000
0001
1000
0001
0200
0000
0302
0000
2003
0000
3200
0000
0000
0000
0310
0000
,
0001
0000
1000
0000
0001
0010
0000
0010
0000
0001
1000
0000
0010
1000
0000
1000
,
0000
0001
1000
0000
0001
0100
0000
0100
0000
0001
1000
0000
0002
0000
0203
0000
,
2300
0000
3200
0000
0301
0010
0001
0010
0100
0000
1000
0010
1000
0010
0100
0000
,
0001
1000
0001
1000
0200
0000
2300
0000
3002
0000
0203
0000
0000
0000
0310
0000
,
1000
0001
1000
0100
0001
1000
1000
0010
,
0100
0000
1000
0000
0001
0100
0000
0012
0000
0000
1003
0000
0001
0100
0010
1000
,
0010
0100
0001
1000
0002
0000
0000
0000
0023
0000
0000
0000
2030
0000
3002
0000
,
0203
2300
3020
0032
2003
3200
0000
0300
;

//---------------dance-single - ----------------
#NOTES:
     dance-single:
     Beginner:
     Beginner:
     3:
     0.191577,0.250670,0.020631,0.020631,0.000000,130.000000,128.000000,2.000000,2.000000,0.000000,0.000000,0.191577,0.250670,0.020631,0.020631,0.000000,130.000000,128.000000,2.000000,2.000000,0.000000,0.000000:
0000
0000
0000
0000
,
0000
0000
0000
0000
,
0000
0000
0000
0000
,
0000
0000
0000
0000
,
0000
0000
0000
0000
,
0000
0000
0000
0000
,
1000
0000
1000
0000
,
0001
0000
0001
0000
,
0000
0000
0000
0000
,
1001
0000
0000
0000
,
1000
0000
0010
0000
,
0100
0100
0100
0000
,
0001
0000
0100
0000
,
0010
0010
0010
0000
,
1000
0000
0100
0000
,
0010
0010
0010
0000
,
0001
0000
0010
0000
,
0100
0000
1000
1000
,
1000
0000
0001
0000
,
0100
0000
0010
0000
,
1000
0000
0001
0001
,
0001
0000
0000
0000
,
1000
0000
0100
0000
,
0010
0000
0100
0100
,
0100
0000
0000
0000
,
0010
0000
0000
0000
,
0001
0001
0001
0000
,
0010
0000
0100
0000
,
1000
1000
1000
0000
,
0001
0000
0100
0000
,
0010
0010
0010
0000
,
0100
0100
0100
0000
,
0001
0001
0001
0000
,
1000
1000
1000
0000
,
2002
0000
0000
3003
,
0001
0001
0001
0000
,
0010
0000
0100
0000
,
1000
1000
1000
0000
,
0010
0000
0100
0000
,
1000
1000
1000
0000
,
0100
0000
0010
0000
,
1000
1000
1000
0000
,
0001
0001
0001
0000
,
0010
0010
0010
0000
,
0100
0000
1000
0000
,
0001
0001
0001
0000
,
0100
0000
0010
0000
,
1000
1000
1000
0000
,
0001
0000
0010
0000
,
0100
0100
0100
0000
,
0010
0000
0000
0000
,
0000
0001
0000
0010
,
0000
0100
0100
0100
,
0000
1000
0000
0001
,
0000
0010
0010
0010
,
0000
0001
0000
0100
,
0000
0010
0010
0010
,
0000
1000
0000
0001
,
0000
0100
0100
0100
,
0000
0010
0010
0010
,
0000
1000
0000
0001
;

//---------------dance-single - ----------------
#NOTES:
     dance-single:
     Basic:
     Easy:
     6:
     0.324206,0.379100,0.195998,0.061894,0.000000,220.000000,201.000000,19.000000,6.000000,0.000000,0.000000,0.324206,0.379100,0.195998,0.061894,0.000000,220.000000,201.000000,19.000000,6.000000,0.000000,0.000000:
0000
0000
0000
0000
,
0000
0000
0000
0000
,
0000
0000
0000
0000
,
0000
0000
0000
0000
,
0000
0000
0000
0000
,
0000
0000
0000
0000
,
0001
0100
0010
1000
,
0010
0100
0001
0000
,
2000
0000
0000
3000
,
2002
0000
0000
3003
,
0001
0100
1000
0100
,
0010
0010
0010
0000
,
1000
1000
0001
0001
,
0010
0100
0010
1001
,
0001
0100
1000
0100
,
0010
0010
0010
0000
,
1000
1000
0001
0001
,
0010
0100
0010
1001
,
0001
0100
0001
0100
,
0010
1000
0010
1000
,
0001
0010
0001
0010
,
0100
1000
0100
1000
,
0001
1000
0001
1000
,
0010
0100
0010
0100
,
1000
0001
1000
0001
,
0100
0010
0100
0010
,
1001
1001
1001
0000
,
0001
0100
1000
0100
,
1001
1001
1001
0000
,
1000
0100
0010
0001
,
1000
1000
1000
0010
,
0100
0100
0100
0001
,
1000
0100
0001
0100
,
1000
0010
0001
0010
,
2000
0000
3001
1001
,
0001
0100
1000
0100
,
0010
0010
0010
0000
,
1000
0001
0010
0100
,
1000
0001
0100
0010
,
1000
1000
0001
0001
,
0010
0100
1001
0000
,
0001
0100
1000
0100
,
0010
0010
0010
0000
,
1000
0100
0001
0100
,
0010
0010
0010
0000
,
0001
1000
0010
0100
,
0001
1000
0100
0010
,
0001
0001
1000
1000
,
0010
0100
1001
0000
,
1000
0100
0001
0100
,
1100
0101
1001
0001
,
1000
0001
0100
1000
,
0100
0010
0010
0010
,
0000
1000
1000
0001
,
0001
0010
0100
0010
,
1001
0001
0100
1000
,
0100
0010
0010
0010
,
0000
1000
1000
0001
,
0001
1000
1100
0001
,
0101
1000
1000
0001
,
0001
0010
0100
2002
,
0000
3003
0000
0000
;

//---------------dance-single - ----------------
#NOTES:
     dance-single:
     Difficult:
     Medium:
     9:
     0.449468,0.537059,0.412626,0.226944,0.000000,305.000000,265.000000,40.000000,22.000000,0.000000,0.000000,0.449468,0.537059,0.412626,0.226944,0.000000,305.000000,265.000000,40.000000,22.000000,0.000000,0.000000:
0000
0000
0000
0000
,
0000
0000
0000
0000
,
0000
0000
0000
0000
,
0000
0000
0000
0000
,
0000
0000
0000
0000
,
0000
0000
0000
0000
,
1100
0000
0101
0000
1000
0001
1000
0000
,
0010
0100
0010
0100
0000
0000
0000
0000
,
0110
0000
0000
0000
,
2002
0000
0000
3003
,
0001
0000
0101
0000
1000
0100
0000
0010
,
0001
0000
1000
0002
0000
0100
0103
0000
,
0010
0101
0010
1100
,
0001
0100
1000
0000
1000
0100
0001
0000
,
1000
0000
1100
0000
0001
0100
0000
0010
,
1000
0000
0001
2000
0000
0100
3100
0000
,
0010
1100
0010
0101
,
0001
0010
0100
1000
0000
2002
0000
3003
,
0002
0100
1000
0100
,
1000
0000
0010
0000
0100
0000
0103
0001
,
2000
0010
0100
0001
,
0100
0000
0100
0000
0010
0000
3010
1000
,
0002
0000
0100
0000
0010
0000
0103
0001
,
2000
0000
0100
0000
0010
0000
3100
1000
,
0002
0000
0010
0000
1000
0000
0103
0001
,
2000
0000
0010
0000
3100
1000
0001
1000
,
0100
0000
0011
0000
1000
0001
1000
0000
,
0010
0000
0100
0001
0000
1000
0100
0000
,
1001
0000
0110
0000
0001
0100
1000
0000
,
0100
0000
0010
1000
0000
1000
0001
0000
,
1000
0100
1000
0100
0020
0000
0030
0000
,
0001
0100
0001
0100
0020
0000
0030
0000
,
1000
0100
0001
0100
,
1000
0010
0001
0010
,
1000
0010
0100
0001
0100
0010
1001
0000
,
1100
0000
0101
0000
1000
0001
0100
0000
,
0010
1000
0010
1000
0002
0000
1003
0000
,
0001
0010
1000
0010
,
0100
1100
0101
1100
,
0101
0000
1100
0000
0001
1000
0100
0000
,
0010
0001
0010
0001
2000
0000
3001
0000
,
1000
0010
0001
0010
,
1000
0100
0010
0001
0010
0100
1000
0000
,
0101
0000
1100
0000
0001
1000
0001
1000
,
0010
0100
0010
0200
0000
0000
0310
0000
,
1000
0100
0001
0010
,
0001
0101
1100
1001
,
1010
0000
0011
0000
1000
0010
0100
0010
,
1000
0010
0100
0002
0000
0000
1003
0000
,
0001
0010
1000
0010
,
0001
0001
1000
1000
0010
0010
0100
0001
,
1000
0001
0000
0000
0101
0000
0000
1100
,
0000
0000
1000
0100
0010
0001
2000
0000
,
3001
0000
0100
0010
0100
0000
0001
1000
,
0001
0000
0010
0100
0010
0000
0001
0100
,
1000
0100
0001
0000
0011
0000
0000
1100
,
0000
0000
1000
0010
0100
0002
0000
0000
,
1003
0001
0010
1000
,
0100
0000
0001
0010
0100
0000
1000
0010
,
0100
1100
1100
0011
,
0011
1010
0101
2002
,
0000
3003
0000
0000
;

//---------------dance-double - ----------------
#NOTES:
     dance-double:
     Expert:
     Hard:
     13:
     0.620413,0.847754,0.433258,0.330101,0.134104,421.000000,379.000000,42.000000,32.000000,0.000000,0.000000,0.620413,0.847754,0.433258,0.330101,0.134104,421.000000,379.000000,42.000000,32.000000,0.000000,0.000000:
00000000
00000000
00000000
00000000
,
00000000
00000000
00000000
00000000
,
00000000
00000000
00000000
00000000
,
00000000
00000000
00000000
00000000
,
00000000
00000000
00000000
00000000
,
00000000
00000000
00000000
00000000
,
00101000
00000000
00010010
00000000
00010000
00001000
01000000
10000000
,
01000000
00001000
00010000
00000200
00000000
00000300
00000000
00000000
,
00000010
00000001
00000100
00000010
,
00002002
00000000
00000000
00003003
,
00000001
00000100
00000010
00000000
00002000
00000000
00003001
00000010
00000100
00000000
00002000
00000000
00003001
00001000
00000001
00000000
,
00001000
00000100
00010000
00012000
00000000
00100000
00103000
00000000
,
00001000
01000000
10000000
01000000
00100000
10000000
00010000
01000000
,
00010000
00100000
00000000
00100000
00000000
00100000
00010000
00000000
10000000
00000000
01000000
00000000
00010000
00000000
01000000
00000000
,
10000000
00100000
01000000
00000000
00020000
00000000
10030000
01000000
00100000
00000000
00020000
00000000
10030000
00010000
10000000
00000000
,
00010000
00100000
00001000
00021000
00000000
00000100
00030100
00000000
,
00010000
00000010
00000001
00000010
00000100
00000001
00001000
00000010
,
00001000
00000001
00000000
00000000
00000000
00000000
00000101
00000000
00000000
00000000
00002200
00000000
00000000
00000000
00003300
00000000
,
00001000
00000010
00001000
00000010
00000100
00001000
00000100
00001000
,
00010000
00001000
00010000
00001000
00010000
00100000
00010000
00100000
,
01000000
00100000
01000000
00100000
10000000
00100000
10000000
00100000
,
10000000
01000000
10000000
01000000
00010000
01000000
00010000
01000000
,
00010000
00001000
00000100
00001000
00010000
01000000
00010000
00001000
,
00000010
00000001
00000010
00001000
00010000
00001000
00000010
00000001
,
00001000
00000010
00010000
00001000
00010000
00000010
00000100
00001000
,
00010000
00100000
01000000
00010000
10000000
01000000
00100000
00010000
,
10010000
00000000
00011000
00000000
00001001
00001001
00000000
00000000
,
00000001
00000100
00001000
00010000
00001000
00000100
00000010
00001000
,
00001001
00000000
00011000
00000000
10010000
10010000
00000000
00000000
,
10000000
00100000
00010000
00002000
00000000
00003100
00000010
00000000
,
00001000
00000100
00000010
00010000
00000010
00000200
00001300
00000001
,
00001000
00000010
00000100
00010000
00000100
00000020
00001030
00000001
,
00001000
00000100
00000001
00001000
00000010
00000100
00010000
00001000
,
00100000
00010000
01000000
10000000
00010000
00100000
01000000
00010000
,
20020000
00000000
00000000
30030000
,
11000000
00110000
00001100
00000011
,
00000001
00000100
00001000
00000200
00000010
00000000
00000301
00000000
,
00001000
00000100
00000001
00000100
00000010
00000001
00001000
00000010
,
00000100
00001000
00010000
00100000
01000000
00001000
00010000
00000000
,
00012000
01003000
00021000
00030010
,
00010000
00001000
00000100
00000001
00000020
00000000
00000130
00000000
,
00001000
00000100
00000001
00000100
00010000
00001000
00100000
00010000
,
01000000
00000000
10000000
00000000
01000000
00000000
00001000
00000000
00010000
00000100
00001000
00000000
00000010
00000100
00000001
00000000
,
00000101
00001010
01010000
10100000
,
10000000
01000000
00010000
02000000
00100000
00000000
13000000
00000000
,
00010000
01000000
10000000
01000000
00100000
10000000
00010000
00100000
,
01000000
00010000
00001000
00000010
00000100
00010000
00001000
00000000
,
00021000
00030100
00012000
00103000
,
00001000
00010000
01000000
10000000
00200000
00000000
01300000
00000000
,
00010000
01000000
10000000
01000000
00001000
00010000
00000010
00001000
,
00000101
00000000
00000101
00000000
00001100
00000000
00001100
00000000
00001001
00000000
00001001
00000000
00000001
00000000
00000100
00000010
,
00001000
00000000
00001001
00000000
00000001
00000100
00000010
00000000
00002000
00000000
00003001
00000010
00000100
00000000
00002000
00000000
,
00003001
00001000
00000001
00000000
00001000
00000000
00000100
00000000
00010000
00000000
00012000
00000000
00000000
00000000
00100000
00000000
,
00103000
00000000
00001000
01000000
10000000
01000000
00100000
10000000
,
00010000
00000000
01000000
00000000
00010000
00100000
00000000
00100000
00000000
00100000
00010000
00000000
10000000
00000000
01000000
00000000
,
00010000
00000000
01000000
00000000
10000000
00100000
01000000
00000000
00020000
00000000
10030000
01000000
00100000
00000000
00020000
00000000
,
10030000
00010000
10000000
00000000
00010000
00000000
00100000
00000000
00001000
00000000
00021000
00000000
00000000
00000000
00000100
00000000
,
00030100
00000000
00010000
00000010
00000001
00000010
00000100
00000001
,
00001000
00000000
00000010
00000000
00001000
00000100
00000000
00011000
00000000
00000000
00000000
00000000
00100000
10000000
00000000
10010000
,
00000000
00000000
10100000
00000000
01010000
00000000
00010000
00100000
,
10000000
00010000
01000000
00100000
00001000
00022000
00000000
00033000
;

//---------------dance-double - ----------------
#NOTES:
     dance-double:
     Basic:
     Easy:
     6:
     0.305049,0.314628,0.103157,0.206313,0.000000,207.000000,197.000000,10.000000,20.000000,0.000000,0.000000,0.305049,0.314628,0.103157,0.206313,0.000000,207.000000,197.000000,10.000000,20.000000,0.000000,0.000000:
00000000
00000000
00000000
00000000
,
00000000
00000000
00000000
00000000
,
00000000
00000000
00000000
00000000
,
00000000
00000000
00000000
00000000
,
00000000
00000000
00000000
00000000
,
00000000
00000000
00000000
00000000
,
00001000
00010000
00001000
00010000
,
00000100
00001000
00000001
00000000
,
00000200
00000000
00000000
00000300
,
00002002
00000000
00000000
00003003
,
00000001
00000100
00001000
00010000
,
00001000
00000100
00000010
00000000
,
00001000
00001000
00000001
00000001
,
00010000
00001000
00100000
00010000
,
01000000
10000000
01000000
00100000
,
10000000
00010000
01000000
00000000
,
00001000
00010000
00000100
00001000
,
00000010
00000000
00000000
00000100
00000000
00002002
00000000
00003003
,
00000001
00000100
00000001
00000100
,
00001000
00000100
00001000
00000100
,
00001000
00010000
00001000
00010000
,
01000000
00010000
01000000
00010000
,
01000000
10000000
01000000
10000000
,
00100000
10000000
00100000
10000000
,
00100000
10000000
00010000
00100000
,
00001000
00010000
00000100
00001000
,
00000010
00000010
00000010
00000000
,
00000100
00000001
00000100
00001000
,
00000100
00000100
00000100
00000000
,
00000010
00001000
00000001
00000000
,
00001000
00000100
00002000
00003001
,
00000001
00000100
00000002
00001003
,
00000001
00000100
00001000
00010000
,
01000000
10000000
00010000
10000000
,
20020000
00000000
00000000
30030000
,
10000000
00100000
00010000
00001000
,
00010000
00100000
20020000
30030000
,
10000000
01000000
00010000
00001000
,
00000100
00000100
00000010
00000010
,
00001000
00000010
00000001
00000010
,
00001000
00000001
00002002
00003003
,
00000001
00000100
00001000
00010000
,
01000000
10000000
00020000
00030000
,
10000000
00100000
00010000
00001000
,
00010000
00100000
20020000
30030000
,
10000000
01000000
00010000
00001000
,
00000100
00000100
00000010
00000010
,
00001000
00000010
00000001
00000010
,
00001000
00000001
00002002
00003003
,
00000001
00000100
00001000
00010000
,
01000000
10000000
00010000
01000000
,
00100000
10000000
01000000
00010000
,
01000000
10000000
00010000
10010000
,
00000000
10000000
10000000
00010000
,
00010000
00100000
00001000
00010000
,
00011000
00000100
00001000
00000010
,
00000001
00000010
00001000
00000001
,
00000000
00000010
00000100
00001000
,
00010000
00100000
01000000
10000000
,
00010000
01000000
01000000
00100000
,
00100000
10000000
00010000
20020000
,
30030000
00000000
00000000
00000000
;

//---------------dance-double - ----------------
#NOTES:
     dance-double:
     Difficult:
     Medium:
     11:
     0.492204,0.534867,0.340417,0.268207,0.010316,334.000000,301.000000,33.000000,26.000000,0.000000,0.000000,0.492204,0.534867,0.340417,0.268207,0.010316,334.000000,301.000000,33.000000,26.000000,0.000000,0.000000:
00000000
00000000
00000000
00000000
,
00000000
00000000
00000000
00000000
,
00000000
00000000
00000000
00000000
,
00000000
00000000
00000000
00000000
,
00000000
00000000
00000000
00000000
,
00000000
00000000
00000000
00000000
,
00011000
00000000
00011000
00000000
00001000
00100000
00010000
00000000
,
01000000
00100000
01000000
00200000
00000000
00000000
00300000
00000000
,
10000000
00001000
00010000
00000001
,
00002002
00000000
00000000
00003003
,
00000001
00000100
00001000
00000000
00001000
00000100
00000010
00000000
,
00010000
00001000
00010000
00001000
00200000
00000000
00310000
00000000
,
01000000
10000000
00010000
00000000
00100000
10000000
00010000
00000000
,
10000000
01000000
00010000
00001000
00000200
00000000
00000310
00000000
,
00001000
00000100
00000001
00000000
00000001
00000100
00001000
00000000
,
00001000
00000010
00010000
00001000
00200000
00000000
00310000
00000000
,
01000000
10000000
01000000
10000000
01000000
00100000
01000000
00100000
,
01000000
00010000
00000000
10000000
00000000
20020000
00000000
30030000
,
10000000
11000000
00010000
01010000
,
00100000
00000000
00000000
00000000
10010000
00000000
00000000
00000000
10000000
00000000
00000000
00100000
00000000
00000000
01000000
00000000
,
00010000
01010000
00001000
00011000
,
00010000
00000000
00000000
00000000
00010100
00000000
00000000
00000000
00000100
00000000
00000000
00001000
00000000
00000000
00000010
00000000
,
00000200
00000000
00000001
00000000
00001300
00000000
00000100
00000001
,
00002000
00000000
00000010
00000000
00003100
00000000
00001000
00000001
,
00000100
00001010
00000100
00000011
,
00000001
00000100
00001000
00000000
00010000
00100000
10000000
00010000
,
10000000
00000000
10010000
00000000
10000000
01000000
00010000
00000000
,
01000000
00100000
00010000
00000000
00001000
00000100
00000010
00000000
,
00000011
00000000
00001010
00000000
00000001
00001000
00000001
00000000
,
00001000
00000100
00000001
00000000
00000100
00001000
00000001
00000000
,
00001000
00000010
00001000
00000010
00010000
00001000
00100000
00000000
,
00010000
01000000
00010000
01000000
00100000
10000000
00010000
00000000
,
10000000
01000000
00010000
00000000
00001000
00000100
00000010
00000000
,
00001010
00000101
00000011
00001100
,
00002002
00000000
00000000
00003003
,
00000101
00000000
00001100
00000000
00000001
00000100
00001000
00000000
,
00001000
00100000
00001000
00100000
02000000
00000000
13000000
00000000
,
00010000
01000000
10000000
00000000
10000000
01000000
00010000
00000000
,
20010000
30002000
00023000
00030001
,
00000101
00000000
00001100
00000000
00000001
00000100
00001000
00000000
,
00010000
00100000
01000000
00010000
20000000
00000000
30010000
00000000
,
10000000
01000000
00010000
00000000
00010000
01000000
10000000
00000000
,
10000000
00100000
00010000
00001000
00000010
00000001
00001000
00000000
,
00000011
00000000
00001010
00000000
00000001
00000010
00001000
00000000
,
00001000
01000000
00001000
01000000
00200000
00000000
10300000
00000000
,
00010000
00100000
10000000
00000000
10000000
00100000
00010000
00000000
,
20010000
30002000
00023000
00030001
,
00000011
00000000
00001010
00000000
00000001
00000010
00001000
00000000
,
00010000
01000000
00100000
00010000
20000000
00000000
30010000
00000000
,
10000000
00100000
00010000
00000000
00010000
00100000
10000000
00000000
,
10000000
01000000
00010000
00001000
00000100
00000001
00001000
00000100
,
00000010
00001001
00000001
00000010
00001000
00000000
00001000
00000010
,
00000100
00000000
00010000
00001000
00010000
00001000
02000000
00000000
,
03010000
00000000
00100000
10000000
00010000
00000000
01000000
10000000
,
00010000
00000000
10000000
00100000
00010000
00001000
00000020
00000000
,
00000130
00000000
00001000
00000010
00000001
00000000
00000001
00000010
,
00001000
00000000
00001000
00000100
00010000
00001000
02000000
00000000
,
03010000
00000000
00100000
10000000
00100000
10000000
00100000
01000000
,
00100000
01000000
00100000
00010000
10000000
00000000
00100000
10000000
,
00010000
00000000
11000000
00000000
01010000
00000000
10000000
01000000
,
00010000
00001000
00010000
01000000
10000000
00020000
00000000
00000000
,
00030000
00000000
00000000
00000000
;

//---------------para-single - ----------------
#NOTES:
     para-single:
     Freestyle [Expert]:
     Challenge:
     6:
     0.422942,0.611203,0.422942,0.113472,0.082525,287.000000,246.000000,41.000000,11.000000,0.000000,0.000000,0.422942,0.611203,0.422942,0.113472,0.082525,287.000000,246.000000,41.000000,11.000000,0.000000,0.000000:
// measure 0
00000
00000
00000
00000
,  // measure 1
00000
00000
00000
00000
,  // measure 2
00000
00000
00000
00000
,  // measure 3
00000
00000
00000
00000
,  // measure 4
00000
00000
00000
00000
,  // measure 5
00000
00000
00000
00000
,  // measure 6
00000
00000
00000
00000
,  // measure 7
00000
00000
00000
00000
,  // measure 8
00000
00000
00000
00000
,  // measure 9
00200
00000
00000
00300
,  // measure 10
00100
00010
00001
00000
00000
01100
00000
00000
,  // measure 11
01000
00100
00010
02000
00000
03010
00100
00000
,  // measure 12
10000
01000
00100
00000
00001
00010
00100
00000
,  // measure 13
01010
00000
00000
10001
00000
00000
00010
00000
01000
00000
00100
00000
00100
00000
00100
00000
,  // measure 14
00100
01000
10000
00000
00000
00110
00000
00000
,  // measure 15
00010
00100
01000
00020
00000
01030
00100
00000
,  // measure 16
00001
00010
00100
00000
10000
01000
00100
00000
,  // measure 17
01010
00100
00000
00000
00000
00000
10001
00000
00000
00000
20002
00000
30003
00000
00000
00000
,  // measure 18
00100
00010
00001
00001
,  // measure 19
00100
00000
00000
00000
00010
00000
00000
00000
10000
00000
00000
01000
00000
00000
00100
00000
,  // measure 20
00010
00100
01000
01000
,  // measure 21
00010
00000
00000
00000
00100
00000
00000
00000
01000
00000
00000
00100
00000
00000
00010
00000
,  // measure 22
00001
00000
00000
00000
00010
00000
00000
00000
00100
00000
00000
00000
00100
00000
00001
00010
,  // measure 23
00100
01000
10000
10000
,  // measure 24
00002
00000
00000
00000
02003
00000
00000
00000
03020
00000
00000
00000
20030
00000
00100
00010
,  // measure 25
30001
00000
00000
00000
01000
00000
00000
00100
00010
00001
00100
01000
10000
00100
00010
00000
,  // measure 26
00101
00000
00101
00000
00010
00101
00000
00000
,  // measure 27
00010
00100
01000
00000
00010
00000
00100
00000
,  // measure 28
10100
00000
10100
00000
01000
10100
00000
00000
,  // measure 29
01000
00100
00010
00000
01000
00000
00100
00000
,  // measure 30
01000
00010
00000
00100
,  // measure 31
00010
01000
00000
00100
,  // measure 32
00001
00001
10000
10000
,  // measure 33
00010
00100
01000
00000
01000
00100
00010
00000
,  // measure 34
01000
00000
01000
00000
00010
00000
00010
00000
00100
01000
00010
00000
10001
00000
00000
00000
,  // measure 35
00001
00001
00110
00100
,  // measure 36
10000
01000
00000
00011
00000
00000
00000
00100
,  // measure 37
00000
01000
00100
00010
10000
01000
00000
10010
,  // measure 38
00000
00100
00000
01001
00000
00100
00000
00000
,  // measure 39
10010
10010
01001
00100
,  // measure 40
10000
01000
00000
00011
00000
00000
00000
00001
,  // measure 41
00000
01000
01000
00000
00010
00010
00000
10000
,  // measure 42
01000
00100
00010
00001
00000
00100
00000
01000
,  // measure 43
00001
00001
00110
00100
,  // measure 44
10000
01000
00000
00011
00000
00000
00000
00100
,  // measure 45
00000
00010
00100
01000
00001
00010
00000
01001
,  // measure 46
00000
00100
00000
10010
00000
00100
00000
00000
,  // measure 47
10010
10010
01001
00100
,  // measure 48
10000
01000
00000
00011
00000
00000
00000
10000
,  // measure 49
00000
00010
00010
00000
01000
01000
00100
00010
,  // measure 50
10100
00011
11000
00101
,  // measure 51
00000
01010
00000
00000
00100
00000
00000
01010
,  // measure 52
00000
00000
01000
00100
00010
02000
00000
03010
,  // measure 53
00100
00000
10000
01000
00100
00000
00001
00010
,  // measure 54
00100
00000
00000
00000
01010
00000
00000
10001
00000
00000
00010
00000
01000
00000
00100
00000
,  // measure 55
00100
00100
00100
01000
10000
00000
00000
00110
,  // measure 56
00000
00000
00010
00100
01000
00020
00000
01030
,  // measure 57
00100
00000
00001
00010
00100
00000
10000
01000
,  // measure 58
00100
00000
00000
00000
01000
00100
00000
10010
00000
00000
00000
00000
00010
00100
00000
01001
,  // measure 59
00000
10000
00000
00000
;

//---------------para-single - ----------------
#NOTES:
     para-single:
     Freestyle [Normal]:
     Medium:
     2:
     0.232839,0.336162,0.195998,0.051578,0.000000,158.000000,139.000000,19.000000,5.000000,0.000000,0.000000,0.232839,0.336162,0.195998,0.051578,0.000000,158.000000,139.000000,19.000000,5.000000,0.000000,0.000000:
00000
00000
00000
00000
,
00000
00000
00000
00000
,
00000
00000
00000
00000
,
00000
00000
00000
00000
,
00000
00000
00000
00000
,
00000
00000
00000
00000
,
00000
00000
00000
00000
,
00000
00000
00000
00000
,
00000
00000
00000
00000
,
00000
00000
00000
00000
,
00000
00000
01010
00000
00000
00100
00000
00000
,
01000
00100
00010
00000
,
00001
00000
10000
00000
,
00001
00010
00100
01000
,
10000
00000
01010
00000
00000
00100
00000
00000
,
00010
00100
01000
00000
,
10000
01000
00100
00010
,
00001
00000
00000
10000
00000
00001
00000
00000
,
01000
00000
00100
00010
,
00001
00000
00000
00000
,
00010
00000
00100
01000
,
10000
00000
00000
00000
,
00010
00000
00010
00000
,
01000
00000
01000
00000
,
00200
00000
00300
00000
,
20002
00000
30003
00000
,
00010
00010
00100
00000
,
10000
00000
10000
00000
,
01000
01000
00100
00000
,
00001
00000
00001
00000
,
00100
00000
01010
00000
,
00100
00000
10001
00000
,
00010
00000
10100
00000
,
01000
00000
00101
00000
,
00000
00000
00000
00100
,
00001
00001
00110
00100
,
10000
01000
00011
00000
,
01000
00100
00010
00100
,
01000
00100
00010
00001
,
10000
10000
01100
00100
,
00001
00010
11000
00000
,
00010
00100
01000
00100
,
00010
00100
01000
10000
,
00001
00001
00110
00100
,
10000
01000
00011
00000
,
01000
00100
00010
00100
,
01000
00100
00010
00001
,
10000
10000
01100
00100
,
00001
00010
11000
00000
,
00010
00100
01000
00100
,
02020
00000
00000
00000
00000
00000
00000
03030
,
00000
10001
00000
00000
01010
00000
00000
00100
,
00000
00010
00100
01000
,
00000
10000
00000
00001
,
00000
10000
01000
00100
,
00010
00000
00001
00000
01010
00000
00000
00100
,
00000
01000
00100
00010
,
00000
00001
00010
00100
,
01000
10000
00000
00001
,
00000
00010
00000
00000
;

//---------------para-single - ----------------
#NOTES:
     para-single:
     Freestyle [Hard]:
     Hard:
     5:
     0.391995,0.578193,0.526099,0.061894,0.041263,266.000000,215.000000,51.000000,6.000000,0.000000,0.000000,0.391995,0.578193,0.526099,0.061894,0.041263,266.000000,215.000000,51.000000,6.000000,0.000000,0.000000:
00000
00000
00000
00000
,
00000
00000
00000
00000
,
00000
00000
00000
00000
,
00000
00000
00000
00000
,
00000
00000
00000
00000
,
00000
00000
00000
00000
,
00000
00000
00000
00000
,
00000
00000
00000
00000
,
00000
00000
00000
00000
,
00000
00000
00000
00000
,
00010
00000
01100
00000
00000
10010
00000
00000
,
01000
00000
00100
00010
00000
00001
00000
00000
,
10100
00100
00101
00100
,
01000
00100
00010
00000
00010
00100
01000
00000
,
01000
00000
00110
00000
00000
01001
00000
00000
,
00010
00000
00100
01000
00000
10000
00000
00000
,
00101
00100
10100
00100
,
00001
10000
00000
00000
00000
00000
01100
00000
00000
00000
00110
00000
00000
00000
00000
00000
,
20002
00000
00000
00000
30003
00000
00010
00000
00100
00000
00000
01000
00000
00000
00010
00000
,
00002
00000
00000
00000
00010
00000
00000
00000
00103
00000
00000
00100
00000
00000
01000
00000
,
00010
00000
00000
00000
00000
00000
01000
00000
00100
00000
00000
00010
00000
00000
01000
00000
,
20000
00000
00000
00000
00010
00000
00000
00000
30100
00000
00000
00100
00000
00000
00010
00000
,
01000
00000
00000
00000
00000
00000
00100
00000
00010
00000
00000
00001
00000
00000
00100
00000
,
01000
00000
00000
10000
00000
00000
01000
00000
00100
00000
00000
00010
00000
00000
00001
00000
,
20010
00000
00100
00000
30100
00000
00100
00010
,
01002
00000
00100
00000
00103
01000
10000
00000
,
10100
00000
10100
00000
01000
10100
00000
01000
,
00100
00010
00000
01000
00000
00100
00100
00000
,
00101
00000
00101
00000
00010
00101
00000
00010
,
00100
01000
00000
00010
00000
00100
00100
00000
,
10010
10010
01100
00000
,
01001
01001
00110
00100
,
00001
00001
10000
10000
,
00010
00100
01000
00000
01000
00100
00010
00000
,
00000
00000
00000
01010
,
00001
00001
00110
00100
,
10000
01000
00000
00011
00000
00000
00000
10000
,
00000
00001
00000
10000
00000
00001
00000
00010
,
00000
00010
00000
00101
00000
01010
00000
00000
,
00001
00001
00110
00100
,
10000
01000
00000
00011
00000
00000
00000
00100
,
00000
01000
10000
00000
01000
00100
00000
00001
,
00010
00100
01000
10000
00000
00100
00100
00000
,
00001
00001
00110
00100
,
10000
01000
00000
00011
00000
00000
00000
00001
,
00000
10000
00000
00001
00000
10000
00000
01000
,
00000
01000
00000
10100
00000
01010
00000
00000
,
00001
00001
00110
00100
,
10000
01000
00000
00011
00000
00000
00000
00100
,
00000
00010
00001
00000
00010
00100
00000
01000
,
10100
01000
00101
00010
10100
01000
00101
00010
,
00000
01010
00000
00000
00110
00000
00000
01001
,
00000
00000
00010
00000
00100
01000
00000
10000
,
00000
00101
00100
10100
,
00100
00000
00010
00100
01000
00000
01000
00100
,
00010
00000
00010
00000
01100
00000
00000
10010
,
00000
00000
01000
00000
00100
00010
00000
00001
,
00000
10100
00100
00101
,
00100
00000
01000
00100
00010
00000
00010
00100
,
01000
00000
00000
00000
;
