#VERSION:0.83;
#TITLE:cachaca;
#SUBTITLE:;
#ARTIST:Mokky de Yah Yah's;
#TITLETRANSLIT:;
#SUBTITLETRANSLIT:;
#ARTISTTRANSLIT:;
#GENRE:;
#ORIGIN:;
#CREDIT:BadWolf;
#BANNER:cachaca.png;
#BACKGROUND:cachaca-bg.png;
#PREVIEWVID:;
#JACKET:cachaca-jacket.png;
#CDIMAGE:;
#DISCIMAGE:;
#LYRICSPATH:;
#CDTITLE:cdtitle.png;
#MUSIC:cachaca.ogg;
#OFFSET:0.000000;
#SAMPLESTART:18.710667;
#SAMPLELENGTH:15.000004;
#SELECTABLE:YES;
#BPMS:0.000=128.000;
#STOPS:;
#DELAYS:;
#WARPS:;
#TIMESIGNATURES:0.000=4=4;
#TICKCOUNTS:0.000=4;
#COMBOS:0.000=1;
#SPEEDS:0.000=1.000=0.000=0;
#SCROLLS:0.000=1.000;
#FAKES:;
#LABELS:0.000=Song Start;
#BGCHANGES:0.000=pack0265.AVI=1.000=0=0=1===CrossFade_Fastest==,
194.000=cachaca-bg.png=1.000=0=0=1===CrossFade_Fastest==,
99999=-nosongbg-=1.000=0=0=0 // don't automatically add -songbackground-
;
#KEYSOUNDS:;
#ATTACKS:
;

//---------------dance-single - ----------------
#NOTEDATA:;
#CHARTNAME:;
#STEPSTYPE:dance-single;
#DESCRIPTION:;
#CHARTSTYLE:;
#DIFFICULTY:Edit;
#METER:9;
#RADARVALUES:0.616726,0.622971,0.437173,0.437173,1.027356,395.000000,355.000000,40.000000,40.000000,0.000000,0.000000,0.000000,0.000000,0.000000,0.616726,0.622971,0.437173,0.437173,1.027356,395.000000,355.000000,40.000000,40.000000,0.000000,0.000000,0.000000,0.000000,0.000000;
#CREDIT:;
#NOTES:
0000
0000
0000
0000
,
0000
0000
0000
0000
,
1000
0000
0000
0000
0100
0000
0000
0000
0010
0000
0000
0000
0001
0000
0000
0000
0100
0000
0000
0000
0010
0000
0000
0000
1000
0000
0000
0001
0000
0000
0000
0000
0000
1000
0000
0000
0001
0000
0000
0000
0000
0000
0010
0000
0000
0000
0000
0000
,
0100
0000
0000
0000
0000
0000
1000
0000
0000
0010
0000
0000
0000
0000
0000
0001
0000
0000
0000
0000
0000
0010
0000
0000
0000
0000
0000
0000
1000
0000
0000
0000
0100
0000
0000
0000
0010
0000
0000
0000
0001
0000
0000
0000
0010
0000
0000
0000
,
0100
0000
1000
0010
0000
1000
0000
0100
0000
0010
0000
0100
1000
0000
0001
0000
,
1000
0000
0010
0100
0000
0010
0000
0001
0000
0010
0000
0100
0010
0000
1000
0000
,
0001
0000
0000
0000
0010
0000
0000
0000
0100
0000
0000
0000
1000
0000
0000
0000
0010
0000
0000
0000
0100
0000
0000
0000
0001
0000
0000
1000
0000
0000
0000
0000
0000
0001
0000
0000
1000
0000
0000
0000
0000
0000
0100
0000
0000
0000
0000
0000
,
0010
0000
0000
0000
0000
0000
0001
0000
0000
0100
0000
0000
0000
0000
0000
1000
0000
0000
0000
0000
0000
0100
0000
0000
0000
0000
0000
0000
0001
0000
0000
0000
0010
0000
0000
0000
0100
0000
0000
0000
1000
0000
0000
0000
0100
0000
0000
0000
,
0010
0000
0000
0000
0001
0000
0000
0000
0100
0000
0000
0000
0000
0000
0000
0001
0000
0000
0000
0000
0000
0010
0000
0000
0000
0000
0000
0100
0000
0000
0000
0000
0000
0010
0000
0000
0001
0000
0000
0000
0000
0000
1000
0000
0000
0000
0000
0000
,
0001
0000
0100
0010
0000
0100
0000
1000
0000
0100
0000
0010
0100
0000
0001
0000
,
0022
0033
0000
0000
2020
3030
0000
0000
2200
3300
0000
0000
0202
0303
0000
0000
,
0022
0033
0000
2002
3003
0000
2020
3030
1000
0100
0000
1000
0100
0000
0010
0000
,
0001
0000
0100
1000
0000
0100
0000
0001
0000
0010
0000
0100
1000
0000
0001
0000
,
1000
0000
0010
0100
0000
0010
0000
1000
0000
0100
1000
0000
0100
0000
0010
0000
,
0022
0033
0000
0000
2020
3030
0000
0000
2200
3300
0000
0000
0202
0303
0000
0000
,
2002
3003
0000
0220
0330
0000
2002
3003
1000
0010
0000
1000
0010
0000
0100
0000
,
0001
0000
0010
0100
0000
0010
0000
0001
0000
1000
0001
0000
0100
0000
0010
0000
,
1000
0000
0100
0010
0000
0001
0000
1000
0001
0000
0000
0000
1001
0000
0000
0000
,
1000
0000
0000
0000
0100
0000
0000
0000
0010
0000
0000
0000
0001
0000
0000
0000
0100
0000
0000
0000
0010
0000
0000
0000
1000
0000
0000
0001
0000
0000
0000
0000
0000
1000
0000
0000
0001
0000
0000
0000
0000
0000
0010
0000
0000
0000
0000
0000
,
0100
0000
0000
0000
0000
0000
1000
0000
0000
0010
0000
0000
0000
0000
0000
0001
0000
0000
0000
0000
0000
0010
0000
0000
0000
0000
0000
0000
1000
0000
0000
0000
0100
0000
0000
0000
0010
0000
0000
0000
0001
0000
0000
0000
0010
0000
0000
0000
,
0100
0000
1000
0010
0000
1000
0000
0100
0000
0010
0000
0100
1000
0000
0001
0000
,
1000
0000
0010
0100
0000
0010
0000
0001
0000
0010
0000
0100
0010
0000
1000
0000
,
0001
0000
0000
0000
0010
0000
0000
0000
0100
0000
0000
0000
1000
0000
0000
0000
0010
0000
0000
0000
0100
0000
0000
0000
0001
0000
0000
1000
0000
0000
0000
0000
0000
0001
0000
0000
1000
0000
0000
0000
0000
0000
0100
0000
0000
0000
0000
0000
,
0010
0000
0000
0000
0000
0000
0001
0000
0000
0100
0000
0000
0000
0000
0000
1000
0000
0000
0000
0000
0000
0100
0000
0000
0000
0000
0000
0000
0001
0000
0000
0000
0010
0000
0000
0000
0100
0000
0000
0000
1000
0000
0000
0000
0100
0000
0000
0000
,
0010
0000
0000
0000
0001
0000
0000
0000
0100
0000
0000
0000
0000
0000
0000
0001
0000
0000
0000
0000
0000
0010
0000
0000
0000
0000
0000
0100
0000
0000
0000
0000
0000
0010
0000
0000
0001
0000
0000
0000
0000
0000
1000
0000
0000
0000
0000
0000
,
1001
0000
0000
0000
0000
0000
0001
0000
0000
1000
0000
0000
0000
0000
0000
0000
0000
0000
1001
0000
0000
0000
0000
0000
1000
0000
0000
0001
0000
0000
0000
0000
1000
0000
0000
0000
0000
0000
0100
0000
0000
0000
0010
0000
0000
0000
0001
0000
,
0000
0020
0000
0000
0000
0000
0000
0000
0000
0031
0100
0001
,
1000
0100
0010
0001
0010
0100
2000
0000
0000
0000
0000
0000
,
3001
0100
0001
1000
0010
1000
0001
0010
0100
1000
0100
0010
,
0002
0203
2300
3020
,
0031
1000
0100
1000
0001
0010
0100
0000
1100
0000
1001
0000
,
0001
0100
1000
0100
0001
0000
1000
0010
0001
0010
1000
0000
,
0001
0010
1000
0010
0001
1000
0001
0100
1000
0100
0001
1000
,
0001
0000
0011
0000
1010
0000
2200
0000
0000
0000
3300
0000
,
0000
0001
0010
0100
1000
0001
1000
0000
0000
0000
0000
0000
,
0000
0000
0001
0000
0000
0100
0000
0000
1000
0000
0100
0001
0000
0000
0000
0000
,
0000
1000
0100
0010
0001
1000
0001
0000
0000
0000
0000
0000
,
0100
0000
0000
0000
0000
0000
0010
0000
0000
1000
0000
0000
0000
0000
0000
0100
0000
0000
0000
0000
0000
0010
0000
0000
0000
0000
0000
0000
0001
0000
0000
0000
0100
0000
0000
0000
0001
0000
0000
0000
1000
0000
0000
0000
0001
0000
0000
0000
,
0000
1000
0001
0010
0100
1000
0001
0000
0000
0000
0000
0000
,
0000
0000
1000
0000
0000
0010
0000
0000
0001
0000
0010
1000
0000
0000
0000
0000
,
1100
0101
0011
1010
,
2000
3200
0320
0032
,
1003
1010
0011
0101
,
1001
0000
1000
0001
0000
0000
1001
0000
0001
1000
0000
0000
0000
0000
0000
0000
,
0011
1010
1100
0101
,
1001
0000
1000
0100
0000
0100
0000
0100
0000
0000
0110
0000
0000
0000
0000
0000
,
1001
0000
0001
0100
0000
0100
0000
0100
0000
0110
0000
0000
0000
0000
0000
0000
,
1001
0000
1000
0100
0000
0100
0000
0100
0010
0000
0000
0000
0000
0000
0000
0000
;

//---------------dance-single - ----------------
#NOTEDATA:;
#CHARTNAME:;
#STEPSTYPE:dance-single;
#DESCRIPTION:;
#CHARTSTYLE:;
#DIFFICULTY:Challenge;
#METER:8;
#RADARVALUES:0.462154,0.597014,0.076505,0.295092,0.765052,296.000000,289.000000,7.000000,27.000000,0.000000,0.000000,0.000000,0.000000,0.000000,0.462154,0.597014,0.076505,0.295092,0.765052,296.000000,289.000000,7.000000,27.000000,0.000000,0.000000,0.000000,0.000000,0.000000;
#CREDIT:;
#NOTES:
0000
0000
0000
0000
,
0000
0000
0000
0000
,
0000
1000
0001
1000
0001
1000
0001
0000
0000
0010
0000
0000
,
0100
0000
0000
0000
0000
0000
1000
0000
0000
0010
0000
0000
0000
0000
0000
0100
0000
0000
0000
0000
0000
0001
0000
0000
0000
0000
0000
0000
1000
0000
0000
0000
0001
0000
0000
0000
1000
0000
0000
0000
0001
0000
0000
0000
1000
0000
0000
0000
,
0001
0000
0010
0100
0000
1000
0000
0001
0000
0000
0000
0000
1000
0000
0000
0000
,
0010
0000
0100
0001
0000
1000
0000
0100
0000
0000
0000
0000
0010
0000
0000
0000
,
0000
0001
1000
0001
1000
0001
1000
0000
0000
0100
0000
0000
,
0010
0000
0000
0000
0000
0000
0001
0000
0000
0100
0000
0000
0000
0000
0000
0010
0000
0000
0000
0000
0000
1000
0000
0000
0000
0000
0000
0000
0001
0000
0000
0000
1000
0000
0000
0000
0001
0000
0000
0000
1000
0000
0000
0000
0001
0000
0000
0000
,
1000
0000
0100
0010
0000
0001
0000
1000
0000
0000
0000
0000
0001
0000
0000
0000
,
0100
0000
0010
1000
0000
0001
0000
0010
0000
0000
0000
0000
0100
0000
0000
0000
,
2000
3020
0032
0023
,
1030
0000
0000
0001
0000
0000
1000
0000
0000
0000
0000
0000
0000
0000
0000
0000
,
0001
0000
0010
0100
0000
1000
0000
0100
0000
1000
0000
0000
0001
0000
1000
0000
,
0001
0000
0000
1000
0000
0000
0000
0000
0000
0000
0001
0000
0100
0000
0010
0000
,
2000
3200
0302
0203
,
1300
0000
0000
0001
0000
0000
2000
0000
0000
0000
0000
0000
3010
0000
0000
0000
,
1001
0000
0000
0000
0000
0001
0010
0100
,
1000
0000
0001
1000
0000
0001
0000
1000
0001
0000
0000
0000
0000
0000
0000
0000
,
0000
1000
0001
1000
0001
1000
0001
0000
0000
0010
0000
0000
,
0100
0000
0000
0000
0000
0000
1000
0000
0000
0010
0000
0000
0000
0000
0000
0100
0000
0000
0000
0000
0000
0001
0000
0000
0000
0000
0000
0000
1000
0000
0000
0000
0001
0000
0000
0000
1000
0000
0000
0000
0001
0000
0000
0000
1000
0000
0000
0000
,
0001
0000
0010
0100
0000
1000
0000
0001
0000
0000
0000
0000
1000
0000
0000
0000
,
0010
0000
0100
0001
0000
1000
0000
0100
0000
0000
0000
0000
0010
0000
0000
0000
,
0000
0001
1000
0001
1000
0001
1000
0000
0000
0100
0000
0000
,
0010
0000
0000
0000
0000
0000
0001
0000
0000
0100
0000
0000
0000
0000
0000
0010
0000
0000
0000
0000
0000
1000
0000
0000
0000
0000
0000
0000
0001
0000
0000
0000
1000
0000
0000
0000
0001
0000
0000
0000
1000
0000
0000
0000
0001
0000
0000
0000
,
1000
0000
0100
0010
0000
0001
0000
1000
0000
0000
0000
0000
0001
0000
0000
0000
,
1000
0000
1000
0001
0000
0000
0001
0000
0001
1000
0000
0000
0000
0000
0000
0000
,
0001
0000
0000
0000
0000
0000
1000
0000
0000
0000
0000
0000
0010
0000
0000
1000
0000
0000
0001
0000
1000
0000
0001
0000
,
1000
0000
0000
0100
0010
0100
0010
0000
0000
0001
0000
0000
,
1000
0001
1000
0001
0000
0000
0100
0010
0100
0010
0000
0000
,
1000
1100
0001
0101
,
0000
1000
0100
0010
0100
1000
0001
0000
1000
0000
0001
0000
,
1000
0010
1000
0010
0100
0000
0001
0010
0001
0010
0100
0000
,
1000
0001
1000
0001
1000
0000
0010
0100
0010
0100
0010
0000
,
1001
0000
0110
0000
1001
0000
0220
0000
0000
0000
0330
0000
,
0000
1000
0001
1000
0001
1000
0001
0000
0000
0000
0000
0000
,
0000
0000
0010
0000
0000
0100
0000
0000
1000
0000
0001
1000
0000
0000
0000
0000
,
0000
0001
1000
0001
1000
0001
1000
0000
0000
0000
0000
0000
,
0010
0000
0000
0000
0000
0000
0100
0000
0000
0001
0000
0000
0000
0000
0000
1000
0000
0000
0000
0000
0000
0100
0000
0000
0000
0000
0000
0000
0010
0000
0000
0000
0001
0000
0000
0000
0010
0000
0000
0000
0001
0000
0000
0000
1000
0000
0000
0000
,
0000
0001
1000
0001
1000
0001
1000
0000
0000
0000
0000
0000
,
0000
0000
0010
0000
0000
0100
0000
0000
0001
0000
1000
0001
0000
0000
0000
0000
,
2000
3200
0320
0032
,
2003
3020
0032
0023
,
2030
3002
0023
0230
,
1300
0000
1000
0001
0000
0000
0001
0000
0001
1000
0000
0000
0000
0000
0000
0000
,
0002
0203
0320
2030
,
3001
0000
0010
0100
0000
0100
0000
0100
0000
0000
1000
0000
0000
0000
0000
0000
,
1000
0000
0100
0010
0000
0010
0000
0010
0000
0001
0000
0000
0000
0000
0000
0000
,
0001
0000
0010
0100
0000
0100
0000
0100
1000
0000
0000
0000
0000
0000
0000
0000
;

//---------------dance-single - ----------------
#NOTEDATA:;
#CHARTNAME:;
#STEPSTYPE:dance-single;
#DESCRIPTION:;
#CHARTSTYLE:;
#DIFFICULTY:Hard;
#METER:6;
#RADARVALUES:0.340370,0.389357,0.065576,0.185798,0.169404,218.000000,212.000000,6.000000,17.000000,0.000000,0.000000,0.000000,0.000000,0.000000,0.340370,0.389357,0.065576,0.185798,0.169404,218.000000,212.000000,6.000000,17.000000,0.000000,0.000000,0.000000,0.000000,0.000000;
#CREDIT:;
#NOTES:
0000
0000
0000
0000
,
0000
0000
0000
0000
,
1000
0000
0100
0010
0001
0000
0000
0000
,
0100
0000
0010
0000
1000
0000
0001
0010
,
0100
1000
0010
0001
,
0010
1000
0100
0010
,
0001
0000
0100
0010
1000
0000
0000
0000
,
0100
0000
0010
0000
0001
0000
1000
0010
,
0100
0001
0010
1000
,
0010
0001
0100
0010
,
1000
1001
0001
1001
,
1000
0000
0000
0001
0000
0000
1000
0000
0000
0000
0000
0000
0000
0000
0000
0000
,
0001
0000
0010
0000
0100
0000
1000
0001
,
1000
0000
0000
0001
0000
0000
0000
0000
0000
0000
1000
0000
0100
0000
0010
0000
,
0001
1001
1000
1001
,
0001
0000
0000
1000
0000
0000
0002
0000
0000
0000
0000
0000
0103
0000
0000
0000
,
0010
0000
0000
0000
0000
1000
0100
0010
,
0001
0000
1000
0001
0000
1000
0000
0001
1000
0000
0000
0000
0000
0000
0000
0000
,
0001
0000
0010
0100
1000
0000
0000
0000
,
0010
0000
0100
0000
0001
0000
1000
0100
,
0010
0001
0100
1000
,
0100
0001
0010
0100
,
1000
0000
0010
0100
0001
0000
0000
0000
,
0010
0000
0100
0000
1000
0000
0001
0100
,
0010
1000
0100
0010
,
0001
0000
1000
0001
0000
0000
1000
0000
0001
1000
0000
0000
0000
0000
0000
0000
,
0001
0000
0010
0000
0100
0000
1000
0010
,
0100
0000
0010
1000
0001
0000
0000
0000
,
0010
0000
0100
0000
1000
0010
1000
0001
,
1000
1100
0001
0101
,
1000
0000
0000
0100
0000
0000
0010
0000
0000
0100
0000
0000
1000
0000
0000
0000
0001
0000
0000
0000
1000
0000
0000
0000
,
0001
0010
0100
0000
0100
0010
0001
0000
,
1000
0010
0100
0000
0100
0010
1000
0000
,
0001
0000
1000
0000
0001
0000
1000
0000
0000
0000
0000
0000
,
0001
0000
1000
0001
1000
0000
0000
0000
,
0000
0000
0010
0000
0000
0010
0000
0000
0010
0000
1000
0001
0000
0000
0000
0000
,
1000
0000
0001
1000
0001
0000
0000
0000
,
1000
0000
0000
0010
0000
0100
0000
0010
0000
0000
1000
0000
0001
0000
0000
0000
,
1000
0000
0001
1000
0001
0000
0000
0000
,
0000
0000
0010
0000
0000
0010
0000
0000
0010
0000
0001
1000
0000
0000
0000
0000
,
0002
0023
0230
2300
,
3020
0230
0302
2003
,
3200
0320
0032
2003
,
3001
0000
1000
0001
0000
0000
1000
0000
0001
1000
0000
0000
0000
0000
0000
0000
,
0002
0203
0320
2030
,
3001
0000
0000
1000
0000
0001
0000
1000
0000
0000
0001
0000
0000
0000
0000
0000
,
1000
0000
0000
0001
0000
1000
0000
0001
0000
1000
0000
0000
0000
0000
0000
0000
,
0001
0000
0000
1000
0000
0001
0000
1000
0001
0000
0000
0000
0000
0000
0000
0000
;

//---------------dance-single - ----------------
#NOTEDATA:;
#CHARTNAME:;
#STEPSTYPE:dance-single;
#DESCRIPTION:;
#CHARTSTYLE:;
#DIFFICULTY:Medium;
#METER:3;
#RADARVALUES:0.243568,0.311486,0.163940,0.109293,0.000000,156.000000,141.000000,15.000000,10.000000,0.000000,0.000000,0.000000,0.000000,0.000000,0.243568,0.311486,0.163940,0.109293,0.000000,156.000000,141.000000,15.000000,10.000000,0.000000,0.000000,0.000000,0.000000,0.000000;
#CREDIT:;
#NOTES:
0000
0000
0000
0000
,
0000
0000
0000
0000
,
1000
0100
0010
0000
,
0001
1000
0001
0010
,
0100
0000
1000
0001
,
1000
0000
0001
0000
,
1000
0100
0010
0000
,
0001
1000
0001
0010
,
0100
0000
1000
0001
,
1000
0000
0001
0000
,
1001
1001
0110
0110
,
1000
0001
1000
0000
,
0001
0010
0100
1000
,
0001
0000
0000
1000
,
1001
1001
0110
0110
,
0001
1000
0001
0000
,
1000
0000
0000
0001
,
1000
0000
0001
1000
0001
0000
0000
0000
,
1000
0100
0010
0000
,
0001
1000
0001
0010
,
0100
0000
1000
0001
,
1000
0000
0001
0000
,
1000
0100
0010
0000
,
0001
1000
0001
0010
,
0100
0000
1000
0001
,
1001
0000
0000
0110
0000
0000
0000
0000
,
2000
0000
3000
0001
,
1000
0100
0020
0000
,
0031
0100
0010
1000
,
0001
0001
1000
1000
,
0100
0010
0001
0001
,
0100
0100
0010
0010
,
1000
1000
0001
0001
,
2000
0000
3002
0000
,
1003
0100
0000
0100
,
0000
0100
0000
0100
,
1000
0001
1000
0000
,
0001
0010
0100
1000
,
0001
1000
0001
0000
,
0100
0010
1000
0001
,
1000
0100
0010
0001
,
1000
0010
0100
0001
,
0010
0100
1000
0001
,
1001
0000
0000
0110
0000
0000
0000
0000
,
1000
0100
0010
0001
,
2002
0000
0000
0000
0000
3003
0000
0000
,
0220
0000
0000
0000
0000
0000
0000
0000
0000
0330
0000
0000
0000
0000
0000
0000
,
2002
0000
3003
0000
;

//---------------dance-single - ----------------
#NOTEDATA:;
#CHARTNAME:;
#STEPSTYPE:dance-single;
#DESCRIPTION:;
#CHARTSTYLE:;
#DIFFICULTY:Easy;
#METER:1;
#RADARVALUES:0.117100,0.155743,0.000000,0.032788,0.000000,75.000000,75.000000,0.000000,3.000000,0.000000,0.000000,0.000000,0.000000,0.000000,0.117100,0.155743,0.000000,0.032788,0.000000,75.000000,75.000000,0.000000,3.000000,0.000000,0.000000,0.000000,0.000000,0.000000;
#CREDIT:;
#NOTES:
0000
0000
0000
0000
,
0000
0000
0000
0000
,
1000
0000
0001
0000
,
1000
0000
1000
0000
,
0001
0000
1000
0000
,
1000
0000
0001
0000
,
0001
0000
1000
0000
,
0001
0000
0001
0000
,
1000
0000
0001
0000
,
0001
0000
1000
0000
,
1000
0000
0001
0000
,
1000
0000
0000
0000
,
0010
0000
0100
0000
,
0010
0000
0000
0000
,
1000
0000
0001
0000
,
1000
0000
0000
0000
,
0001
0000
0000
0000
,
1000
0001
1000
0000
,
0001
0000
1000
0000
,
0001
0000
0001
0000
,
1000
0000
0001
0000
,
0001
0000
1000
0000
,
1000
0000
0001
0000
,
1000
0000
1000
0000
,
0001
0000
1000
0000
,
0001
0000
0000
1000
0000
0000
0000
0000
,
0001
0000
0000
0000
,
0100
0000
0000
0000
,
0010
0000
0000
0000
,
1000
0000
0000
0000
,
0001
0000
0000
0000
,
0010
0000
0000
0000
,
0100
0000
0000
0000
,
1000
0000
0000
0000
,
0001
0000
1000
0000
,
0001
0000
0000
0000
,
0100
0000
0010
0000
,
0100
0000
0000
0000
,
0001
0000
1000
0000
,
0001
0000
0000
0000
,
1000
0000
0100
0000
,
0010
0000
0001
0000
,
1000
0000
0001
0000
,
1000
0000
0000
0001
0000
0000
0000
0000
,
1000
0000
0001
0000
,
2000
0000
0000
0000
0000
3000
0000
0000
,
0002
0000
0000
0000
0000
0000
0000
0000
0000
0003
0000
0000
0000
0000
0000
0000
,
2000
0000
3000
0000
;

//---------------dance-single - ----------------
#NOTEDATA:;
#CHARTNAME:;
#STEPSTYPE:dance-single;
#DESCRIPTION:;
#CHARTSTYLE:;
#DIFFICULTY:Beginner;
#METER:1;
#RADARVALUES:0.117100,0.155743,0.000000,0.032788,0.000000,75.000000,75.000000,0.000000,3.000000,0.000000,0.000000,0.000000,0.000000,0.000000,0.117100,0.155743,0.000000,0.032788,0.000000,75.000000,75.000000,0.000000,3.000000,0.000000,0.000000,0.000000,0.000000,0.000000;
#CREDIT:;
#NOTES:
// measure 0
0000
0000
0000
0000
,  // measure 1
0000
0000
0000
0000
,  // measure 2
1000
0000
0001
0000
,  // measure 3
1000
0000
1000
0000
,  // measure 4
0001
0000
1000
0000
,  // measure 5
1000
0000
0001
0000
,  // measure 6
0001
0000
1000
0000
,  // measure 7
0001
0000
0001
0000
,  // measure 8
1000
0000
0001
0000
,  // measure 9
0001
0000
1000
0000
,  // measure 10
1000
0000
0001
0000
,  // measure 11
1000
0000
0000
0000
,  // measure 12
0001
0000
1000
0000
,  // measure 13
0001
0000
0000
0000
,  // measure 14
1000
0000
0001
0000
,  // measure 15
1000
0000
0000
0000
,  // measure 16
0001
0000
0000
0000
,  // measure 17
1000
0001
1000
0000
,  // measure 18
0001
0000
1000
0000
,  // measure 19
0001
0000
0001
0000
,  // measure 20
1000
0000
0001
0000
,  // measure 21
0001
0000
1000
0000
,  // measure 22
1000
0000
0001
0000
,  // measure 23
1000
0000
1000
0000
,  // measure 24
0001
0000
1000
0000
,  // measure 25
0001
0000
0000
1000
0000
0000
0000
0000
,  // measure 26
0001
0000
0000
0000
,  // measure 27
1000
0000
0000
0000
,  // measure 28
0001
0000
0000
0000
,  // measure 29
1000
0000
0000
0000
,  // measure 30
0001
0000
0000
0000
,  // measure 31
0001
0000
0000
0000
,  // measure 32
1000
0000
0000
0000
,  // measure 33
1000
0000
0000
0000
,  // measure 34
0001
0000
1000
0000
,  // measure 35
0001
0000
0000
0000
,  // measure 36
1000
0000
0001
0000
,  // measure 37
1000
0000
0000
0000
,  // measure 38
0001
0000
1000
0000
,  // measure 39
0001
0000
0000
0000
,  // measure 40
1000
0000
1000
0000
,  // measure 41
0001
0000
0001
0000
,  // measure 42
1000
0000
0001
0000
,  // measure 43
1000
0000
0000
0001
0000
0000
0000
0000
,  // measure 44
1000
0000
0001
0000
,  // measure 45
2000
0000
0000
0000
0000
3000
0000
0000
,  // measure 46
0002
0000
0000
0000
0000
0000
0000
0000
0000
0003
0000
0000
0000
0000
0000
0000
,  // measure 47
2000
0000
3000
0000
;
