#VERSION:0.83;
#TITLE:You Are A Pirate (Jumpstyle Remix);
#SUBTITLE:;
#ARTIST:LazyPooky;
#TITLETRANSLIT:;
#SUBTITLETRANSLIT:;
#ARTISTTRANSLIT:;
#GENRE:;
#ORIGIN:;
#CREDIT:BadWolf;
#BANNER:You Are A Pirate (Jumpstyle Remix).png;
#BACKGROUND:You Are A Pirate (Jumpstyle Remix)-bg.png;
#PREVIEWVID:;
#JACKET:You Are A Pirate (Jumpstyle Remix)-jacket.png;
#CDIMAGE:;
#DISCIMAGE:;
#LYRICSPATH:;
#CDTITLE:cdtitle.png;
#MUSIC:You Are A Pirate (Jumpstyle Remix).ogg;
#OFFSET:-0.100000;
#SAMPLESTART:35.614471;
#SAMPLELENGTH:13.523987;
#SELECTABLE:YES;
#BPMS:0.000=141.970;
#STOPS:;
#DELAYS:;
#WARPS:;
#TIMESIGNATURES:0.000=4=4;
#TICKCOUNTS:0.000=4;
#COMBOS:0.000=1;
#SPEEDS:0.000=1.000=0.000=0;
#SCROLLS:0.000=1.000;
#FAKES:;
#LABELS:0.000=Song Start;
#BGCHANGES:0.000=You Are A Pirate (Jumpstyle Remix).mp4=1.000=0=0=1===CrossFade_Fastest==,
300.000=You Are A Pirate (Jumpstyle Remix)-bg.png=1.000=0=0=1===CrossFade_Fastest==,
99999=-nosongbg-=1.000=0=0=0 // don't automatically add -songbackground-
;
#KEYSOUNDS:;
#ATTACKS:
;

//---------------dance-single - ----------------
#NOTEDATA:;
#CHARTNAME:;
#STEPSTYPE:dance-single;
#DESCRIPTION:;
#CHARTSTYLE:;
#DIFFICULTY:Edit;
#METER:10;
#RADARVALUES:0.706315,0.651319,0.122457,0.007654,1.350855,646.000000,630.000000,16.000000,1.000000,0.000000,0.000000,0.000000,0.000000,0.000000,0.706315,0.651319,0.122457,0.007654,1.350855,646.000000,630.000000,16.000000,1.000000,0.000000,0.000000,0.000000,0.000000,0.000000;
#CREDIT:;
#NOTES:
0000
0000
0000
0000
,
0000
0000
0000
0000
,
0000
0000
0000
0000
,
0000
0000
0000
0000
,
0000
0000
0000
0000
0000
0000
0000
0000
0000
0001
1000
0001
,
1000
0000
1000
0100
0000
0100
0010
0001
1000
0001
0000
0001
,
0100
0010
0100
0010
1000
0010
1000
0001
1000
0001
0000
0001
,
0010
0100
0010
0100
1000
0100
0010
0001
1000
0001
0000
0000
,
0011
0000
0000
1010
0000
1000
0001
0000
0001
1000
0001
1000
,
0001
0000
0001
0010
0000
0010
0100
1000
0001
1000
0000
1000
,
0010
0100
0010
0100
0001
0100
0001
1000
0001
1000
0000
1000
,
0100
0010
0100
0010
0001
0010
0100
1000
0001
1000
0000
0000
,
1100
0000
0000
0101
0000
0001
1000
0000
1000
0001
1000
0001
,
1000
0000
0000
1100
0000
0000
0100
0010
0001
1000
0000
0001
,
1000
0010
1000
0001
0100
0001
1000
0100
0010
0001
0000
1000
,
0001
0100
0001
1000
0010
1000
0001
0010
0100
1000
0000
1000
,
0001
0000
0001
0100
0000
0100
0010
0000
0010
1000
0001
1000
,
0001
0000
0000
0011
0000
0000
0010
0100
1000
0001
0000
1000
,
0001
0100
0001
1000
0010
1000
0001
0010
0100
1000
0000
0001
,
1000
0010
1000
0001
0100
0001
1000
0100
0010
0001
0000
0001
,
1000
0000
1000
0010
0000
0010
0100
0000
0100
0001
1000
0001
,
1000
0000
0000
1001
0000
0000
0001
0010
0100
1000
0000
0001
,
1000
0010
0001
0010
1000
0100
0010
0100
1000
0001
0000
1000
,
0001
0100
1000
0100
0001
0010
0100
0010
0001
1000
0000
0001
,
1000
0000
0010
1000
0000
0100
1000
0000
0001
1000
0001
1000
,
0001
0000
0000
1001
0000
0000
1000
0100
0010
0001
0000
1000
,
0001
0100
1000
0100
0001
0010
0100
0010
0001
1000
0000
0001
,
1000
0010
0001
0010
1000
0100
0010
0100
1000
0001
0000
1000
,
0001
0000
0100
0001
0000
0010
0001
0000
1000
0001
1000
0001
,
2000
0000
0000
0000
0000
0000
3001
0000
0000
1000
0001
1000
,
0001
0000
0001
0010
0000
0010
0100
0000
0100
1000
0000
1000
,
0010
0000
0010
0100
0000
0100
0001
0000
0001
1000
0000
1000
,
0100
0000
0100
0010
0000
0010
0001
0000
0001
0100
0000
0100
,
0001
1000
0001
1000
0000
1000
0100
0000
0100
0001
0000
0001
,
0100
0000
0100
1000
0000
1000
0010
0000
0010
0100
0000
0100
,
0001
1000
0001
1000
0000
1000
0100
0000
0100
0010
0000
0010
,
0001
0000
0001
0100
0000
0100
1000
0000
1000
0100
0000
0100
,
0001
1000
0001
1000
0000
1000
0001
0000
0001
0010
0100
0010
,
0100
0000
0100
1000
0000
1000
0010
0000
0010
0100
0000
0100
,
0001
0010
0001
0010
0000
0010
0100
0000
0100
1000
0000
1000
,
0001
0000
0001
1000
0000
1000
0010
0000
0010
1000
0000
1000
,
0100
0010
0100
0010
0000
0010
0001
0000
0001
1000
0000
1000
,
0010
0000
0010
0100
0000
0100
1000
0000
1000
0100
0000
0100
,
0001
1000
0001
1000
0000
1000
0100
0000
0100
0010
0000
0010
,
0001
0000
0001
0100
0000
0100
0010
0000
0010
0001
0000
0001
,
0010
1000
0010
1000
0000
1000
0100
0000
0100
0010
0001
0010
,
0001
0000
1000
0001
0000
0100
0001
0000
0010
0001
0000
0001
,
1000
0000
0001
1000
0000
0010
1000
0000
0100
1000
0001
1000
,
0001
0000
0100
0001
0000
0010
0001
0000
1000
0001
0000
0000
,
1000
0000
0000
0100
0000
0010
0001
0000
1000
0001
1000
0001
,
1000
0000
1000
0100
0000
0100
0010
0001
1000
0001
0000
0001
,
0100
0010
0100
0010
1000
0010
1000
0001
1000
0001
0000
0001
,
0010
0100
0010
0100
1000
0100
0010
0001
1000
0001
0000
0000
,
0011
0000
0000
1010
0000
1000
0001
0000
0001
1000
0000
0000
,
0001
0000
0001
0010
0000
0010
0100
1000
0001
1000
0000
1000
,
0010
0100
0010
0100
0001
0100
0001
1000
0001
1000
0000
1000
,
0100
0010
0100
0010
0001
0010
0100
1000
0001
1000
0000
0000
,
1100
0000
0000
0101
0000
0001
1000
0000
1000
0001
1000
0001
,
1000
0000
0000
1100
0000
0000
0100
0010
0001
1000
0000
0001
,
1000
0010
1000
0001
0100
0001
1000
0100
0010
0001
0000
1000
,
0001
0100
0001
1000
0010
1000
0001
0010
0100
1000
0000
1000
,
0001
0000
0001
0100
0000
0100
0010
0000
0010
1000
0000
0000
,
0001
0000
0000
0011
0000
0000
0010
0100
1000
0001
0000
1000
,
0001
0100
0001
1000
0010
1000
0001
0010
0100
1000
0000
0001
,
1000
0010
1000
0001
0100
0001
1000
0100
0010
0001
0000
0001
,
1000
0000
1000
0010
0000
0010
0100
0000
0100
0001
1000
0001
,
1000
0000
0000
1001
0000
0000
0001
0010
0100
1000
0000
0001
,
1000
0010
0001
0010
1000
0100
0010
0100
1000
0001
0000
1000
,
0001
0100
1000
0100
0001
0010
0100
0010
0001
1000
0000
0001
,
1000
0000
0010
1000
0000
0100
1000
0000
0001
1000
0001
1000
,
0001
0000
0000
1001
0000
0000
1000
0100
0010
0001
0000
1000
,
0001
0100
1000
0100
0001
0010
0100
0010
0001
1000
0000
0001
,
1000
0010
0001
0010
1000
0100
0010
0100
1000
0001
0000
1000
,
0001
0000
0100
0001
0000
0010
0001
0000
1000
0001
1000
0001
,
1000
0000
0000
0000
;

//---------------dance-single - ----------------
#NOTEDATA:;
#CHARTNAME:;
#STEPSTYPE:dance-single;
#DESCRIPTION:;
#CHARTSTYLE:;
#DIFFICULTY:Challenge;
#METER:9;
#RADARVALUES:0.560897,0.509728,0.198993,0.045921,0.815105,513.000000,487.000000,26.000000,6.000000,0.000000,0.000000,0.000000,0.000000,0.000000,0.560897,0.509728,0.198993,0.045921,0.815105,513.000000,487.000000,26.000000,6.000000,0.000000,0.000000,0.000000,0.000000,0.000000;
#CREDIT:;
#NOTES:
0000
0000
0000
0000
,
0000
0000
0000
0000
,
0000
0000
0000
0000
,
0000
0000
0000
0000
,
0000
0000
0000
0000
,
1001
0000
0000
1001
0000
0000
1000
0001
1000
0001
0000
0000
,
1000
0000
1000
0100
0000
0100
0010
0000
0010
0001
0000
0000
,
0100
0000
0100
0010
0000
0010
1000
0000
1000
0001
0000
0000
,
1000
0000
0100
1000
0000
0010
1000
0000
0001
1000
0000
0000
,
1001
0000
0000
1001
0000
0000
0001
1000
0001
1000
0000
0000
,
0001
0000
0001
0010
0000
0010
0100
0000
0100
1000
0000
0000
,
0010
0000
0010
0100
0000
0100
0001
0000
0001
1000
0000
0000
,
0001
0000
0010
0001
0000
0100
0001
0000
1000
0001
0000
0000
,
1100
0000
0000
1100
0000
0000
0100
0010
0100
0010
0000
0000
,
0001
0000
0001
0100
0000
0100
0010
0000
0010
1000
0000
1000
,
0100
0000
0100
0010
0000
0010
0001
1000
0001
1000
0000
1000
,
0001
0000
0100
0001
0000
1000
0001
0000
0010
0001
0000
0000
,
0101
0000
0000
0101
0000
0000
0100
0010
0100
0010
0000
0000
,
1000
0000
1000
0100
0000
0100
0010
0000
0010
0001
0000
0001
,
0100
0000
0100
0010
0000
0010
1000
0001
1000
0001
0000
0001
,
1000
0000
0100
1000
0000
0001
1000
0000
0010
1000
0000
0000
,
1001
0000
0000
0110
0000
0000
0001
0010
0100
1000
0000
1000
,
0010
0000
0010
0100
0000
0100
0001
0000
0001
1000
0000
1000
,
0100
0000
0100
0010
0000
0010
0001
1000
0001
1000
0000
0000
,
0001
0000
0100
0001
0000
1000
0001
0000
0010
0001
0000
0000
,
1001
0000
0000
0110
0000
0000
1000
0100
0010
0001
0000
0001
,
0100
0000
0100
0010
0000
0010
1000
0000
1000
0001
0000
0001
,
0010
0000
0010
0100
0000
0100
1000
0001
1000
0001
0000
0000
,
1000
0000
0010
1000
0000
0001
1000
0000
0100
1000
0000
0000
,
2002
0000
0000
3003
,
0001
0000
0001
0100
0000
0100
0010
0000
0010
1000
0000
0000
,
0001
0000
0010
0001
0000
0100
0001
0000
1000
0001
0000
0000
,
1000
0000
1000
0100
0000
0100
0010
0000
0010
0001
0000
0000
,
1000
0000
0010
1000
0000
0100
1000
0000
0001
1000
0000
0000
,
0001
0000
0010
0100
0000
0010
0001
0000
0010
0100
0000
0000
,
1000
0000
0100
0010
0000
0100
1000
0000
0100
0010
0000
0000
,
0001
0000
0001
0100
0000
0100
0010
0000
0010
1000
0000
0000
,
0001
0000
0001
0010
0000
0010
0100
0000
0100
1000
0000
0000
,
0001
0000
0001
0100
0000
0100
0010
0000
0010
1000
0000
1000
,
0100
0000
0100
0010
0000
0010
0001
0000
0010
0001
0000
0001
,
1000
0000
1000
0010
0000
0010
0100
0000
0100
0001
0000
0001
,
0010
0000
0010
0100
0000
0100
1000
0000
0100
1000
0000
1000
,
0001
0000
0001
1000
0000
1000
0010
0000
0010
0100
0000
0100
,
0001
0000
0001
1000
0000
1000
0001
0000
1000
0001
0000
0001
,
1000
0000
1000
0001
0000
0001
0010
0000
0010
0100
0000
0100
,
1000
0000
1000
0001
0000
0001
1000
0000
0001
1000
0001
1000
,
0002
0010
0100
1003
,
2000
0100
0010
3001
,
0002
0100
0010
1003
,
2000
0010
0100
3001
,
1001
0000
0000
1001
0000
0000
1000
0001
1000
0001
0000
0000
,
1000
0000
1000
0100
0000
0100
0010
0000
0010
0001
0000
0000
,
0100
0000
0100
0010
0000
0010
1000
0000
1000
0001
0000
0000
,
1000
0000
0100
1000
0000
0010
1000
0000
0001
1000
0000
0000
,
1001
0000
0000
1001
0000
0000
0001
1000
0001
1000
0000
0000
,
0001
0000
0001
0010
0000
0010
0100
0000
0100
1000
0000
0000
,
0010
0000
0010
0100
0000
0100
0001
0000
0001
1000
0000
0000
,
0001
0000
0010
0001
0000
0100
0001
0000
1000
0001
0000
0000
,
1100
0000
0000
1100
0000
0000
0100
0010
0100
0010
0000
0000
,
0001
0000
0001
0100
0000
0100
0010
0000
0010
1000
0000
1000
,
0100
0000
0100
0010
0000
0010
0001
1000
0001
1000
0000
1000
,
0001
0000
0100
0001
0000
1000
0001
0000
0010
0001
0000
0000
,
0101
0000
0000
0101
0000
0000
0100
0010
0100
0010
0000
0000
,
1000
0000
1000
0100
0000
0100
0010
0000
0010
0001
0000
0001
,
0100
0000
0100
0010
0000
0010
1000
0001
1000
0001
0000
0001
,
1000
0000
0100
1000
0000
0001
1000
0000
0010
1000
0000
0000
,
1001
0000
0000
0110
0000
0000
0001
0010
0100
1000
0000
1000
,
0010
0000
0010
0100
0000
0100
0001
0000
0001
1000
0000
1000
,
0100
0000
0100
0010
0000
0010
0001
1000
0001
1000
0000
0000
,
0001
0000
0100
0001
0000
1000
0001
0000
0010
0001
0000
0000
,
1001
0000
0000
0110
0000
0000
1000
0100
0010
0001
0000
0001
,
0100
0000
0100
0010
0000
0010
1000
0000
1000
0001
0000
0001
,
0010
0000
0010
0100
0000
0100
1000
0001
1000
0001
0000
0000
,
1000
0000
0010
1000
0000
0001
1000
0000
0100
1000
0000
0000
,
1001
0000
0000
0000
;

//---------------dance-single - ----------------
#NOTEDATA:;
#CHARTNAME:;
#STEPSTYPE:dance-single;
#DESCRIPTION:;
#CHARTSTYLE:;
#DIFFICULTY:Hard;
#METER:7;
#RADARVALUES:0.413293,0.453091,0.474521,0.045921,0.206646,378.000000,316.000000,62.000000,6.000000,0.000000,0.000000,0.000000,0.000000,0.000000,0.413293,0.453091,0.474521,0.045921,0.206646,378.000000,316.000000,62.000000,6.000000,0.000000,0.000000,0.000000,0.000000,0.000000;
#CREDIT:;
#NOTES:
0000
0000
0000
0000
,
0000
0000
0000
0000
,
0000
0000
0000
0000
,
0000
0000
0000
0000
,
0000
0000
0000
0000
,
1000
0000
0000
1000
0000
0000
0001
0000
0001
1000
0000
0000
,
1001
0110
1001
0110
,
1000
0000
0001
1000
0000
0000
0010
0000
0100
0010
0000
0000
,
1000
0000
0000
0100
0000
0000
0010
0000
0000
0001
0000
1000
,
0001
0000
0000
0001
0000
0000
1000
0000
1000
0001
0000
0000
,
1001
0110
1001
0110
,
0001
0000
1000
0001
0000
0000
0100
0000
0010
0100
0000
0000
,
0001
0000
0000
0010
0000
0000
0100
0000
0000
1000
0000
0001
,
1000
0000
0000
1001
0000
0000
0001
0000
1000
0001
0000
0000
,
1000
0000
1000
0100
0000
0000
0010
0000
0010
0001
0000
0000
,
0100
0010
1000
0001
,
1001
0110
1001
1000
,
0001
0000
0000
1001
0000
0000
1000
0000
0001
1000
0000
0000
,
0001
0000
0001
0010
0000
0000
0100
0000
0100
1000
0000
0000
,
0010
0100
0001
1000
,
1001
0000
0000
0110
0000
0000
1001
0000
0000
0001
0000
1000
,
0001
0000
0000
0101
0000
0000
0100
0010
0100
0010
0000
0000
,
1000
0000
0001
1000
0000
0000
0100
0000
0010
0100
0000
0000
,
1000
0000
1000
0010
0000
0000
0100
0000
0100
0001
0000
0000
,
0011
1010
1001
0001
,
1000
0000
0000
1100
0000
0000
0100
0010
0100
0010
0000
0000
,
0001
0000
1000
0001
0000
0000
0100
0000
0010
0100
0000
0000
,
0001
0000
0001
0010
0000
0000
0100
0000
0100
1000
0000
0000
,
1010
0011
1001
1000
,
2002
0000
0000
3003
,
0001
0001
0100
0100
,
0010
0010
1000
1000
,
0100
0100
0010
0010
,
0001
0001
1000
1000
,
0010
0010
0100
0100
,
0001
0001
1000
1000
,
0001
0001
0010
0010
,
0100
0100
1000
1000
,
0001
0101
0100
0010
,
1000
1100
0100
0010
,
0001
0001
1000
1000
,
1001
0110
1001
0110
,
0001
0011
0010
0100
,
1000
1010
0010
0100
,
0001
0001
1000
1000
,
1001
0110
1001
0110
,
2000
0000
0000
0000
,
3200
0000
0000
0000
,
0320
0000
0000
0000
,
0032
0000
0000
0000
,
1003
0000
0000
1000
0000
0000
0001
0000
0001
1000
0000
0000
,
1001
0110
1001
0110
,
1000
0000
0001
1000
0000
0000
0010
0000
0100
0010
0000
0000
,
1000
0000
0000
0100
0000
0000
0010
0000
0000
0001
0000
1000
,
0001
0000
0000
0001
0000
0000
1000
0000
1000
0001
0000
0000
,
1001
0110
1001
0110
,
0001
0000
1000
0001
0000
0000
0100
0000
0010
0100
0000
0000
,
0001
0000
0000
0010
0000
0000
0100
0000
0000
1000
0000
0001
,
1000
0000
0000
1001
0000
0000
0001
0000
1000
0001
0000
0000
,
1000
0000
1000
0100
0000
0000
0010
0000
0010
0001
0000
0000
,
0100
0010
1000
0001
,
1001
0110
1001
1000
,
0001
0000
0000
1001
0000
0000
1000
0000
0001
1000
0000
0000
,
0001
0000
0001
0010
0000
0000
0100
0000
0100
1000
0000
0000
,
0010
0100
0001
1000
,
1001
0000
0000
0110
0000
0000
1001
0000
0000
0001
0000
1000
,
0001
0000
0000
0101
0000
0000
0100
0010
0100
0010
0000
0000
,
1000
0000
0001
1000
0000
0000
0100
0000
0010
0100
0000
0000
,
1000
0000
1000
0010
0000
0000
0100
0000
0100
0001
0000
0000
,
0011
1010
1001
0001
,
1000
0000
0000
1100
0000
0000
0100
0010
0100
0010
0000
0000
,
0001
0000
1000
0001
0000
0000
0100
0000
0010
0100
0000
0000
,
0001
0000
0001
0010
0000
0000
0100
0000
0100
1000
0000
0000
,
1010
0011
1001
1000
,
1001
0000
0000
0000
;

//---------------dance-single - ----------------
#NOTEDATA:;
#CHARTNAME:;
#STEPSTYPE:dance-single;
#DESCRIPTION:;
#CHARTSTYLE:;
#DIFFICULTY:Medium;
#METER:4;
#RADARVALUES:0.338944,0.396455,0.413293,0.045921,0.000000,310.000000,256.000000,54.000000,6.000000,0.000000,0.000000,0.000000,0.000000,0.000000,0.338944,0.396455,0.413293,0.045921,0.000000,310.000000,256.000000,54.000000,6.000000,0.000000,0.000000,0.000000,0.000000,0.000000;
#CREDIT:;
#NOTES:
0000
0000
0000
0000
,
0000
0000
0000
0000
,
0000
0000
0000
0000
,
0000
0000
0000
0000
,
0000
0000
0000
0000
,
1000
1000
0100
0010
,
0001
0001
0100
0010
,
1000
0001
1001
1001
,
1000
0100
0010
0001
,
1000
1000
0010
0100
,
0001
0001
0010
0100
,
1000
0001
1001
1001
,
1000
0010
0100
0001
,
1001
1001
1000
0100
,
0010
0100
1000
0001
,
0100
0010
0100
0001
,
0011
1100
0011
0000
,
1001
1001
0001
0100
,
0010
0100
0001
1000
,
0100
0010
0100
1000
,
1010
0101
1010
0000
,
1001
1001
0001
1000
,
0100
0010
0001
0100
,
0010
1000
0001
1000
,
1001
0110
1001
1000
,
1001
1001
0001
1000
,
0010
0100
0001
0010
,
0100
1000
0001
1000
,
1001
0110
1001
0000
,
2002
0000
0000
3003
,
1000
0100
0010
0100
,
1000
0100
0010
0100
,
1000
0001
0100
0001
,
1000
0001
0100
0001
,
1000
0010
0100
0010
,
1000
0010
0100
0010
,
1000
0001
0010
0001
,
1000
0001
0010
0001
,
1000
1001
0001
0010
,
0100
1000
0010
0100
,
0001
1001
1000
0100
,
0010
0001
0100
0010
,
1000
1001
0001
0010
,
0100
1000
0010
0100
,
0001
1001
1000
0100
,
0010
0001
0100
0010
,
2000
0000
0000
0000
,
3200
0000
0000
0000
,
0320
0000
0000
0000
,
0032
0000
0000
0000
,
1003
1000
0100
0010
,
0001
0001
0100
0010
,
1000
0001
1001
1001
,
1000
0100
0010
0001
,
1000
1000
0010
0100
,
0001
0001
0010
0100
,
1000
0001
1001
1001
,
1000
0010
0100
0001
,
1001
1001
1000
0100
,
0010
0100
1000
0001
,
0100
0010
0100
0001
,
0011
1100
0011
0000
,
1001
1001
0001
0100
,
0010
0100
0001
1000
,
0100
0010
0100
1000
,
1010
0101
1010
0000
,
1001
1001
0001
1000
,
0100
0010
0001
0100
,
0010
1000
0001
1000
,
1001
0110
1001
1000
,
1001
1001
0001
1000
,
0010
0100
0001
0010
,
0100
1000
0001
1000
,
1001
0110
1001
0000
,
1001
0000
0000
0000
;

//---------------dance-single - ----------------
#NOTEDATA:;
#CHARTNAME:;
#STEPSTYPE:dance-single;
#DESCRIPTION:;
#CHARTSTYLE:;
#DIFFICULTY:Easy;
#METER:2;
#RADARVALUES:0.129017,0.169909,0.137764,0.015307,0.000000,118.000000,100.000000,18.000000,2.000000,0.000000,0.000000,0.000000,0.000000,0.000000,0.129017,0.169909,0.137764,0.015307,0.000000,118.000000,100.000000,18.000000,2.000000,0.000000,0.000000,0.000000,0.000000,0.000000;
#CREDIT:;
#NOTES:
0000
0000
0000
0000
,
0000
0000
0000
0000
,
0000
0000
0000
0000
,
0000
0000
0000
0000
,
0000
0000
0000
0000
,
1000
0000
1000
0000
,
1000
0000
1000
0000
,
0001
0000
0001
0000
,
0001
0000
0001
0000
,
0100
0000
0100
0000
,
0100
0000
0100
0000
,
0010
0000
0010
0000
,
0010
0000
0010
0000
,
1000
0000
1000
0000
,
0001
0000
0001
0000
,
0010
0000
0010
0000
,
0100
0000
0100
0000
,
1000
0000
1000
0000
,
0001
0000
0001
0000
,
0100
0000
0100
0000
,
0010
0000
0010
0000
,
1001
0000
0000
0000
,
0110
0000
0000
0000
,
1001
0000
0000
0000
,
0110
0000
0000
0000
,
1001
0000
0000
0000
,
0110
0000
0000
0000
,
1001
0000
0000
0000
,
0110
0000
0000
0000
,
1001
0000
0000
0000
,
1000
0000
0000
0000
,
0100
0000
0000
0000
,
0010
0000
0000
0000
,
0001
0000
0000
0000
,
0100
0000
0000
0000
,
0010
0000
0000
0000
,
1000
0000
0000
0000
,
0001
0000
0000
0000
,
0010
0000
0000
0000
,
0100
0000
0000
0000
,
1000
0000
0000
0000
,
0010
0000
0000
0000
,
0100
0000
0000
0000
,
0001
0000
0000
0000
,
1000
0000
0000
0000
,
0001
0000
0000
0000
,
2000
0000
0000
0000
,
0000
0000
3000
0000
,
0002
0000
0000
0000
,
0000
0000
0003
0000
,
1000
0000
1000
0000
,
1000
0000
1000
0000
,
0001
0000
0001
0000
,
0001
0000
0001
0000
,
0100
0000
0100
0000
,
0100
0000
0100
0000
,
0010
0000
0010
0000
,
0010
0000
0010
0000
,
1000
0000
1000
0000
,
0001
0000
0001
0000
,
0010
0000
0010
0000
,
0100
0000
0100
0000
,
1000
0000
1000
0000
,
0001
0000
0001
0000
,
0100
0000
0100
0000
,
0010
0000
0010
0000
,
1001
0000
0000
0000
,
0110
0000
0000
0000
,
1001
0000
0000
0000
,
0110
0000
0000
0000
,
1001
0000
0000
0000
,
0110
0000
0000
0000
,
1001
0000
0000
0000
,
0110
0000
0000
0000
,
1001
0000
0000
0000
;

//---------------dance-single - ----------------
#NOTEDATA:;
#CHARTNAME:;
#STEPSTYPE:dance-single;
#DESCRIPTION:;
#CHARTSTYLE:;
#DIFFICULTY:Beginner;
#METER:1;
#RADARVALUES:0.129017,0.169909,0.137764,0.015307,0.000000,118.000000,100.000000,18.000000,2.000000,0.000000,0.000000,0.000000,0.000000,0.000000,0.129017,0.169909,0.137764,0.015307,0.000000,118.000000,100.000000,18.000000,2.000000,0.000000,0.000000,0.000000,0.000000,0.000000;
#CREDIT:;
#NOTES:
// measure 0
0000
0000
0000
0000
,  // measure 1
0000
0000
0000
0000
,  // measure 2
0000
0000
0000
0000
,  // measure 3
0000
0000
0000
0000
,  // measure 4
0000
0000
0000
0000
,  // measure 5
1000
0000
1000
0000
,  // measure 6
1000
0000
1000
0000
,  // measure 7
0001
0000
0001
0000
,  // measure 8
0001
0000
0001
0000
,  // measure 9
1000
0000
1000
0000
,  // measure 10
1000
0000
1000
0000
,  // measure 11
0001
0000
0001
0000
,  // measure 12
0001
0000
0001
0000
,  // measure 13
1000
0000
1000
0000
,  // measure 14
0001
0000
0001
0000
,  // measure 15
0001
0000
0001
0000
,  // measure 16
1000
0000
1000
0000
,  // measure 17
1000
0000
1000
0000
,  // measure 18
0001
0000
0001
0000
,  // measure 19
1000
0000
1000
0000
,  // measure 20
0001
0000
0001
0000
,  // measure 21
1001
0000
0000
0000
,  // measure 22
1001
0000
0000
0000
,  // measure 23
1001
0000
0000
0000
,  // measure 24
1001
0000
0000
0000
,  // measure 25
1001
0000
0000
0000
,  // measure 26
1001
0000
0000
0000
,  // measure 27
1001
0000
0000
0000
,  // measure 28
1001
0000
0000
0000
,  // measure 29
1001
0000
0000
0000
,  // measure 30
1000
0000
0000
0000
,  // measure 31
1000
0000
0000
0000
,  // measure 32
0001
0000
0000
0000
,  // measure 33
0001
0000
0000
0000
,  // measure 34
1000
0000
0000
0000
,  // measure 35
0001
0000
0000
0000
,  // measure 36
1000
0000
0000
0000
,  // measure 37
0001
0000
0000
0000
,  // measure 38
0001
0000
0000
0000
,  // measure 39
1000
0000
0000
0000
,  // measure 40
1000
0000
0000
0000
,  // measure 41
0001
0000
0000
0000
,  // measure 42
1000
0000
0000
0000
,  // measure 43
0001
0000
0000
0000
,  // measure 44
1000
0000
0000
0000
,  // measure 45
0001
0000
0000
0000
,  // measure 46
2000
0000
0000
0000
,  // measure 47
0000
0000
3000
0000
,  // measure 48
0002
0000
0000
0000
,  // measure 49
0000
0000
0003
0000
,  // measure 50
1000
0000
1000
0000
,  // measure 51
1000
0000
1000
0000
,  // measure 52
0001
0000
0001
0000
,  // measure 53
0001
0000
0001
0000
,  // measure 54
1000
0000
1000
0000
,  // measure 55
1000
0000
1000
0000
,  // measure 56
0001
0000
0001
0000
,  // measure 57
0001
0000
0001
0000
,  // measure 58
1000
0000
1000
0000
,  // measure 59
0001
0000
0001
0000
,  // measure 60
0001
0000
0001
0000
,  // measure 61
1000
0000
1000
0000
,  // measure 62
1000
0000
1000
0000
,  // measure 63
0001
0000
0001
0000
,  // measure 64
1000
0000
1000
0000
,  // measure 65
0001
0000
0001
0000
,  // measure 66
1001
0000
0000
0000
,  // measure 67
1001
0000
0000
0000
,  // measure 68
1001
0000
0000
0000
,  // measure 69
1001
0000
0000
0000
,  // measure 70
1001
0000
0000
0000
,  // measure 71
1001
0000
0000
0000
,  // measure 72
1001
0000
0000
0000
,  // measure 73
1001
0000
0000
0000
,  // measure 74
1001
0000
0000
0000
;
