#VERSION:0.83;
#TITLE:Wakanda Weh T'Challa;
#SUBTITLE:(Black Panther Theme) (Universe-21127);
#ARTIST:Stephen James Taylor;
#TITLETRANSLIT:;
#SUBTITLETRANSLIT:;
#ARTISTTRANSLIT:;
#GENRE:;
#ORIGIN:;
#CREDIT:BadWolf;
#BANNER:Wakanda Weh T'Challa (Black Panther Theme).png;
#BACKGROUND:Wakanda Weh T'Challa (Black Panther Theme)-bg.png;
#PREVIEWVID:;
#JACKET:Wakanda Weh T'Challa (Black Panther Theme)-jacket.png;
#CDIMAGE:;
#DISCIMAGE:;
#LYRICSPATH:;
#CDTITLE:cdtitle.png;
#MUSIC:Wakanda Weh T'Challa (Black Panther Theme).ogg;
#OFFSET:-0.309471;
#SAMPLESTART:4.100463;
#SAMPLELENGTH:11.511628;
#SELECTABLE:YES;
#BPMS:0.000=86.000;
#STOPS:;
#DELAYS:;
#WARPS:;
#TIMESIGNATURES:0.000=4=4;
#TICKCOUNTS:0.000=4;
#COMBOS:0.000=1;
#SPEEDS:0.000=1.000=0.000=0;
#SCROLLS:0.000=1.000;
#FAKES:;
#LABELS:0.000=Song Start;
#BGCHANGES:-0.459=BLACK_PANTHER.MPEG=1.000=0=0=1===CrossFade_Fastest==,
89.500=Wakanda Weh T'Challa (Black Panther Theme)-bg.png=1.000=0=0=1===CrossFade_Fastest==,
99999=-nosongbg-=1.000=0=0=0 // don't automatically add -songbackground-
;
#KEYSOUNDS:;
#ATTACKS:
;

//---------------dance-single - ----------------
#NOTEDATA:;
#CHARTNAME:;
#STEPSTYPE:dance-single;
#DESCRIPTION:;
#CHARTSTYLE:;
#DIFFICULTY:Challenge;
#METER:9;
#RADARVALUES:0.555812,0.628084,0.506105,0.047447,0.545644,246.000000,214.000000,32.000000,3.000000,0.000000,0.000000,0.000000,0.000000,0.000000,0.555812,0.628084,0.506105,0.047447,0.545644,246.000000,214.000000,32.000000,3.000000,0.000000,0.000000,0.000000,0.000000,0.000000;
#CREDIT:;
#NOTES:
0000
0000
0000
0000
,
1000
0000
0001
0000
1000
0000
0001
0000
1000
0000
0001
0000
1000
0000
0000
0000
0000
0000
0010
0000
0000
0100
0000
0000
0001
0000
0000
0000
0000
0000
0010
0000
0000
0100
0000
0000
0000
0000
0000
0100
0000
0000
1000
0000
0000
0000
0000
0000
,
0001
0000
1000
0000
1010
0000
0000
0000
1000
0000
0100
0000
0010
0001
0010
0000
,
0001
0000
0100
0000
1001
0000
0000
0010
0100
0000
0100
0001
0000
1000
0000
0100
,
0000
0010
0001
0000
1001
0000
0000
0000
1000
0010
1000
0010
0100
0000
0001
0000
,
0010
0100
1000
0001
0010
0100
1000
0001
1000
0000
0010
0000
0001
0000
0010
0000
,
2000
0000
0000
3001
0000
0000
0000
0000
1010
0000
0000
0000
0001
0000
0000
0000
,
0101
0000
0000
0000
1000
0000
0000
0000
0001
0000
0010
0100
1000
0000
0001
0000
,
1000
0000
0000
0000
0110
0000
0000
0000
1001
0000
1000
0010
0100
0000
0001
0000
,
1000
0000
0100
0010
0100
0000
0010
0001
1000
0000
0010
0100
0010
1000
0001
0000
,
0010
0000
0100
1000
0001
0000
0100
0000
0010
0000
1000
0000
0100
0000
0010
0100
,
0010
0100
1000
0001
0000
1000
0001
1000
0001
0000
0011
0000
1010
0000
0011
0000
,
1000
1100
0101
1100
0001
0101
1100
0101
,
1000
0000
1010
0000
0011
0000
1010
0000
1000
0100
0010
0100
1000
0000
0001
0000
,
0100
0010
0100
0000
0001
0000
1000
0100
0010
0000
0001
0000
0100
0010
0100
0010
,
1000
0001
0010
0000
0110
0000
1100
0000
1000
0010
0001
0010
1000
0000
0100
0000
,
0010
0001
1000
0000
0010
0000
0100
0001
1000
0000
0100
0000
0010
0001
0010
0001
,
0010
0100
1000
0000
1001
0000
0001
0100
0010
0000
0100
0001
1000
0100
0010
0000
,
0001
0000
0100
0000
0001
0000
0100
0000
0001
0000
0100
0000
0010
0000
1000
0000
0010
0000
1000
0000
0010
0000
1000
0000
0100
0000
0010
0000
0100
0000
0010
0000
0100
0000
0010
0000
0001
0000
0000
0000
0000
0000
1000
0000
0000
0001
0000
0000
,
1000
0010
0100
0001
0000
1000
0100
0010
0001
0000
0101
0000
1100
0000
0101
0000
,
1000
1010
0011
1010
0001
0011
1010
0011
,
1000
0100
0000
0010
0000
0001
1000
0000
2002
0000
0000
0000
0000
0000
0000
0000
,
0000
3003
0000
0000
0000
0000
0000
0000
0000
0000
0000
0000
0000
0000
0000
0000
;

//---------------dance-single - ----------------
#NOTEDATA:;
#CHARTNAME:;
#STEPSTYPE:dance-single;
#DESCRIPTION:;
#CHARTSTYLE:;
#DIFFICULTY:Hard;
#METER:3;
#RADARVALUES:0.160417,0.170020,0.031632,0.063263,0.000000,71.000000,69.000000,2.000000,4.000000,0.000000,0.000000,0.000000,0.000000,0.000000,0.160417,0.170020,0.031632,0.063263,0.000000,71.000000,69.000000,2.000000,4.000000,0.000000,0.000000,0.000000,0.000000,0.000000;
#CREDIT:;
#NOTES:
0000
0000
0000
0000
,
0000
0000
1000
0001
,
1000
0001
0100
0010
,
0100
0010
1000
0001
,
1000
0001
1000
0100
,
0010
0001
2000
0000
,
3002
0000
0203
0000
,
0320
0000
1030
0001
,
1000
1001
0001
0010
,
0100
1000
0010
0010
,
0100
0100
0001
1000
,
0100
0010
0001
0000
,
1000
0000
0001
0000
,
1000
0000
0010
0010
,
0010
0000
0100
0100
,
0100
0000
0001
0001
,
0001
0000
1000
1000
,
1000
0000
0001
0010
,
0100
1000
0100
0010
,
0001
1000
0010
0100
,
0001
1000
0100
0010
,
0001
1000
1001
0000
;

//---------------dance-single - ----------------
#NOTEDATA:;
#CHARTNAME:;
#STEPSTYPE:dance-single;
#DESCRIPTION:;
#CHARTSTYLE:;
#DIFFICULTY:Medium;
#METER:2;
#RADARVALUES:0.160417,0.170020,0.031632,0.063263,0.000000,71.000000,69.000000,2.000000,4.000000,0.000000,0.000000,0.000000,0.000000,0.000000,0.160417,0.170020,0.031632,0.063263,0.000000,71.000000,69.000000,2.000000,4.000000,0.000000,0.000000,0.000000,0.000000,0.000000;
#CREDIT:;
#NOTES:
// measure 0
0000
0000
0000
0000
,  // measure 1
0000
0000
1000
0001
,  // measure 2
1000
0001
1000
0001
,  // measure 3
1000
0001
1000
0001
,  // measure 4
1000
0001
1000
1000
,  // measure 5
0001
0001
2000
0000
,  // measure 6
3002
0000
2003
0000
,  // measure 7
3002
0000
1003
0001
,  // measure 8
1000
1001
0001
0001
,  // measure 9
1000
1000
0001
0001
,  // measure 10
1000
1000
0001
1000
,  // measure 11
1000
0001
0001
0000
,  // measure 12
1000
0000
0001
0000
,  // measure 13
1000
0000
0001
0001
,  // measure 14
0001
0000
1000
1000
,  // measure 15
1000
0000
0001
0001
,  // measure 16
0001
0000
1000
1000
,  // measure 17
1000
0000
0001
0001
,  // measure 18
1000
1000
1000
0001
,  // measure 19
0001
1000
0001
1000
,  // measure 20
0001
1000
1000
0001
,  // measure 21
0001
1000
1001
0000
;
