#TITLE:The 4th Mix Feeling;
#SUBTITLE:;
#ARTIST:Ed;
#TITLETRANSLIT:;
#SUBTITLETRANSLIT:;
#ARTISTTRANSLIT:;
#CREDIT:BadWolf;
#BANNER:The 4th Mix Feeling.png;
#BACKGROUND:The 4th Mix Feeling-bg.png;
#LYRICSPATH:;
#CDTITLE:cdtitle.png;
#MUSIC:The 4th Mix Feeling.ogg;
#OFFSET:0.000;
#SAMPLESTART:71.240;
#SAMPLELENGTH:11.636;
#SELECTABLE:YES;
#BPMS:0.000=165.000;
#STOPS:;
#BGCHANGES:;

//---------------dance-single - ----------------
#NOTES:
     dance-single:
     :
     Edit:
     11:
     0.748,0.946,0.000,0.106,0.749:
0000
0000
0000
0000
,
0000
0000
0000
0000
,
0000
0000
0000
0000
,
0000
0000
0000
0000
,
0000
0000
0000
0000
,
0000
0000
0000
0000
,
0000
0000
0000
0000
,
0000
0000
0000
0000
,
0000
0000
0000
0000
,
0001
0010
0100
0010
,
0001
0100
1000
0100
,
0001
0010
0100
1000
,
0010
0100
0001
1000
,
0100
0000
0010
0000
0001
1000
0001
0000
0100
0000
0010
0000
0100
0000
0001
0000
,
0010
0100
0010
0000
0001
1000
0001
0000
1000
0010
1000
0000
0001
0100
0001
0000
,
1000
0100
1000
0100
1000
0100
1000
0100
0010
0001
0010
0001
0010
0001
0010
0001
,
2000
0000
0100
0000
0010
0000
3001
1000
,
0001
0100
0001
0000
1000
0000
0010
0100
0010
0100
0010
1000
0001
0000
1000
0000
,
0001
0010
0001
0000
1000
0100
1000
0000
0001
0010
0100
1000
0001
0000
1000
0000
,
0010
0100
0010
0000
1000
0000
0100
0000
0010
0001
0010
0001
1000
0000
0001
0000
,
1000
0010
1000
0000
0001
0100
0001
0000
1000
0010
0100
0001
1000
0000
0001
0000
,
1000
0100
1000
0000
0001
0000
0010
0100
0010
0100
0010
0001
1000
0000
0001
0000
,
1000
0010
1000
0000
0001
0100
0001
0000
1000
0010
0100
0001
1000
0000
0001
0000
,
0010
0100
0010
0000
0001
0000
0100
0000
0010
1000
0010
1000
0001
0000
1000
0000
,
0001
0010
0001
0010
0001
0010
0001
0010
0100
1000
0100
1000
0100
1000
0100
1000
,
0001
0100
0001
0000
1000
0000
0100
0010
0001
0010
0100
0000
1000
0001
1000
0000
,
0010
0100
0010
0000
1000
0000
0100
0010
0100
0010
0001
0000
1000
0000
0001
0000
,
1000
0010
1000
0000
0001
0100
0001
0000
1000
0100
0010
0001
1000
0000
0001
0000
,
0100
0010
0100
0000
0001
0000
1000
0100
1000
0100
0010
0000
0001
1000
0001
0000
,
1000
0010
1000
0000
0001
0000
0010
0100
1000
0100
0010
0000
0001
1000
0001
0000
,
0100
0010
0100
0000
0001
0000
0010
0100
0010
0100
1000
0000
0001
0000
1000
0000
,
0001
0100
0001
0100
0001
0100
0001
0100
0010
1000
0010
1000
0010
1000
0010
1000
,
0002
0000
0000
0000
,
1003
0000
0000
0100
0010
0100
0010
0000
0001
0000
0100
0000
1000
0000
0100
0000
,
0001
0000
0000
0010
0100
0010
0100
0000
1000
0000
0010
0000
0001
0000
0010
0000
,
1000
0000
0000
0010
1000
0010
1000
0000
0100
0000
0010
0000
0001
0000
1000
0000
,
0001
0000
0000
0100
0001
0100
0001
0000
0010
0000
0100
0000
1000
0000
0001
0000
,
0100
0000
0000
0010
1000
0010
1000
0000
0001
0000
0010
0000
0100
0000
1000
0000
,
0010
0000
0000
0100
0001
0100
0001
0000
1000
0000
0100
0000
0010
0000
0001
0000
,
1000
0000
0000
0001
0100
0001
0100
0000
0010
0000
0001
0000
0010
0000
1000
0000
,
0001
0000
0000
1000
0100
1000
0100
0000
0010
0000
1000
0000
0010
0000
0001
0000
,
1000
0000
1000
0000
0100
0010
0001
1000
,
0001
0000
0001
0000
0100
0010
1000
0001
,
1000
0000
1000
0000
0010
0001
0010
1000
,
0001
0000
0001
0000
0010
1000
0010
0001
,
1000
0000
0100
0000
1000
0001
1000
0000
0010
0000
0100
0000
0010
0000
1000
0000
,
0100
0010
0100
0000
1000
0001
1000
0000
0001
0100
0001
0000
1000
0010
1000
0000
,
0001
0010
0001
0010
0001
0010
0001
0010
0100
1000
0100
1000
0100
1000
0100
1000
,
0002
0000
0010
0000
0100
0000
1003
0001
,
1000
0010
1000
0000
0001
0000
0100
0010
0100
0010
0100
0001
1000
0000
0001
0000
,
1000
0100
1000
0000
0001
0010
0001
0000
1000
0100
0010
0001
1000
0000
0001
0000
,
0100
0010
0100
0000
0001
0000
0010
0000
0100
1000
0100
1000
0001
0000
1000
0000
,
0001
0100
0001
0000
1000
0010
1000
0000
0001
0100
0010
1000
0001
0000
1000
0000
,
0001
0010
0001
0000
1000
0000
0100
0010
0100
0010
0100
1000
0001
0000
1000
0000
,
0001
0100
0001
0000
1000
0010
1000
0000
0001
0100
0010
1000
0001
0000
1000
0000
,
0100
0010
0100
0000
1000
0000
0010
0000
0100
0001
0100
0001
1000
0000
0001
0000
,
1000
0100
1000
0100
1000
0100
1000
0100
0010
0001
0010
0001
0010
0001
0010
0001
,
1000
0010
1000
0000
0001
0000
0010
0100
1000
0100
0010
0000
0001
1000
0001
0000
,
0100
0010
0100
0000
0001
0000
0010
0100
0010
0100
1000
0000
0001
0000
1000
0000
,
0001
0100
0001
0000
1000
0010
1000
0000
0001
0010
0100
1000
0001
0000
1000
0000
,
0010
0100
0010
0000
1000
0000
0001
0010
0001
0010
0100
0000
1000
0001
1000
0000
,
0001
0100
0001
0000
1000
0000
0100
0010
0001
0010
0100
0000
1000
0001
1000
0000
,
0010
0100
0010
0000
1000
0000
0100
0010
0100
0010
0001
0000
1000
0000
0001
0000
,
1000
0010
1000
0010
1000
0010
1000
0010
0100
0001
0100
0001
0100
0001
0100
0001
,
2000
0000
0000
0000
,
3002
0000
0000
0000
,
0013
0100
2000
0000
0000
0000
0000
0000
,
3020
0000
0000
0000
,
1030
0001
0200
0000
0000
0000
0000
0000
,
0302
0000
0000
0000
,
1003
0100
0020
0000
0000
0000
0000
0000
,
0230
0000
0000
0000
,
1300
0001
2000
0000
0000
0000
0000
0000
,
0000
0000
0000
0000
,
3000
0000
0000
0000
;

//---------------dance-single - ----------------
#NOTES:
     dance-single:
     :
     Challenge:
     9:
     0.598,0.750,0.018,0.123,0.247:
0000
0000
0000
0000
,
0000
0000
0000
0000
,
0000
0000
0000
0000
,
0000
0000
0000
0000
,
0000
0000
0000
0000
,
0000
0000
0000
0000
,
0000
0000
0000
0000
,
0000
0000
0000
0000
,
0000
0000
0000
0000
,
1000
1000
0001
0001
,
0100
0100
0010
0010
,
1000
1000
0001
0001
,
0010
0010
0100
0100
,
1000
0010
1000
0010
0100
0001
0100
0001
,
0010
0100
0010
0100
1000
0001
1000
0001
,
1000
0100
0010
0000
0001
0000
1000
0000
0001
0010
0100
0000
1000
0000
0001
0000
,
2000
0000
0010
0000
0100
0000
3001
1000
,
0001
0100
0001
0000
1000
0000
0100
0000
0010
0000
0100
0000
1000
0000
0001
0000
,
0100
0010
0100
0000
0001
0000
0010
0000
0100
0000
1000
0000
0010
0000
0100
0000
,
0001
1000
0001
0000
1000
0000
0100
0000
0010
0000
0001
0000
1000
0001
1000
0000
,
0010
0100
0010
0000
1000
0000
0100
0000
0001
0000
0100
0000
1000
0001
1000
0000
,
0001
1000
0001
0000
0010
0000
0100
0000
1000
0000
0010
0000
1000
0000
0001
0000
,
0010
0100
1000
0000
0010
0000
0100
0000
0001
0000
1000
0000
0100
0010
0001
0000
,
1000
0001
1000
0000
0010
0000
0100
0000
0001
0010
0001
0000
1000
0100
1000
0000
,
0001
0010
0001
0000
1000
0000
0001
0000
1000
0001
1000
0001
1000
0001
1000
0001
,
1000
0010
1000
0000
0001
0000
0010
0000
0100
0000
0010
0000
0001
0000
1000
0000
,
0010
0100
0010
0000
1000
0000
0100
0000
0010
0000
0001
0000
0100
0000
0010
0000
,
1000
0001
1000
0000
0001
0000
0010
0000
0100
0000
1000
0000
0001
1000
0001
0000
,
0100
0010
0100
0000
0001
0000
0010
0000
1000
0000
0010
0000
0001
1000
0001
0000
,
1000
0001
1000
0000
0100
0000
0010
0000
0001
0000
0100
0000
0001
0000
1000
0000
,
0100
0010
0001
0000
0100
0000
0010
0000
1000
0000
0001
0000
0010
0100
1000
0000
,
0010
0100
0010
0100
0001
1000
0001
1000
,
2002
0000
0000
3003
,
1000
0000
0100
0000
0010
0001
1000
0001
,
1000
0010
0100
0000
0001
0010
0100
1000
,
0001
0000
0100
0000
0010
1000
0001
1000
,
0001
0010
0100
0000
1000
0010
0100
0001
,
1000
0100
1000
0100
0010
0001
1000
0000
,
0001
0100
0001
0100
0010
1000
0001
0000
,
0010
0100
1000
0001
0100
0010
1000
0000
,
0001
0010
0100
1000
0100
0010
0001
1000
,
0001
0001
1000
1000
,
0010
0010
0100
0100
,
0001
0001
1000
1000
,
0100
0100
0010
0010
,
0001
0100
0001
0100
0010
1000
0010
1000
,
0100
0010
0100
0010
0001
1000
0001
1000
,
0001
0010
0100
0000
1000
0000
0001
0000
1000
0100
0010
0000
0001
0000
1000
0000
,
0002
0000
0100
0000
0010
0000
1003
0001
,
1000
0010
1000
0000
0001
0000
0010
0000
0100
0000
0010
0000
0001
0000
1000
0000
,
0010
0100
0010
0000
1000
0000
0100
0000
0010
0000
0001
0000
0100
0000
0010
0000
,
1000
0001
1000
0000
0001
0000
0010
0000
0100
0000
1000
0000
0001
1000
0001
0000
,
0100
0010
0100
0000
0001
0000
0010
0000
1000
0000
0010
0000
0001
1000
0001
0000
,
1000
0001
1000
0000
0100
0000
0010
0000
0001
0000
0100
0000
0001
0000
1000
0000
,
0100
0010
0001
0000
0100
0000
0010
0000
1000
0000
0001
0000
0010
0100
1000
0000
,
0001
1000
0001
0000
0100
0000
0010
0000
1000
0100
1000
0000
0001
0010
0001
0000
,
1000
0100
1000
0000
0001
0000
1000
0000
0001
1000
0001
1000
0001
1000
0001
1000
,
0001
0100
0001
0000
1000
0000
0100
0000
0010
0000
0100
0000
1000
0000
0001
0000
,
0100
0010
0100
0000
0001
0000
0010
0000
0100
0000
1000
0000
0010
0000
0100
0000
,
0001
1000
0001
0000
1000
0000
0100
0000
0010
0000
0001
0000
1000
0001
1000
0000
,
0010
0100
0010
0000
1000
0000
0100
0000
0001
0000
0100
0000
1000
0001
1000
0000
,
0001
1000
0001
0000
0010
0000
0100
0000
1000
0000
0010
0000
1000
0000
0001
0000
,
0010
0100
1000
0000
0010
0000
0100
0000
0001
0000
1000
0000
0100
0010
0001
0000
,
0100
0010
0100
0010
1000
0001
1000
0001
,
2002
0000
0000
3003
,
2000
0000
0000
0000
,
3100
0010
0002
0000
0000
0000
0000
0000
,
0203
0000
0000
0000
,
0310
1000
0002
0000
0000
0000
0000
0000
,
0023
0000
0000
0000
,
0130
1000
0002
0000
0000
0000
0000
0000
,
2003
0000
0000
0000
,
3010
0100
0002
0000
0000
0000
0000
0000
,
0000
0000
0000
0000
,
0003
0000
0000
0000
;

//---------------dance-single - ----------------
#NOTES:
     dance-single:
     :
     Hard:
     7:
     0.385,0.489,0.018,0.106,0.123:
0000
0000
0000
0000
,
0000
0000
0000
0000
,
0000
0000
0000
0000
,
0000
0000
0000
0000
,
0000
0000
0000
0000
,
0000
0000
0000
0000
,
0000
0000
0000
0000
,
0000
0000
0000
0000
,
0000
0000
0000
0000
,
1000
1000
0001
0001
,
1000
1000
0001
0001
,
0100
0100
0010
0010
,
0100
0100
0010
0010
,
1000
0100
0010
0001
,
0100
0010
0100
0000
0001
1000
0001
0000
,
1000
0100
1000
0100
0010
0001
0010
0001
,
1000
0000
0001
0000
1000
0000
0001
1000
,
0001
0000
0000
0000
0100
0000
0000
0000
0010
0000
0000
1000
0000
0000
0001
0000
,
1000
0000
0000
0000
0100
0000
0000
0000
0010
0000
0000
0001
0000
0000
1000
0000
,
0001
0000
0000
0000
1000
0000
0000
0000
0010
0000
0000
1000
0000
0000
0001
0000
,
1000
0000
0000
0000
0001
0000
0000
0000
0010
0000
0000
0001
0000
0000
1000
0000
,
0010
0000
0000
0000
0100
0000
0000
0000
0010
0000
0000
1000
0000
0000
0001
0000
,
0010
0000
0000
0000
0100
0000
0000
0000
1000
0000
0000
0001
0000
0000
1000
0000
,
0001
0000
0000
0000
0100
0000
0000
0000
0010
0000
0000
1000
0000
0000
0001
0000
,
1000
0100
1000
0100
0010
0001
0010
0001
,
1000
0000
0000
0000
0010
0000
0000
0000
0100
0000
0000
0001
0000
0000
1000
0000
,
0001
0000
0000
0000
0010
0000
0000
0000
0100
0000
0000
1000
0000
0000
0001
0000
,
1000
0000
0000
0000
0001
0000
0000
0000
0100
0000
0000
0001
0000
0000
1000
0000
,
0001
0000
0000
0000
1000
0000
0000
0000
0100
0000
0000
1000
0000
0000
0001
0000
,
0100
0000
0000
0000
0010
0000
0000
0000
0100
0000
0000
0001
0000
0000
1000
0000
,
0100
0000
0000
0000
0010
0000
0000
0000
0001
0000
0000
1000
0000
0000
0001
0000
,
1000
0000
0000
0000
0010
0000
0000
0000
0100
0000
0000
0001
0000
0000
1000
0000
,
2002
0000
0000
3003
,
1000
0000
0100
0000
0010
0001
1000
0000
,
0001
0000
0100
0000
0010
1000
0001
0000
,
0100
0000
0010
0000
1000
0001
1000
0000
,
0100
0000
0010
0000
0001
1000
0001
0000
,
1000
0000
0001
0000
0010
0100
1000
0000
,
0001
0000
1000
0000
0010
0100
0001
0000
,
1000
0000
0100
0000
0010
0100
1000
0000
,
0001
0000
0100
0000
0010
0100
0001
0000
,
1000
1000
0001
0001
,
1000
1000
0001
0001
,
0010
0010
0100
0100
,
0010
0010
0100
0100
,
1000
0010
0100
0001
,
0010
0100
0010
0000
0001
1000
0001
0000
,
1000
0010
1000
0010
0100
0001
0100
0001
,
1000
0000
0001
0000
1000
0000
0001
1000
,
0001
0000
0000
0000
0010
0000
0000
0000
0100
0000
0000
1000
0000
0000
0001
0000
,
1000
0000
0000
0000
0010
0000
0000
0000
0100
0000
0000
0001
0000
0000
1000
0000
,
0001
0000
0000
0000
1000
0000
0000
0000
0100
0000
0000
1000
0000
0000
0001
0000
,
1000
0000
0000
0000
0001
0000
0000
0000
0100
0000
0000
0001
0000
0000
1000
0000
,
0100
0000
0000
0000
0010
0000
0000
0000
0100
0000
0000
1000
0000
0000
0001
0000
,
0100
0000
0000
0000
0010
0000
0000
0000
1000
0000
0000
0001
0000
0000
1000
0000
,
0001
0000
0000
0000
0010
0000
0000
0000
0100
0000
0000
1000
0000
0000
0001
0000
,
1000
0010
1000
0010
0100
0001
0100
0001
,
1000
0000
0000
0000
0100
0000
0000
0000
0010
0000
0000
0001
0000
0000
1000
0000
,
0001
0000
0000
0000
0100
0000
0000
0000
0010
0000
0000
1000
0000
0000
0001
0000
,
1000
0000
0000
0000
0001
0000
0000
0000
0010
0000
0000
0001
0000
0000
1000
0000
,
0001
0000
0000
0000
1000
0000
0000
0000
0010
0000
0000
1000
0000
0000
0001
0000
,
0010
0000
0000
0000
0100
0000
0000
0000
0010
0000
0000
0001
0000
0000
1000
0000
,
0010
0000
0000
0000
0100
0000
0000
0000
0001
0000
0000
1000
0000
0000
0001
0000
,
1000
0000
0000
0000
0100
0000
0000
0000
0010
0000
0000
0001
0000
0000
1000
0000
,
2002
0000
0000
3003
,
0002
0000
0000
0000
,
0103
0010
2000
0000
0000
0000
0000
0000
,
3200
0000
0000
0000
,
0310
0001
2000
0000
0000
0000
0000
0000
,
3020
0000
0000
0000
,
0130
0001
2000
0000
0000
0000
0000
0000
,
3002
0000
0000
0000
,
0013
0100
2000
0000
0000
0000
0000
0000
,
0000
0000
0000
0000
,
3000
0000
0000
0000
;

//---------------dance-single - ----------------
#NOTES:
     dance-single:
     :
     Medium:
     5:
     0.315,0.359,0.000,0.088,0.000:
0000
0000
0000
0000
,
0000
0000
0000
0000
,
0000
0000
0000
0000
,
0000
0000
0000
0000
,
0000
0000
0000
0000
,
0000
0000
0000
0000
,
0000
0000
0000
0000
,
0000
0000
0000
0000
,
0000
0000
0000
0000
,
1000
1000
0001
0001
,
0100
0100
0010
0010
,
1000
1000
0001
0001
,
0010
0010
0100
0100
,
1000
0010
0100
0001
,
1000
0100
0010
0001
,
0100
0100
0010
0010
,
1000
0000
0001
0000
1000
0000
0001
1000
,
0001
0010
0100
1000
,
0010
0100
0001
1000
,
0100
0010
0001
1000
,
0001
0000
0100
0000
0010
0000
1000
0001
,
1000
0100
0010
0001
,
0100
0010
1000
0001
,
0010
0100
1000
0001
,
1000
0001
1000
0000
0001
0000
1000
0001
,
1000
0100
0010
0001
,
0100
0010
1000
0001
,
0010
0100
1000
0001
,
1000
0000
0010
0000
0100
0000
0001
1000
,
0001
0010
0100
1000
,
0010
0100
0001
1000
,
0100
0010
0100
0000
0010
0000
0001
1000
,
0002
0000
0000
0000
,
1003
1000
0010
0100
,
0001
0001
0010
0100
,
1000
1000
0001
0100
,
0001
0001
1000
0100
,
1000
1000
0010
1000
,
0001
0001
0010
0001
,
1000
1000
0010
0100
,
0001
0001
0010
0100
,
1000
1000
0001
0001
,
0100
0100
0010
0010
,
1000
1000
0001
0001
,
0010
0010
0100
0100
,
1000
0010
0100
0001
,
1000
0100
0010
0001
,
0100
0100
0010
0010
,
1000
0000
0001
0000
1000
0000
0001
1000
,
0001
0010
0100
1000
,
0010
0100
0001
1000
,
0100
0010
0001
1000
,
0001
0000
0100
0000
0010
0000
1000
0001
,
1000
0100
0010
0001
,
0100
0010
1000
0001
,
0010
0100
1000
0001
,
1000
0001
1000
0000
0001
0000
1000
0001
,
1000
0100
0010
0001
,
0100
0010
1000
0001
,
0010
0100
1000
0001
,
1000
0000
0010
0000
0100
0000
0001
1000
,
0001
0010
0100
1000
,
0010
0100
0001
1000
,
0100
0010
0100
0000
0010
0000
0001
1000
,
0002
0000
0000
0000
,
2003
0000
0000
0000
,
3020
0000
0000
0000
,
0230
0000
0000
0000
,
0302
0000
0000
0000
,
2003
0000
0000
0000
,
3200
0000
0000
0000
,
0320
0000
0000
0000
,
0032
0000
0000
0000
,
0000
0000
0000
0000
,
0003
0000
0000
0000
;

//---------------dance-single - ----------------
#NOTES:
     dance-single:
     :
     Easy:
     2:
     0.131,0.163,0.000,0.088,0.000:
0000
0000
0000
0000
,
0000
0000
0000
0000
,
0000
0000
0000
0000
,
0000
0000
0000
0000
,
0000
0000
0000
0000
,
0000
0000
0000
0000
,
0000
0000
0000
0000
,
0000
0000
0000
0000
,
0000
0000
0000
0000
,
1000
0000
0000
0000
,
0001
0000
0000
0000
,
0100
0000
0000
0000
,
0010
0000
0000
0000
,
1000
0000
0000
0000
,
0001
0000
0000
0000
,
0010
0000
0010
0000
,
0100
0000
0100
0000
,
1000
0000
0001
0000
,
1000
0000
0000
0000
,
0010
0000
0100
0000
,
0010
0000
0000
0000
,
1000
0000
0001
0000
,
1000
0000
0000
0000
,
0100
0000
0010
0000
,
0100
0000
0010
0000
,
0001
0000
1000
0000
,
0001
0000
0000
0000
,
0100
0000
0010
0000
,
0100
0000
0000
0000
,
0001
0000
1000
0000
,
0001
0000
0000
0000
,
0010
0000
0100
0000
,
2000
0000
0000
3000
,
0001
0000
0001
0000
,
1000
0000
1000
0000
,
0010
0000
0010
0000
,
0100
0000
0100
0000
,
0001
0000
0001
0000
,
1000
0000
1000
0000
,
0100
0000
0100
0000
,
0010
0000
0010
0000
,
0001
0000
0000
0000
,
1000
0000
0000
0000
,
0010
0000
0000
0000
,
0100
0000
0000
0000
,
0001
0000
0000
0000
,
1000
0000
0000
0000
,
0100
0000
0100
0000
,
0010
0000
0010
0000
,
0001
0000
1000
0000
,
0001
0000
0000
0000
,
0100
0000
0010
0000
,
0100
0000
0000
0000
,
0001
0000
1000
0000
,
0001
0000
0000
0000
,
0010
0000
0100
0000
,
0010
0000
0100
0000
,
1000
0000
0001
0000
,
1000
0000
0000
0000
,
0010
0000
0100
0000
,
0010
0000
0000
0000
,
1000
0000
0001
0000
,
1000
0000
0000
0000
,
0100
0000
0010
0000
,
0002
0000
0000
0003
,
2000
0000
0000
3000
,
0002
0000
0000
0003
,
0200
0000
0000
0300
,
0020
0000
0000
0030
,
2000
0000
0000
3000
,
0002
0000
0000
0003
,
0020
0000
0000
0030
,
0200
0000
0000
0000
,
0000
0000
0000
0000
,
0300
0000
0000
0000
;

//---------------dance-single - Copied from ----------------
#NOTES:
     dance-single:
     Copied from:
     Beginner:
     1:
     0.131,0.163,0.000,0.088,0.000: // measure 1
0000
0000
0000
0000
,  // measure 2
0000
0000
0000
0000
,  // measure 3
0000
0000
0000
0000
,  // measure 4
0000
0000
0000
0000
,  // measure 5
0000
0000
0000
0000
,  // measure 6
0000
0000
0000
0000
,  // measure 7
0000
0000
0000
0000
,  // measure 8
0000
0000
0000
0000
,  // measure 9
0000
0000
0000
0000
,  // measure 10
1000
0000
0000
0000
,  // measure 11
0001
0000
0000
0000
,  // measure 12
1000
0000
0000
0000
,  // measure 13
0001
0000
0000
0000
,  // measure 14
1000
0000
0000
0000
,  // measure 15
0001
0000
0000
0000
,  // measure 16
0001
0000
0001
0000
,  // measure 17
1000
0000
1000
0000
,  // measure 18
1000
0000
0001
0000
,  // measure 19
1000
0000
0000
0000
,  // measure 20
0001
0000
1000
0000
,  // measure 21
0001
0000
0000
0000
,  // measure 22
1000
0000
0001
0000
,  // measure 23
1000
0000
0000
0000
,  // measure 24
1000
0000
0001
0000
,  // measure 25
1000
0000
0001
0000
,  // measure 26
0001
0000
1000
0000
,  // measure 27
0001
0000
0000
0000
,  // measure 28
1000
0000
0001
0000
,  // measure 29
1000
0000
0000
0000
,  // measure 30
0001
0000
1000
0000
,  // measure 31
0001
0000
0000
0000
,  // measure 32
0001
0000
1000
0000
,  // measure 33
2000
0000
0000
3000
,  // measure 34
0001
0000
0001
0000
,  // measure 35
1000
0000
1000
0000
,  // measure 36
0001
0000
0001
0000
,  // measure 37
1000
0000
1000
0000
,  // measure 38
0001
0000
0001
0000
,  // measure 39
1000
0000
1000
0000
,  // measure 40
1000
0000
1000
0000
,  // measure 41
0001
0000
0001
0000
,  // measure 42
0001
0000
0000
0000
,  // measure 43
1000
0000
0000
0000
,  // measure 44
0001
0000
0000
0000
,  // measure 45
1000
0000
0000
0000
,  // measure 46
0001
0000
0000
0000
,  // measure 47
1000
0000
0000
0000
,  // measure 48
1000
0000
1000
0000
,  // measure 49
0001
0000
0001
0000
,  // measure 50
0001
0000
1000
0000
,  // measure 51
0001
0000
0000
0000
,  // measure 52
1000
0000
0001
0000
,  // measure 53
1000
0000
0000
0000
,  // measure 54
0001
0000
1000
0000
,  // measure 55
0001
0000
0000
0000
,  // measure 56
0001
0000
1000
0000
,  // measure 57
0001
0000
1000
0000
,  // measure 58
1000
0000
0001
0000
,  // measure 59
1000
0000
0000
0000
,  // measure 60
0001
0000
1000
0000
,  // measure 61
0001
0000
0000
0000
,  // measure 62
1000
0000
0001
0000
,  // measure 63
1000
0000
0000
0000
,  // measure 64
1000
0000
0001
0000
,  // measure 65
0002
0000
0000
0003
,  // measure 66
2000
0000
0000
3000
,  // measure 67
0002
0000
0000
0003
,  // measure 68
2000
0000
0000
3000
,  // measure 69
0002
0000
0000
0003
,  // measure 70
2000
0000
0000
3000
,  // measure 71
0002
0000
0000
0003
,  // measure 72
0002
0000
0000
0003
,  // measure 73
2000
0000
0000
0000
,  // measure 74
0000
0000
0000
0000
,  // measure 75
3000
0000
0000
0000
;
