#VERSION:0.83;
#TITLE:THEME FROM ENTER THE DRAGON (Revival 2001 Mix) (from NonStop MegaMix);
#SUBTITLE:;
#ARTIST:B3-PROJECT;
#TITLETRANSLIT:;
#SUBTITLETRANSLIT:;
#ARTISTTRANSLIT:;
#GENRE:;
#ORIGIN:;
#CREDIT:BadWolf;
#BANNER:THEME FROM ENTER THE DRAGON (notorious mix).PNG;
#BACKGROUND:THEME FROM ENTER THE DRAGON (notorious mix)-bg.PNG;
#PREVIEWVID:;
#JACKET:;
#CDIMAGE:;
#DISCIMAGE:;
#LYRICSPATH:;
#CDTITLE:cdtitle.png;
#MUSIC:THEME FROM ENTER THE DRAGON (Revival 2001 Mix).ogg;
#OFFSET:-0.660000;
#SAMPLESTART:5.193891;
#SAMPLELENGTH:13.296399;
#SELECTABLE:YES;
#BPMS:0.000=144.400,
124.000=144.260,
200.000=144.400;
#STOPS:123.750=1.662;
#DELAYS:;
#WARPS:;
#TIMESIGNATURES:0.000=4=4;
#TICKCOUNTS:0.000=4;
#COMBOS:0.000=1;
#SPEEDS:0.000=1.000=0.000=0;
#SCROLLS:0.000=1.000;
#FAKES:;
#LABELS:0.000=Song Start;
#BGCHANGES:-1.540=THEME FROM ENTER THE DRAGON (Revival 2001 Mix).mp4=1.000=0=0=1===CrossFade_Fastest==,
99999=-nosongbg-=1.000=0=0=0 // don't automatically add -songbackground-
;
#KEYSOUNDS:;
#ATTACKS:
;

//---------------dance-single - ----------------
#NOTEDATA:;
#CHARTNAME:;
#STEPSTYPE:dance-single;
#DESCRIPTION:;
#CHARTSTYLE:;
#DIFFICULTY:Edit;
#METER:10;
#RADARVALUES:0.728273,0.806800,0.365720,0.199484,0.537497,460.000000,427.000000,33.000000,18.000000,0.000000,0.000000,0.000000,0.000000,0.000000,0.728273,0.806800,0.365720,0.199484,0.537497,460.000000,427.000000,33.000000,18.000000,0.000000,0.000000,0.000000,0.000000,0.000000;
#CREDIT:;
#NOTES:
0000
0000
0000
0000
,
0000
0000
0000
0000
,
0000
0000
0000
0000
0000
0000
1000
0001
,
1000
0000
0010
0000
0100
0000
0001
1000
0001
0000
0010
0000
0100
0000
1000
0000
,
0010
0000
0100
0000
0001
0000
1000
0100
0010
0001
1000
0000
0001
0000
0100
0000
,
0001
0000
0010
0000
0100
0000
1000
0001
1000
0000
0010
0000
0100
0000
0001
0000
,
0010
0000
0100
0000
1000
0000
0001
0100
0010
1000
0001
0000
1000
0000
0100
0000
,
1000
0000
0010
0000
0001
0010
1000
0010
0000
1000
0001
0000
1000
0000
0100
0000
,
0010
0000
0001
0000
0100
0010
1000
0010
0000
0100
0001
0000
1000
0000
0001
0000
,
2001
0000
0000
0020
0000
0000
0000
0000
,
0000
0000
0000
0000
3030
1000
0100
0010
,
0001
0000
0100
0000
1000
0000
0100
0010
0100
0000
0001
0000
1000
0000
0001
0000
,
1000
0000
0100
0000
0001
0000
0100
0010
0100
0010
0001
0000
1000
0000
0001
0000
,
1000
0000
0010
0000
0001
0000
0010
0100
0010
0000
1000
0000
0001
0000
1000
0000
,
0001
0000
0010
0000
1000
0000
0010
0100
0010
0100
1000
0001
1000
0100
0010
0001
,
1000
0010
0200
0000
0301
1000
0200
0000
,
0310
0000
0001
0000
0200
0000
0000
0000
0310
0000
1000
0000
0000
1001
0000
0000
,
0110
0000
0010
0000
1000
0000
0001
0010
0100
1000
0000
0001
1000
0000
0010
0000
,
1000
0000
0100
0000
0010
0000
0001
1000
0001
0100
0001
0100
0010
1000
0010
1000
,
0001
0010
0200
0000
1300
0001
0200
0000
,
0310
0000
1000
0000
0200
0000
0000
0000
0310
0000
0001
0000
0000
1001
0000
0000
,
0110
0000
0100
0000
0001
0000
1000
0100
0010
0001
0000
1000
0001
0000
0100
0000
,
0001
0010
0001
0010
0001
0010
0001
0010
0100
1000
0100
1000
0001
0010
0100
1000
,
0001
0000
0000
0101
0000
0000
1100
0000
1000
0000
0001
0000
1001
0000
0000
0000
,
1000
0000
0000
1100
0000
0000
0110
0000
0000
0011
0000
0000
1001
0000
0000
0000
,
0101
0000
0000
1001
0000
0000
1100
0000
1000
0000
0010
0000
0100
0000
0000
0000
,
0001
0000
0000
0011
0000
0000
0110
0000
0000
1100
0000
0000
1001
0000
0000
0000
,
1000
0010
0100
0010
1000
0010
0001
0010
,
1000
0000
0010
0000
0100
0000
0010
0000
1000
0000
0010
0100
0001
0000
0000
0000
,
1000
0000
0100
0000
0010
0000
0100
0000
0001
0100
0010
0000
0000
0000
0001
0000
,
1000
0010
1000
0010
0100
0001
0100
0001
1000
0100
0010
0001
1000
0100
0010
0001
,
1000
0000
0010
0000
0100
0000
0001
1000
0001
0000
0010
0000
0100
0000
1000
0000
,
0010
0000
0100
0000
0001
0000
1000
0100
0010
0001
1000
0000
0001
0000
0100
0000
,
0001
0000
0010
0000
0100
0000
1000
0001
1000
0000
0010
0000
0100
0000
0001
0000
,
0010
0000
0100
0000
1000
0000
0001
0100
0010
1000
0001
0000
1000
0000
0100
0000
,
1000
0000
0010
0000
0001
0010
1000
0010
0000
1000
0001
0000
1000
0000
0100
0000
,
0010
0000
0001
0000
0100
0010
1000
0010
0000
0100
0001
0000
1000
0000
0001
0000
,
1000
0000
0100
0000
0010
0000
0001
1000
0001
0000
0100
0000
0010
0000
1000
0000
,
0100
0000
0010
0000
0001
0000
1000
0010
0100
0001
1000
0000
0001
0000
0010
0000
,
0002
0000
0000
0203
0000
0320
0000
1030
,
0002
0000
0000
0023
0000
0130
1000
1001
,
1002
0000
0000
0203
0000
0000
2300
0000
3200
0000
0000
0302
0000
0000
1003
0000
,
0001
0000
0010
0000
0100
0000
0010
0000
0001
0100
0001
0100
0010
1000
0010
1000
,
0001
0010
1000
0010
0001
0010
0100
0010
,
0001
0000
0010
0000
1000
0000
0010
0000
0001
0000
1001
0000
0000
1001
0000
0000
,
0110
0000
0010
0000
1000
0000
0001
0010
0100
1000
0000
0001
1000
0000
0010
0000
,
1000
0000
0100
0000
0010
0000
0001
1000
0001
0100
0001
0100
0010
1000
0010
1000
,
0001
0000
0100
0000
1000
0000
0100
0000
0001
1000
0100
0000
0010
0000
0001
0000
,
1000
0010
0100
0000
0001
0000
1000
0000
0100
0000
0110
0000
0000
0011
0000
0000
,
1001
0000
0110
0000
0000
1010
0000
0000
1001
0000
0110
0000
0000
0101
0000
0000
,
1001
0100
0010
0001
1000
0100
0010
0001
,
1000
0000
0010
0000
0100
0000
0001
0000
1000
0001
1000
0001
1000
0001
1000
0001
,
1000
0000
0000
0000
;

//---------------dance-single - ----------------
#NOTEDATA:;
#CHARTNAME:;
#STEPSTYPE:dance-single;
#DESCRIPTION:;
#CHARTSTYLE:;
#DIFFICULTY:Challenge;
#METER:9;
#RADARVALUES:0.625365,0.720357,0.365720,0.066495,0.254896,395.000000,362.000000,33.000000,6.000000,0.000000,0.000000,0.000000,0.000000,0.000000,0.625365,0.720357,0.365720,0.066495,0.254896,395.000000,362.000000,33.000000,6.000000,0.000000,0.000000,0.000000,0.000000,0.000000;
#CREDIT:;
#NOTES:
0000
0000
0000
0000
,
0000
0000
0000
0000
,
0000
0000
0000
0000
0000
0000
1000
0001
,
1000
0000
0100
0000
0010
0000
0001
1000
0001
0000
0010
0000
0100
0000
1000
0000
,
0010
0100
0001
1000
0100
0010
0100
1000
,
0001
0000
0100
0000
0010
0000
1000
0001
1000
0000
0010
0000
0100
0000
0001
0000
,
0010
0100
1000
0001
0100
0010
0100
0001
,
1000
0000
1000
0000
0100
0000
0010
0100
1000
0000
0001
0000
0100
0010
0100
0000
,
0001
0000
0001
0000
0010
0000
0100
0010
0001
0000
1000
0000
0010
0100
0010
0000
,
2000
0000
0000
0002
0000
0000
0000
0000
,
0000
0000
0000
0000
3003
1000
0100
0010
,
0001
0100
0010
0100
1000
0100
0010
0100
,
0001
0010
0100
1000
0001
0100
0010
1000
,
0001
0010
0100
0010
1000
0010
0100
0010
,
0001
0000
0100
0000
0010
0000
1000
0000
0001
0010
0001
0010
0100
1000
0100
1000
,
0001
0101
0000
1100
,
0000
0000
0000
0000
1010
0000
0000
0000
0000
0000
1001
0000
0000
0110
0000
0000
,
1001
0001
0010
0100
1000
0010
0100
0000
,
0001
1000
0100
0010
0001
0100
1000
0100
,
0001
0011
0000
1010
,
0000
0000
0000
0000
1100
0000
0000
0000
0000
0000
1001
0000
0000
0110
0000
0000
,
1001
1000
0010
0100
0001
0010
0100
0000
,
1000
0010
1000
0010
1000
0010
1000
0010
0100
0001
0100
0001
1000
0100
0010
0001
,
1000
0000
0000
1010
0000
0000
1001
0000
0000
0000
0000
0000
0110
0000
0000
0000
,
0001
0010
0100
1000
0100
0010
0001
0000
,
0101
0000
0000
0110
0000
0000
1001
0000
0000
0000
0000
0000
0110
0000
0000
0000
,
1000
0100
0010
0001
0010
0100
1000
0000
,
0001
0100
1000
0100
0001
0100
1000
0100
,
0001
0100
1000
0100
0001
1000
0001
0000
,
1000
0010
0001
0010
1000
1000
0010
0001
,
0010
1000
0010
0000
0100
0001
0100
0000
0001
1000
0001
1000
0001
1000
0001
1000
,
0001
0000
0010
0000
0100
0000
1000
0001
1000
0000
0100
0000
0010
0000
0001
0000
,
0100
0010
1000
0001
0010
0100
0010
0001
,
1000
0000
0010
0000
0100
0000
0001
1000
0001
0000
0100
0000
0010
0000
1000
0000
,
0100
0010
0001
1000
0010
0100
0010
1000
,
0001
0000
0001
0000
0010
0000
0100
0010
0001
0000
1000
0000
0010
0100
0010
0000
,
1000
0000
1000
0000
0100
0000
0010
0100
1000
0000
0001
0000
0100
0010
0100
0000
,
0001
0000
1000
0000
0100
0000
0010
0001
0010
0000
0100
0000
1000
0000
0001
0000
,
1000
0000
0001
0000
0100
0000
0010
1000
0010
0000
1000
0000
0010
0000
0100
0000
,
0002
0000
0000
0000
,
2003
0000
0000
0000
0000
0000
3000
1001
,
1001
0000
0000
0001
0000
0000
0010
0000
0100
0000
0000
1000
0000
0000
0001
0000
,
1000
0000
0010
0000
0100
0000
0001
0000
1000
0100
1000
0100
0010
0001
0010
0001
,
1000
0010
0001
0010
1000
0010
0001
0010
,
1000
0000
0010
0000
0100
0000
0001
0000
0000
0000
1001
0000
0000
0110
0000
0000
,
1001
1000
0100
0010
0001
0100
0010
0000
,
1000
0001
0010
0100
1000
0010
0001
0010
,
1000
0100
0001
0100
1000
0100
0001
0100
,
1000
0000
0100
0000
0010
0000
0001
0000
0000
0000
1001
0000
0000
0110
0000
0000
,
1001
0000
0110
0000
0000
1001
0000
0000
0110
0000
1001
0000
0000
0110
0000
0000
,
1001
0100
0010
0001
1000
0010
0100
0001
,
1000
0100
0010
0001
2000
0000
0002
0000
,
3003
0000
0000
0000
;

//---------------dance-single - ----------------
#NOTEDATA:;
#CHARTNAME:;
#STEPSTYPE:dance-single;
#DESCRIPTION:;
#CHARTSTYLE:;
#DIFFICULTY:Hard;
#METER:7;
#RADARVALUES:0.459129,0.518657,0.188401,0.099742,0.044330,290.000000,273.000000,17.000000,9.000000,0.000000,0.000000,0.000000,0.000000,0.000000,0.459129,0.518657,0.188401,0.099742,0.044330,290.000000,273.000000,17.000000,9.000000,0.000000,0.000000,0.000000,0.000000,0.000000;
#CREDIT:;
#NOTES:
0000
0000
0000
0000
,
0000
0000
0000
0000
,
0000
0000
0000
0000
,
1000
0001
0000
1000
0100
0001
0000
0001
,
0100
1000
0000
1000
0100
0001
0000
0100
,
1000
0001
0000
1000
0010
0001
0000
0001
,
0010
1000
0000
1000
0010
0001
0000
0010
,
1000
0100
0010
0001
1000
0000
1001
0000
,
0001
0010
0100
1000
0001
0000
1001
0000
,
2000
0000
0000
0002
0000
0000
0000
0000
,
0000
0000
0000
3003
0000
1000
0100
0010
,
0001
1000
0000
0001
0010
1000
0000
1000
,
0010
0001
0000
0001
0010
1000
0000
0010
,
0001
1000
0000
0001
0100
1000
0000
1000
,
0100
0001
0000
0001
0100
1000
0100
0001
,
1000
1010
0000
0101
,
0000
0000
0000
0000
0011
0000
0000
0000
0000
0000
1000
0000
0000
0001
0000
0000
,
1001
0000
1000
0000
0010
0100
0001
0000
,
1000
0100
0010
0001
0010
0100
1000
0001
,
1000
1010
0000
0101
,
0000
0000
0000
0000
0011
0000
0000
0000
0000
0000
1000
0000
0000
0001
0000
0000
,
1001
0000
1000
0000
0100
0010
0001
0000
,
1000
0010
0100
0001
0100
0010
1000
0001
,
1000
0000
0000
1000
0000
0000
1000
0000
0000
0000
0000
0000
0011
0000
0000
0000
,
1000
0100
0010
0001
0010
0100
1000
0000
,
0001
0000
0000
0001
0000
0000
0001
0000
0100
0000
0010
0000
1000
0000
0000
0000
,
0001
0010
0100
1000
0100
0010
0001
0000
,
1000
0010
0000
0010
0001
0010
0000
0010
,
1000
0010
0000
0010
0001
0010
1000
0000
,
0001
0100
0000
0100
1000
0100
0000
0100
,
0001
0100
1000
0100
0001
0100
1000
0100
,
0001
1000
0000
0001
0010
1000
0000
1000
,
0010
0001
0000
0001
0010
1000
0000
0010
,
0001
1000
0000
0001
0100
1000
0000
1000
,
0100
0001
0000
0001
0100
1000
0000
0100
,
0001
0010
0100
1000
0001
0000
1001
0000
,
1000
0100
0010
0001
1000
0000
1001
0000
,
0001
1000
0000
0001
0100
1000
0000
1000
,
0100
0001
0000
0001
0100
1000
0100
0001
,
2000
0000
3002
0000
,
0203
0000
0000
0000
0320
0000
0000
1000
,
2030
0000
3002
0000
,
0013
0000
0100
0000
1000
0001
1000
0001
,
1000
0010
0000
0010
0001
0010
0000
0010
,
1000
0000
0010
0000
0000
0000
0010
0000
0001
0000
0010
0000
0000
1000
0000
0000
,
1001
0000
0001
0000
0100
0010
1000
0000
,
0001
0010
0100
1000
0100
0010
0001
1000
,
0001
0100
0000
0100
1000
0100
0000
0100
,
0001
0000
0100
0000
1000
0000
0100
0000
0001
0000
1000
0000
0000
0001
0000
0000
,
1001
0000
0001
0000
0000
1000
0000
0000
1001
0000
1000
0000
0000
0001
0000
0000
,
1001
0100
0010
0001
1000
0100
0010
0001
,
1000
0010
0100
0001
2000
0000
0000
0000
,
3000
0000
0000
0000
;

//---------------dance-single - ----------------
#NOTEDATA:;
#CHARTNAME:;
#STEPSTYPE:dance-single;
#DESCRIPTION:;
#CHARTSTYLE:;
#DIFFICULTY:Medium;
#METER:5;
#RADARVALUES:0.340389,0.428058,0.022165,0.398967,0.088659,215.000000,213.000000,2.000000,36.000000,0.000000,0.000000,0.000000,0.000000,0.000000,0.340389,0.428058,0.022165,0.398967,0.088659,215.000000,213.000000,2.000000,36.000000,0.000000,0.000000,0.000000,0.000000,0.000000;
#CREDIT:;
#NOTES:
0000
0000
0000
0000
,
0000
0000
0000
0000
,
0000
0000
0000
0000
0000
0000
1000
0001
,
2000
0000
0000
3020
0000
0000
0000
0000
,
0130
0000
0001
0000
1000
0000
0001
1000
,
0002
0000
0000
0023
0000
0000
0000
0000
,
0130
0000
1000
0000
0001
0000
1000
0100
,
0020
0000
0000
0230
0000
0000
1300
0001
,
0200
0000
0000
0320
0000
0000
1030
0001
,
2000
0000
0000
0002
0000
0000
0000
0000
,
0000
0000
0000
3003
0000
1000
0100
0010
,
0002
0000
0000
0203
0000
0320
0000
1030
,
0200
0000
0000
0320
0000
0000
0031
0000
,
1000
0000
0000
0010
0000
0000
1000
0000
0001
0000
0000
0100
0000
0000
0001
0000
,
0020
0000
0000
0230
0000
1300
0001
1000
,
0001
0100
0000
0100
,
0000
0000
0000
0000
0100
0000
0000
0000
0000
0000
0001
0000
0000
1000
0000
0000
,
0001
0000
0010
0000
0100
1000
0001
0000
,
1000
0000
0010
0000
1000
0100
0010
0001
,
1000
0010
0000
0010
,
0000
0000
0000
0000
0010
0000
0000
0000
0000
0000
1000
0000
0000
0001
0000
0000
,
1000
0000
0100
0000
0010
0001
1000
0000
,
0001
0000
0100
0000
0001
0010
0100
1000
,
0001
0000
0000
0100
0000
0000
0001
0000
0000
0000
0000
0000
1001
0000
0000
0000
,
0000
0000
0000
1000
0000
0000
0100
0000
0000
0010
0000
0000
0001
0000
0000
0000
,
1000
0000
0000
0001
0000
0000
1000
0000
0010
0000
0100
0000
0001
0000
0000
0000
,
0000
0000
0000
0010
0000
0000
0100
0000
0000
1000
0000
0000
0001
0000
0000
0000
,
1000
0010
0000
0010
0000
0010
0000
0010
,
0000
0010
0000
0010
0000
0010
1000
0000
,
0001
0100
0000
0100
0010
0100
0000
0100
,
0001
1000
0100
0010
0001
1000
0001
1000
,
0002
0000
0000
0203
0000
0000
0000
0000
,
0310
0000
1000
0000
0001
0000
1000
0001
,
2000
0000
0000
3200
0000
0000
0000
0000
,
0310
0000
0001
0000
1000
0000
0001
0010
,
0200
0000
0000
0320
0000
0000
0031
1000
,
0020
0000
0000
0230
0000
0000
0301
1000
,
0002
0000
0000
0023
0000
0000
0000
0000
,
0130
0000
1000
0000
0001
1000
0100
0010
,
0002
0000
0000
0203
0000
0320
0000
1030
,
0200
0000
0000
0320
0000
0000
0030
0001
,
0001
0000
0000
0100
0000
0000
0001
0000
1000
0000
0000
0010
0000
0000
1000
0000
,
0200
0000
0000
0320
0000
0031
1000
0001
,
1000
0010
0000
0010
0000
0010
0000
0010
,
0000
0000
0010
0000
0000
0000
0010
0000
0000
0000
1000
0000
0000
0001
0000
0000
,
1000
0000
0100
0000
0010
0001
1000
0000
,
0001
0000
0100
0000
0001
0010
0100
1000
,
0001
0100
0000
0100
0010
0100
0000
0100
,
0001
0000
1000
0000
0100
0000
0010
0000
0000
0000
0001
0000
0000
1000
0000
0000
,
0001
0000
0100
0000
0000
0010
0000
0000
0100
0000
0001
0000
0000
1000
0000
0000
,
0002
0000
2003
0000
,
3001
1000
1001
0000
;

//---------------dance-single - ----------------
#NOTEDATA:;
#CHARTNAME:;
#STEPSTYPE:dance-single;
#DESCRIPTION:;
#CHARTSTYLE:;
#DIFFICULTY:Easy;
#METER:3;
#RADARVALUES:0.240647,0.313910,0.077577,0.155154,0.000000,152.000000,145.000000,7.000000,14.000000,0.000000,0.000000,0.000000,0.000000,0.000000,0.240647,0.313910,0.077577,0.155154,0.000000,152.000000,145.000000,7.000000,14.000000,0.000000,0.000000,0.000000,0.000000,0.000000;
#CREDIT:;
#NOTES:
0000
0000
0000
0000
,
0000
0000
0000
0000
,
0000
0000
0000
0000
,
1000
0001
2000
0000
,
3010
0000
0100
0000
,
0001
1000
0002
0000
,
0013
0000
0100
0000
,
1000
0001
1000
0000
,
0010
0100
0010
0000
,
2002
0000
0000
0000
,
0000
0000
3003
0000
,
1000
0100
0010
0001
,
0100
0010
1000
0000
,
0001
0010
0100
1000
,
0010
0100
0001
0000
,
1000
0100
0000
0100
,
0000
0100
0000
0010
,
0001
1000
0010
0100
,
0001
1000
0100
0010
,
0001
0100
0000
0100
,
0000
0100
0000
0010
,
1000
0001
0010
0100
,
1000
0001
0100
0010
,
1000
1000
1000
0000
,
0010
0100
0001
1000
,
0001
0001
0001
0000
,
0010
0100
1000
0001
,
0000
1000
0000
0001
0000
1000
0000
0001
,
0000
1000
0000
0001
0000
1000
0000
0000
,
0000
0010
0000
0100
0000
0010
0000
0100
,
0000
0010
0000
0100
0000
0001
0000
0000
,
1000
0001
2000
0000
,
3010
0000
0100
0000
,
0001
1000
0002
0000
,
0013
0000
0100
0000
,
1000
0001
1000
0000
,
0010
0100
0010
0000
,
1000
0001
2000
0000
,
3010
0000
0100
0001
,
2002
0000
0000
3003
,
0020
0000
0000
0030
,
2002
0000
0000
3003
,
1000
0001
1000
0001
,
0000
1000
0000
0001
0000
1000
0000
0001
,
0000
1000
0000
0001
0000
0000
0010
0000
,
0001
1000
0010
0100
,
0001
1000
0100
0010
,
0000
0001
0000
1000
0000
0001
0000
1000
,
0000
0001
0000
1000
0000
0000
0010
0000
,
1001
0010
1001
0010
,
1002
0000
2003
0000
,
3001
1000
1001
0000
;

//---------------dance-single - ----------------
#NOTEDATA:;
#CHARTNAME:;
#STEPSTYPE:dance-single;
#DESCRIPTION:;
#CHARTSTYLE:;
#DIFFICULTY:Beginner;
#METER:2;
#RADARVALUES:0.240647,0.313910,0.077577,0.155154,0.000000,152.000000,145.000000,7.000000,14.000000,0.000000,0.000000,0.000000,0.000000,0.000000,0.240647,0.313910,0.077577,0.155154,0.000000,152.000000,145.000000,7.000000,14.000000,0.000000,0.000000,0.000000,0.000000,0.000000;
#CREDIT:;
#NOTES:
// measure 0
0000
0000
0000
0000
,  // measure 1
0000
0000
0000
0000
,  // measure 2
0000
0000
0000
0000
,  // measure 3
1000
0001
2000
0000
,  // measure 4
3001
0000
1000
0000
,  // measure 5
0001
1000
0002
0000
,  // measure 6
1003
0000
1000
0000
,  // measure 7
1000
0001
1000
0000
,  // measure 8
0001
1000
0001
0000
,  // measure 9
2002
0000
0000
0000
,  // measure 10
0000
0000
3003
0000
,  // measure 11
1000
1000
0001
0001
,  // measure 12
1000
0001
1000
0000
,  // measure 13
0001
0001
1000
1000
,  // measure 14
0001
1000
0001
0000
,  // measure 15
1000
1000
0000
1000
,  // measure 16
0000
1000
0000
0001
,  // measure 17
0001
1000
0001
1000
,  // measure 18
0001
1000
1000
0001
,  // measure 19
0001
1000
0000
1000
,  // measure 20
0000
1000
0000
0001
,  // measure 21
1000
0001
0001
1000
,  // measure 22
1000
0001
1000
0001
,  // measure 23
1000
1000
1000
0000
,  // measure 24
0001
1000
0001
1000
,  // measure 25
0001
0001
0001
0000
,  // measure 26
0001
1000
1000
0001
,  // measure 27
0000
1000
0000
0001
0000
1000
0000
0001
,  // measure 28
0000
1000
0000
0001
0000
1000
0000
0000
,  // measure 29
0000
0001
0000
1000
0000
0001
0000
1000
,  // measure 30
0000
0001
0000
1000
0000
0001
0000
0000
,  // measure 31
1000
0001
2000
0000
,  // measure 32
3001
0000
1000
0000
,  // measure 33
0001
1000
0002
0000
,  // measure 34
1003
0000
1000
0000
,  // measure 35
1000
0001
1000
0000
,  // measure 36
0001
1000
0001
0000
,  // measure 37
1000
0001
2000
0000
,  // measure 38
3001
0000
1000
0001
,  // measure 39
2002
0000
0000
3003
,  // measure 40
0002
0000
0000
0003
,  // measure 41
2002
0000
0000
3003
,  // measure 42
1000
0001
1000
0001
,  // measure 43
0000
1000
0000
0001
0000
1000
0000
0001
,  // measure 44
0000
1000
0000
0001
0000
0000
0001
0000
,  // measure 45
0001
1000
0001
1000
,  // measure 46
0001
1000
1000
0001
,  // measure 47
0000
0001
0000
1000
0000
0001
0000
1000
,  // measure 48
0000
0001
0000
1000
0000
0000
0001
0000
,  // measure 49
1001
0001
1001
0001
,  // measure 50
1002
0000
2003
0000
,  // measure 51
3001
1000
1001
0000
;
