#VERSION:0.83;
#TITLE:Shake Your Booty;
#SUBTITLE:;
#ARTIST:OneTwo;
#TITLETRANSLIT:;
#SUBTITLETRANSLIT:;
#ARTISTTRANSLIT:;
#GENRE:;
#ORIGIN:;
#CREDIT:BadWolf;
#BANNER:Banner.PNG;
#BACKGROUND:A09.png;
#PREVIEWVID:;
#JACKET:;
#CDIMAGE:;
#DISCIMAGE:;
#LYRICSPATH:;
#CDTITLE:cdtitle.png;
#MUSIC:Shake Your Booty.ogg;
#OFFSET:0.360000;
#SAMPLESTART:12.884633;
#SAMPLELENGTH:13.241378;
#SELECTABLE:YES;
#BPMS:0.000=145.000;
#STOPS:;
#DELAYS:;
#WARPS:;
#TIMESIGNATURES:0.000=4=4;
#TICKCOUNTS:0.000=4;
#COMBOS:0.000=1;
#SPEEDS:0.000=1.000=0.000=0;
#SCROLLS:0.000=1.000;
#FAKES:;
#LABELS:0.000=Song Start;
#BGCHANGES:0.870=OneTwo Shake Your Booty cag13 Published on Sep 4 2006.mp4=1.000=0=0=1=====,
158.000=A09.png=1.000=0=0=1=====,
99999=-nosongbg-=1.000=0=0=0 // don't automatically add -songbackground-
;
#KEYSOUNDS:;
#ATTACKS:
;

//---------------pump-single - ----------------
#NOTEDATA:;
#CHARTNAME:;
#STEPSTYPE:pump-single;
#DESCRIPTION:;
#CHARTSTYLE:;
#DIFFICULTY:Challenge;
#METER:8;
#RADARVALUES:0.562740,0.696254,0.030655,0.061310,0.176267,257.000000,255.000000,2.000000,4.000000,0.000000,0.000000,0.000000,0.000000,0.000000,0.562740,0.696254,0.030655,0.061310,0.176267,257.000000,255.000000,2.000000,4.000000,0.000000,0.000000,0.000000,0.000000,0.000000;
#CREDIT:;
#NOTES:
00000
00000
00000
00000
,
00000
00000
00000
00000
,
00000
00000
00000
00000
,
00000
00000
00000
00000
,
20000
00000
00000
00000
,
30002
00000
00000
00000
,
02003
00000
03020
00000
,
10030
00000
00100
01000
00000
01000
00100
00000
00010
00000
00001
10000
00000
10000
00001
00000
,
10001
10000
00100
01000
00010
00100
00001
10000
,
00000
00001
00100
10000
00100
00001
10000
00000
,
00010
00100
00001
10000
00100
01000
00010
00000
,
10000
00100
00001
00100
10000
10000
00010
00010
,
00100
00001
10000
00100
01000
00010
00100
00001
,
00000
10000
00001
01000
00100
00010
00001
00000
,
01000
00100
00010
00100
01000
00010
10000
00000
,
00001
00000
00100
00010
00000
00010
00100
00000
01000
00000
10000
00100
00000
00100
10000
00000
,
00001
00010
00100
00010
00001
10000
00100
01000
,
00100
10000
00010
01000
00000
00001
00010
00100
,
01000
00100
10000
00010
00100
00001
00010
00100
,
01000
00100
00010
00001
00000
10000
00010
01000
,
00001
00100
10000
00100
00000
00001
01000
00010
,
10000
00100
00001
00100
00000
10000
01000
00100
,
00010
00000
01000
00100
00000
00100
00010
00000
00001
00000
10000
00100
00000
00100
01000
00000
,
00001
00000
10000
00100
10000
00000
00001
00100
00001
00000
01000
00100
01000
00000
00010
00100
,
00001
00010
00001
00100
00010
10000
00010
00100
,
10000
01000
10000
00100
00001
10000
00010
00000
,
10000
01000
10000
00100
01000
00001
01000
00100
,
00001
00010
00001
00100
10000
00001
01000
00000
,
00100
00100
10000
01000
00100
00100
00001
00010
,
00100
01000
10000
01000
00100
00010
00001
00000
,
00100
00100
00001
00010
00100
00100
10000
01000
,
10000
00000
00010
00100
00010
00000
01000
00100
01000
00000
00001
00100
00001
00000
10000
00100
,
01000
01000
00010
10000
00000
00001
00100
00000
,
00010
00010
01000
00001
00000
10000
00100
00000
,
01000
01000
00100
00010
00000
00001
10000
00000
,
00010
00000
00010
00000
00100
00000
01000
00000
00000
00000
10000
00000
00001
10000
00001
00000
,
01000
01000
00010
10000
00000
00001
00100
00000
,
00010
00010
01000
00001
00000
10000
00100
00000
,
01000
01000
00100
00010
00000
00001
10000
00000
,
00010
00000
00100
00001
00000
00001
10000
00000
10001
00000
00000
00000
00000
00000
00000
00000
;

//---------------pump-single - ----------------
#NOTEDATA:;
#CHARTNAME:;
#STEPSTYPE:pump-single;
#DESCRIPTION:;
#CHARTSTYLE:;
#DIFFICULTY:Hard;
#METER:2;
#RADARVALUES:0.113862,0.211903,0.000000,0.000000,0.000000,52.000000,52.000000,0.000000,0.000000,0.000000,0.000000,0.000000,0.000000,0.000000,0.113862,0.211903,0.000000,0.000000,0.000000,52.000000,52.000000,0.000000,0.000000,0.000000,0.000000,0.000000,0.000000,0.000000;
#CREDIT:;
#NOTES:
00000
00000
00000
00000
,
00000
00000
00000
00000
,
00000
00000
00000
00000
,
00000
00000
00000
00000
,
10000
00000
00000
00000
,
00001
00000
00000
00000
,
01000
00000
00000
00000
,
00010
00000
00000
00000
,
00100
00000
00000
00000
,
00001
00000
00001
00000
,
00100
00000
00000
00000
,
00010
00000
00010
00000
,
00100
00000
00000
00000
,
01000
00000
01000
00000
,
00100
00000
00000
00000
,
10000
00000
10000
00000
,
00001
00000
00001
00000
,
10000
00000
00000
00000
,
00010
00000
00010
00000
,
01000
00000
00000
00000
,
01000
00000
01000
00000
,
00010
00000
00000
00000
,
10000
00000
10000
00000
,
00001
00001
00001
00001
,
00100
00000
00000
00000
,
00001
00000
00001
00000
,
00100
00000
00000
00000
,
00010
00000
00010
00000
,
00100
00000
00000
00000
,
01000
00000
01000
00000
,
00100
00000
00000
00000
,
10000
00000
10000
00000
,
00001
00000
00000
00000
,
10000
00000
00000
00000
,
00010
00000
00000
00000
,
01000
00000
00000
00000
,
00100
00000
00000
00000
,
10000
00000
00000
00000
,
00001
00000
00000
00000
,
00100
00000
00100
00000
;

//---------------pump-single - ----------------
#NOTEDATA:;
#CHARTNAME:;
#STEPSTYPE:pump-single;
#DESCRIPTION:;
#CHARTSTYLE:;
#DIFFICULTY:Medium;
#METER:1;
#RADARVALUES:0.113862,0.211903,0.000000,0.000000,0.000000,52.000000,52.000000,0.000000,0.000000,0.000000,0.000000,0.000000,0.000000,0.000000,0.113862,0.211903,0.000000,0.000000,0.000000,52.000000,52.000000,0.000000,0.000000,0.000000,0.000000,0.000000,0.000000,0.000000;
#CREDIT:;
#NOTES:
// measure 0
00000
00000
00000
00000
,  // measure 1
00000
00000
00000
00000
,  // measure 2
00000
00000
00000
00000
,  // measure 3
00000
00000
00000
00000
,  // measure 4
10000
00000
00000
00000
,  // measure 5
00001
00000
00000
00000
,  // measure 6
10000
00000
00000
00000
,  // measure 7
00001
00000
00000
00000
,  // measure 8
10000
00000
00000
00000
,  // measure 9
00001
00000
00001
00000
,  // measure 10
10000
00000
00000
00000
,  // measure 11
00001
00000
00001
00000
,  // measure 12
10000
00000
00000
00000
,  // measure 13
10000
00000
10000
00000
,  // measure 14
00001
00000
00000
00000
,  // measure 15
10000
00000
10000
00000
,  // measure 16
00001
00000
00001
00000
,  // measure 17
10000
00000
00000
00000
,  // measure 18
00001
00000
00001
00000
,  // measure 19
10000
00000
00000
00000
,  // measure 20
10000
00000
10000
00000
,  // measure 21
00001
00000
00000
00000
,  // measure 22
10000
00000
10000
00000
,  // measure 23
00001
00001
00001
00001
,  // measure 24
10000
00000
00000
00000
,  // measure 25
00001
00000
00001
00000
,  // measure 26
10000
00000
00000
00000
,  // measure 27
00001
00000
00001
00000
,  // measure 28
10000
00000
00000
00000
,  // measure 29
10000
00000
10000
00000
,  // measure 30
00001
00000
00000
00000
,  // measure 31
10000
00000
10000
00000
,  // measure 32
00001
00000
00000
00000
,  // measure 33
10000
00000
00000
00000
,  // measure 34
00001
00000
00000
00000
,  // measure 35
10000
00000
00000
00000
,  // measure 36
00001
00000
00000
00000
,  // measure 37
10000
00000
00000
00000
,  // measure 38
00001
00000
00000
00000
,  // measure 39
10000
00000
00001
00000
;
