#TITLE:SMILE FOR YOU;
#SUBTITLE:;
#ARTIST:古川もとあき;
#TITLETRANSLIT:;
#SUBTITLETRANSLIT:;
#ARTISTTRANSLIT:Motoaki Furukawa;
#GENRE:;
#CREDIT:BadWolf;
#BANNER:SMILE FOR YOU.png;
#BACKGROUND:SMILE FOR YOU-bg.png;
#LYRICSPATH:;
#CDTITLE:cdtitle.png;
#MUSIC:SMILE FOR YOU.ogg;
#OFFSET:-0.300000;
#SAMPLESTART:26.719389;
#SAMPLELENGTH:10.401049;
#SELECTABLE:YES;
#BPMS:0.000000=190.000000
;
#STOPS:
;
#BGCHANGES:0.167=pack0211.AVI=1.000=0=0=1===CrossFade_Fastest==,
255.667=SMILE FOR YOU-bg.png=1.000=0=0=1===CrossFade_Fastest==,
99999=-nosongbg-=1.000=0=0=0 // don't automatically add -songbackground-
;
#KEYSOUNDS:;
#ATTACKS:;

//---------------dance-single - ----------------
#NOTES:
     dance-single:
     :
     Edit:
     10:
     0.842071,0.959157,0.276117,0.048020,1.536652,491.000000,468.000000,23.000000,4.000000,0.000000,0.000000,0.842071,0.959157,0.276117,0.048020,1.536652,491.000000,468.000000,23.000000,4.000000,0.000000,0.000000:
0000
0000
0000
0000
,
0000
0000
0000
0000
,
0000
0000
0000
0000
,
0000
0000
0000
0000
,
0000
0000
0000
0000
,
1000
0000
0000
0100
0000
0000
0010
0000
0001
1000
0000
0000
,
0010
0000
0010
0100
0000
0000
0001
0000
1000
0100
0000
1000
,
0001
0000
0000
0010
0000
0000
0100
0000
0100
1000
0000
0010
,
1000
0000
0001
1000
0000
0000
0100
0000
0010
0001
0000
0000
,
1000
0000
0000
0010
0000
0000
0100
0000
0001
1000
0000
0000
,
0100
0000
0100
0010
0000
0000
0001
0000
1000
0010
0000
1000
,
0001
0000
0000
0100
0000
0000
0010
0000
0010
1000
0000
0100
,
1000
0000
0001
1000
0000
0000
0010
0000
0100
0001
0000
0000
,
1000
0000
0000
0100
0000
0000
0010
0000
0001
1000
0000
0001
,
1000
0000
1000
0100
0000
0100
0010
0000
0000
0001
0000
0000
,
0100
0000
0000
0010
0000
0000
1000
0000
0100
0010
0000
0001
,
1000
0000
1000
0010
0000
0010
0100
0000
0000
0001
0000
0000
,
0010
0000
0100
1000
0000
0000
0010
0000
0100
0001
0000
0000
,
1000
0000
0100
0010
0000
0000
0001
0000
0100
0010
0000
0000
,
1000
0000
0001
0010
0100
1000
0001
0000
0001
1000
0000
1000
,
0001
0000
0000
0000
0000
0000
0110
0000
0000
0000
0000
1000
,
0000
0000
0001
1000
0000
0000
1010
0000
0000
0001
0000
0000
,
0011
0000
0000
0010
0000
0000
0110
0000
0000
1000
0000
1001
,
0000
0000
0001
1000
0001
1000
0010
0000
0100
0001
1000
0001
,
1000
0000
0100
0010
0001
0100
0001
1000
0010
1000
0000
1001
,
0000
0000
0001
1000
0000
0000
1100
0000
0000
0001
0000
0000
,
1000
0010
1000
0001
0100
0001
1000
0010
1000
0001
0000
1001
,
0000
0000
1000
0100
0000
0000
0010
0000
0001
1000
0000
1010
,
0000
0000
0010
0100
0000
0100
0001
0000
0001
1000
0000
0000
,
2002
0000
0000
3003
0000
1100
0000
0000
0101
0000
0000
0011
,
0000
0000
0001
1000
0000
1000
0010
0100
0001
0100
0010
1000
,
0002
0000
0000
0003
0000
0101
0000
0000
1100
0000
0000
1010
,
0000
0000
1000
0001
0000
0001
0010
0100
1000
0100
0010
0001
,
1000
0000
1000
0001
0000
0001
1000
0010
1000
0001
0100
0001
,
1000
0100
1000
0001
0010
0001
1000
0100
0010
0001
0010
0100
,
1000
0000
1000
0001
0000
0100
0001
0000
0001
1000
0000
0100
,
1000
0000
1000
0001
0000
1000
0001
1000
0001
1000
0001
1000
,
0001
0000
0010
0100
0000
1000
0001
0100
0010
0100
0001
1000
,
0100
0000
0010
0001
1000
0001
1000
0000
0001
1000
0000
0100
,
0010
0001
0010
0001
0010
0001
1000
0010
1000
0010
1000
0010
,
0100
0001
0100
0001
0100
0001
1000
0100
1000
0100
1000
0100
,
1000
0001
1000
0001
1000
0001
0100
0010
0100
0010
0100
0010
,
1000
0001
1000
0001
1000
0001
0010
0100
0010
0100
0010
0100
,
1000
0010
1000
0010
1000
0010
0001
0010
0001
0010
0001
0010
,
1000
0100
1000
0100
1000
0100
0010
0001
0010
0001
0000
1001
,
0000
0000
1000
0001
0000
0000
0100
0010
0100
0001
0100
0001
,
1000
0100
1000
0001
1000
0001
0100
0010
0100
0001
1000
0000
,
0001
0000
0000
1000
0000
0000
0100
0000
0010
0001
0000
0001
,
1000
0000
0010
0100
0010
0100
0001
0000
1000
0100
0010
0001
,
1000
0100
0000
0100
0000
0100
0000
0100
0000
0100
0000
0100
,
0020
0000
0000
0000
0000
0000
0031
1000
0001
1000
0001
0000
,
0000
0000
1000
0000
0000
0001
1000
0000
0000
0010
0000
0100
,
0001
0100
0001
0000
1000
0100
0010
0000
0001
0100
0001
1000
,
0001
0010
0001
0010
0001
0010
0100
1000
0100
1000
0100
1000
,
0010
0100
0010
0100
0010
0100
0001
1000
0001
1000
0001
1000
,
0100
0010
0100
0010
0100
0000
0000
0000
1000
0001
0000
0001
,
1000
0000
0010
1000
0100
1000
0001
0000
0010
0100
1000
0001
,
1000
0010
1000
0001
0100
0001
1000
0100
0010
0001
0010
0100
,
1000
0001
1000
0001
0000
0000
0010
0000
0100
1000
0000
0000
,
0001
0000
0001
1000
0000
1000
0100
0000
0010
0001
0000
0000
,
0100
0000
0100
0010
0000
0010
1000
0000
0001
1000
0000
0000
,
0010
0000
1000
0100
0000
0010
0001
0000
0001
1000
0000
0000
,
0001
0000
0100
0010
0100
0010
1000
0000
0001
0010
0100
1000
,
0000
1010
0000
0101
0000
0011
0000
1100
0000
1001
0000
0110
;

//---------------dance-single - ----------------
#NOTES:
     dance-single:
     :
     Challenge:
     9:
     0.589964,0.767325,0.276117,0.288122,0.840356,344.000000,321.000000,23.000000,24.000000,0.000000,0.000000,0.589964,0.767325,0.276117,0.288122,0.840356,344.000000,321.000000,23.000000,24.000000,0.000000,0.000000:
0000
0000
0000
0000
,
0000
0000
0000
0000
,
0000
0000
0000
0000
,
0000
0000
0000
0000
,
0000
0000
0000
0000
,
1000
0000
0000
0100
0000
0000
0010
0000
0001
1000
0000
0001
,
0000
0000
0100
0010
0000
0000
1000
0000
0000
1001
0000
0000
,
0001
0000
0000
0010
0000
0000
0100
0000
1000
0001
0000
1000
,
0000
0000
0010
0100
0000
0000
0001
0000
0000
1001
0000
0000
,
1000
0000
0000
0001
0000
0000
0010
0000
0100
1000
0000
0001
,
0000
0000
1000
0010
0000
0000
0100
0000
0000
0110
0000
0000
,
0001
0000
0000
1000
0000
0000
0100
0000
0010
0001
0000
1000
,
0000
0000
0001
0100
0000
0000
0010
0000
0000
0110
0000
0000
,
1000
0000
0000
0100
0000
0000
0010
0000
0010
0100
0000
0000
,
1000
0010
0001
0010
,
1000
0000
0000
0100
0000
0000
0010
0000
0010
0001
0000
0000
,
0100
1000
0100
0001
,
1000
0000
1000
0001
0000
0001
0010
0000
0000
0100
0000
1000
,
0001
0000
0000
1000
0000
0010
0100
0000
0000
0001
0000
0000
,
1000
0000
0100
0010
0100
0010
0001
0000
0001
1000
0000
1000
,
0001
0000
0000
0000
0000
0000
1001
0000
0000
0000
0000
1000
,
0000
0000
0001
0100
0000
0000
0010
0000
0000
0110
0000
0000
,
1000
0000
0000
1001
0000
0000
0001
0000
0010
0100
0000
2000
,
0000
0000
0000
0000
0000
0000
0000
3010
0000
0100
0000
0020
,
0000
0000
0000
0000
0000
0230
0000
0000
0000
0000
0000
0301
,
0000
0000
1000
0100
0000
0000
0010
0000
0000
0110
0000
0000
,
0001
0000
0000
1001
0000
0000
1000
0100
0010
0001
1000
0002
,
0000
0000
0000
0000
0000
0000
0000
0103
0000
0010
0200
0000
,
0000
0000
0000
0000
0000
0320
0000
0000
0000
0000
0000
0000
,
2030
0000
0000
3000
0000
1100
0000
0000
1001
0000
0000
0102
,
0000
0023
0230
2300
,
3002
0000
0000
0003
0000
0101
0000
0000
1001
0000
0000
2100
,
0000
3002
0203
0320
,
1030
0000
0000
0100
0000
0010
0001
0010
0001
1000
0000
0001
,
1000
0001
1000
0001
0000
0100
0010
0100
0010
0100
0000
0001
,
1000
0000
1000
0100
0000
0000
0010
0000
0001
1000
0000
2002
,
0000
0000
0000
0000
3003
0000
1000
0001
1000
0001
1000
0001
,
1000
0000
0010
0100
0000
0020
0000
0000
0000
0100
0000
0000
,
0100
0000
0000
0100
0000
0000
0130
0000
1000
0001
0000
0000
,
1000
0100
1000
0100
0000
0100
0000
0100
0000
0100
0000
0100
,
0000
0010
0000
0010
0000
0010
0000
0010
0000
0010
0000
0011
,
0000
0001
0000
0001
0000
0001
0000
0001
0000
0001
0000
0001
,
0000
1000
0000
1000
0000
1000
0000
1000
0000
1000
0000
1010
,
0000
0010
0000
0010
0000
0010
0000
0010
0000
0010
0000
0010
,
0000
0100
0000
0100
0000
0100
0000
0100
0000
0100
0000
0110
,
0000
0000
1000
0001
0000
0000
0010
0000
0100
1000
0000
0000
,
0010
0000
0100
0001
0000
0000
1000
0000
0100
0010
0000
0010
,
0001
0000
1000
0001
0000
0000
0100
0000
0010
1000
0000
0001
,
1000
0000
0100
0010
0100
0010
0001
0000
0001
1000
0000
1000
,
0001
0100
0000
0100
0000
0100
0000
0100
0000
0100
0000
0100
,
0002
0000
0000
0000
0000
0000
1003
0001
1000
0001
1000
0000
,
0000
0000
0000
0000
0000
0000
0001
0000
0000
0010
0000
0100
,
1000
0100
1000
0001
0000
0001
1000
0000
1000
0010
0000
0010
,
0200
0000
0302
0000
,
2003
0000
3200
0000
,
0310
0000
0010
0001
0000
0000
0100
0000
0000
0010
0000
0000
,
1000
0000
0001
1000
0000
0000
0100
0000
0100
0010
0000
0010
,
0001
0000
1000
0001
0000
0000
0100
0000
0010
1000
0000
0000
,
0001
0000
0001
0010
0000
0010
0100
0000
0100
1000
0000
0000
,
0010
0000
0010
1000
0000
0000
0100
0000
0000
0010
0000
0000
,
0001
0000
1000
0001
0000
0000
0100
0000
0100
0010
0000
0010
,
1000
0000
0001
1000
0000
0000
0100
0000
0010
0001
0000
0000
,
1000
0000
0001
1000
0001
1000
0001
0000
0100
0010
0100
0000
,
0000
0001
0000
0101
0000
0101
0000
1000
0000
1001
0000
1001
;

//---------------dance-single - ----------------
#NOTES:
     dance-single:
     :
     Hard:
     7:
     0.451048,0.613860,0.120051,0.144061,0.360153,263.000000,253.000000,10.000000,12.000000,0.000000,0.000000,0.451048,0.613860,0.120051,0.144061,0.360153,263.000000,253.000000,10.000000,12.000000,0.000000,0.000000:
0000
0000
0000
0000
,
0000
0000
0000
0000
,
0000
0000
0000
0000
,
0000
0000
0000
0000
,
0000
0000
0000
0000
,
1000
0100
0010
0100
,
1000
0000
0000
0010
0000
0000
1000
0000
0001
1000
0000
0000
,
0001
0010
0100
0010
,
0001
0000
0000
0100
0000
0000
0001
0000
1000
0001
0000
0000
,
0010
0100
1000
0001
,
0100
0000
0000
0010
0000
0000
1000
0000
0001
1000
0000
0000
,
0100
0010
0001
1000
,
0010
0000
0000
0100
0000
0000
0001
0000
1000
0001
0000
0000
,
1000
0100
0001
0100
,
1000
0000
0000
0010
0000
0000
0100
0000
0001
1000
0000
0000
,
0001
0010
1000
0010
,
0001
0000
0000
0100
0000
0000
0010
0000
1000
0001
0000
0000
,
0010
0010
0100
0010
,
0001
0100
0010
1000
,
0100
0100
0010
0100
,
1001
0000
0000
0000
0000
0000
0110
0000
0000
0000
0000
1000
,
0000
0000
0001
0000
0000
0000
1000
0000
0000
0100
0000
0000
,
0010
0000
0000
0001
0000
0000
1000
0000
0000
0001
0000
2000
,
0000
0000
0000
0000
0000
0000
0000
3001
0000
0100
0000
0002
,
0000
0000
0000
0000
0000
0023
0000
0000
0000
0000
0000
0031
,
0000
0000
1000
0000
0000
0000
0001
0000
0000
0100
0000
0000
,
0010
0000
0000
1000
0000
0000
0001
0000
0000
1000
0000
0002
,
0000
0000
0000
0000
0000
0000
0000
1003
0000
0100
0000
2000
,
0000
0000
0000
0000
0000
3020
0000
0000
0000
0000
0000
0000
,
1030
0000
0000
0000
0000
1001
0000
0000
0110
0000
0000
1001
,
0000
1000
0100
0010
,
0001
0000
0000
0000
0000
1001
0000
0000
0110
0000
0000
1001
,
0000
0100
0010
1000
,
0001
0000
0000
0010
0000
0000
0100
0000
1000
0100
0000
0000
,
1000
0000
0000
0010
0000
0000
0100
0000
0001
0100
0000
0000
,
0010
0000
0000
1000
0000
0000
0001
0000
0010
0100
0000
2000
,
0000
0000
0000
0000
0000
0000
3001
0000
1000
0001
0000
1000
,
0001
0000
0001
0100
0000
0000
0002
0000
0000
0010
0000
0000
,
0010
0000
0000
0100
0000
0000
0103
0000
0001
1000
0000
0000
,
0100
0100
0010
0010
,
0001
0001
1000
1000
,
1001
0001
0010
0100
,
1000
0000
0000
0010
0000
0000
0100
0000
0000
0001
0000
1000
,
0000
0100
0010
0001
,
0100
0000
0000
0010
0000
0000
1000
0000
0000
0001
0000
1000
,
0000
0000
0001
1000
0000
0000
0001
0000
0000
0010
0000
0000
,
1000
0010
0001
1000
,
2002
0000
0000
3003
,
1000
0000
1000
0001
0000
0001
1000
0000
1000
0001
0000
0001
,
1000
0010
0000
0010
0000
0010
0000
0010
0000
0010
0000
0010
,
2000
0000
3002
0000
,
0003
0000
1000
0100
,
0010
0000
0000
0001
0000
0000
1000
0000
1000
0001
0000
0001
,
1000
0010
0001
0010
,
1000
0100
0001
0100
,
1000
0000
0001
1000
0000
0000
0000
0000
0000
0010
0000
0010
,
1000
0000
0000
0100
0000
0010
0001
0000
0100
0001
0000
1000
,
0001
0010
1000
0010
,
0001
0000
0000
0100
0000
0000
0010
0000
1000
0001
0000
0000
,
0010
0000
0000
0100
0000
0000
1000
0000
0001
1000
0000
0000
,
0100
0000
0000
0010
0000
0000
0001
0000
1000
0001
0000
0000
,
0100
0100
0010
0010
,
1000
0000
1000
0001
0000
0001
1000
0000
1000
0001
0000
0000
,
0000
1000
0000
0010
0000
0001
0000
1000
0000
0100
0000
0001
;

//---------------dance-single - ----------------
#NOTES:
     dance-single:
     :
     Medium:
     5:
     0.355008,0.383663,0.060025,0.144061,0.060025,207.000000,202.000000,5.000000,12.000000,0.000000,0.000000,0.355008,0.383663,0.060025,0.144061,0.060025,207.000000,202.000000,5.000000,12.000000,0.000000,0.000000:
0000
0000
0000
0000
,
0000
0000
0000
0000
,
0000
0000
0000
0000
,
0000
0000
0000
0000
,
0000
0000
0000
0000
,
1000
0010
1000
0010
,
0100
0001
1000
0001
,
0010
0100
0010
0100
,
1000
0001
1000
0000
,
0001
0100
0001
0100
,
0010
1000
0001
1000
,
0100
0010
0100
0010
,
0001
1000
0001
0000
,
2000
0100
0010
3100
,
0002
0010
0100
0013
,
1000
0100
0010
0001
,
0100
0010
1000
0001
,
1000
1000
0001
0001
,
0010
0100
1000
0001
,
1000
0100
0010
0001
,
1001
0000
0110
0000
,
1000
1000
0001
0001
,
1000
0100
0010
0001
,
2000
0000
0000
0000
,
3002
0000
0000
0000
,
1003
1000
0001
0001
,
1000
0010
0100
0001
,
2000
0000
0000
0000
,
3002
0000
0000
0000
,
1003
0000
0000
0000
0000
0010
0000
0000
0010
0000
0000
0010
,
0000
1000
0100
0010
,
0001
0000
0000
0000
0000
0100
0000
0000
0100
0000
0000
0100
,
0000
0001
0010
0100
,
2000
0000
3002
0000
,
0203
0000
0320
0000
,
1030
1000
0100
0010
,
0001
0100
0001
0001
,
1000
1001
0000
0000
,
0000
0000
0000
0001
,
1000
0100
0010
0001
,
1000
0001
0010
0100
,
1000
1000
0010
0010
,
0100
0100
0001
0001
,
1000
1000
0100
0100
,
0010
0010
0001
0001
,
1000
0001
1000
0001
,
0100
0010
0100
0010
,
1000
0001
0010
0100
,
2000
0000
3002
0000
,
1003
0010
0001
0010
,
1001
0000
0110
0000
,
0000
0000
0001
0010
,
0100
0010
0001
0000
,
1000
1000
0001
0001
,
0100
0100
0010
0010
,
1000
0100
0000
1000
,
0010
1000
0100
0010
,
0001
0100
0001
0010
,
1000
0010
0001
0000
,
1000
0010
0100
0001
,
1000
0100
0010
0001
,
0100
0100
0010
0010
,
1000
0001
1000
0001
,
0000
1000
0000
0001
0000
1000
0000
0001
0000
1000
0000
0001
;

//---------------dance-single - ----------------
#NOTES:
     dance-single:
     :
     Easy:
     2:
     0.121766,0.191581,0.012005,0.036015,0.000000,71.000000,70.000000,1.000000,3.000000,0.000000,0.000000,0.121766,0.191581,0.012005,0.036015,0.000000,71.000000,70.000000,1.000000,3.000000,0.000000,0.000000:
0000
0000
0000
0000
,
0000
0000
0000
0000
,
0000
0000
0000
0000
,
0000
0000
0000
0000
,
0000
0000
0000
0000
,
1000
0000
0000
0000
,
0001
0000
0000
0000
,
1000
0000
0000
0000
,
0001
0000
0000
0000
,
0100
0000
0000
0000
,
0010
0000
0000
0000
,
0100
0000
0000
0000
,
0010
0000
0000
0000
,
1000
0000
0000
0000
,
0100
0000
0000
0000
,
0010
0000
0000
0000
,
0001
0000
0000
0000
,
0100
0000
0000
0000
,
0010
0000
0000
0000
,
1000
0000
0000
0000
,
0001
0000
1000
0000
,
0001
0000
0001
0000
,
1000
0000
1000
0000
,
0010
0000
0000
0000
,
0100
0000
0000
0000
,
0001
0000
0001
0000
,
1000
0000
1000
0000
,
0100
0000
0000
0000
,
0010
0000
0000
0000
,
0001
0000
0000
0000
,
1000
0000
0000
0000
,
0001
0000
0000
0000
,
1000
0000
0000
0000
,
0010
0000
0000
0000
,
0100
0000
0000
0000
,
0010
0000
0000
0000
,
0100
0000
0000
0000
,
0001
0000
0000
0000
,
0000
0000
0000
0000
,
1000
0000
1000
0000
,
1000
0000
1000
0000
,
0001
0000
0001
0000
,
0001
0000
0001
0000
,
0100
0000
0100
0000
,
0010
0000
0010
0000
,
1000
0000
0000
0000
,
0001
0000
0000
0000
,
0010
0000
0000
0000
,
0100
0000
0000
0000
,
2000
0000
0000
0000
,
3000
0000
0001
0000
,
0000
0000
1000
0000
,
1000
0000
0001
0000
,
0001
0000
0000
0000
,
1000
0000
0000
0000
,
0001
0000
0000
0000
,
1000
0000
0000
0000
,
0010
0000
0000
0000
,
0100
0000
0000
0000
,
0010
0000
0000
0000
,
0100
0000
0000
0000
,
0001
0000
0000
0000
,
1000
0000
0000
0000
,
2002
0000
0000
0000
0000
0000
0000
0000
0000
0000
3003
0000
;

//---------------dance-single - ----------------
#NOTES:
     dance-single:
     :
     Beginner:
     1:
     0.121766,0.191581,0.012005,0.036015,0.000000,71.000000,70.000000,1.000000,3.000000,0.000000,0.000000,0.121766,0.191581,0.012005,0.036015,0.000000,71.000000,70.000000,1.000000,3.000000,0.000000,0.000000:
// measure 0
0000
0000
0000
0000
,  // measure 1
0000
0000
0000
0000
,  // measure 2
0000
0000
0000
0000
,  // measure 3
0000
0000
0000
0000
,  // measure 4
0000
0000
0000
0000
,  // measure 5
1000
0000
0000
0000
,  // measure 6
0001
0000
0000
0000
,  // measure 7
1000
0000
0000
0000
,  // measure 8
0001
0000
0000
0000
,  // measure 9
1000
0000
0000
0000
,  // measure 10
0001
0000
0000
0000
,  // measure 11
1000
0000
0000
0000
,  // measure 12
0001
0000
0000
0000
,  // measure 13
1000
0000
0000
0000
,  // measure 14
1000
0000
0000
0000
,  // measure 15
0001
0000
0000
0000
,  // measure 16
0001
0000
0000
0000
,  // measure 17
1000
0000
0000
0000
,  // measure 18
0001
0000
0000
0000
,  // measure 19
1000
0000
0000
0000
,  // measure 20
0001
0000
1000
0000
,  // measure 21
0001
0000
0001
0000
,  // measure 22
1000
0000
1000
0000
,  // measure 23
0001
0000
0000
0000
,  // measure 24
1000
0000
0000
0000
,  // measure 25
0001
0000
0001
0000
,  // measure 26
1000
0000
1000
0000
,  // measure 27
1000
0000
0000
0000
,  // measure 28
0001
0000
0000
0000
,  // measure 29
0001
0000
0000
0000
,  // measure 30
1000
0000
0000
0000
,  // measure 31
0001
0000
0000
0000
,  // measure 32
1000
0000
0000
0000
,  // measure 33
0001
0000
0000
0000
,  // measure 34
1000
0000
0000
0000
,  // measure 35
0001
0000
0000
0000
,  // measure 36
1000
0000
0000
0000
,  // measure 37
0001
0000
0000
0000
,  // measure 38
0000
0000
0000
0000
,  // measure 39
1000
0000
1000
0000
,  // measure 40
1000
0000
1000
0000
,  // measure 41
0001
0000
0001
0000
,  // measure 42
0001
0000
0001
0000
,  // measure 43
1000
0000
1000
0000
,  // measure 44
0001
0000
0001
0000
,  // measure 45
1000
0000
0000
0000
,  // measure 46
0001
0000
0000
0000
,  // measure 47
0001
0000
0000
0000
,  // measure 48
1000
0000
0000
0000
,  // measure 49
2000
0000
0000
0000
,  // measure 50
3000
0000
0001
0000
,  // measure 51
0000
0000
1000
0000
,  // measure 52
1000
0000
0001
0000
,  // measure 53
0001
0000
0000
0000
,  // measure 54
1000
0000
0000
0000
,  // measure 55
0001
0000
0000
0000
,  // measure 56
1000
0000
0000
0000
,  // measure 57
0001
0000
0000
0000
,  // measure 58
1000
0000
0000
0000
,  // measure 59
0001
0000
0000
0000
,  // measure 60
1000
0000
0000
0000
,  // measure 61
0001
0000
0000
0000
,  // measure 62
1000
0000
0000
0000
,  // measure 63
2002
0000
0000
0000
0000
0000
0000
0000
0000
0000
3003
0000
;
