#TITLE:SINOBUZ Fantasy;
#SUBTITLE:;
#ARTIST:Noria;
#TITLETRANSLIT:;
#SUBTITLETRANSLIT:;
#ARTISTTRANSLIT:;
#GENRE:;
#CREDIT:BadWolf;
#BANNER:SINOBUZ Fantasy.png;
#BACKGROUND:SINOBUZ Fantasy-bg.png;
#LYRICSPATH:;
#CDTITLE:cdtitle.png;
#MUSIC:SINOBUZ Fantasy.ogg;
#OFFSET:0.000000;
#SAMPLESTART:60.594830;
#SAMPLELENGTH:10.105267;
#SELECTABLE:YES;
#BPMS:0.000000=190.000000
;
#STOPS:
;
#KEYSOUNDS:;
#ATTACKS:;

//---------------dance-single - ----------------
#NOTES:
     dance-single:
     :
     Challenge:
     15:
     0.877410,0.977116,0.558352,0.031906,0.350964,770.000000,700.000000,70.000000,4.000000,0.000000,0.000000,0.877410,0.977116,0.558352,0.031906,0.350964,770.000000,700.000000,70.000000,4.000000,0.000000,0.000000:
0000
0000
0000
0000
,
0000
0000
0000
0000
,
0000
0000
0000
0000
,
0000
0000
0000
0000
,
1000
0000
0001
0100
0001
0000
0000
1000
,
0100
0010
0100
1000
0010
0100
0010
0100
,
0001
0000
1000
0100
1000
0001
1000
0000
,
1001
0000
0000
0000
0001
0100
0001
0100
0010
1000
0010
1000
0001
0000
1000
0000
,
0000
0000
0100
0000
0010
0000
0001
1000
0001
1000
0010
1000
0010
0000
0100
0000
,
0001
0000
0010
0000
0100
0000
1000
0000
0000
0000
0001
1000
0001
1000
0010
0100
,
0001
0100
0001
0100
0010
1000
0010
1000
0100
0000
0010
0000
0001
0000
1000
0000
,
0000
1010
0000
0011
0000
0101
0000
1100
,
0000
0000
1000
0001
0100
0000
0010
0000
1000
0100
1000
0100
0010
0001
0010
0001
,
1000
0001
0100
0010
0000
1000
0001
0010
,
0100
1000
0100
1000
0100
1000
0100
0000
0010
0000
0001
0000
1000
0000
0001
0000
,
0000
1001
1001
1001
0000
0000
1000
0000
,
1001
0000
0001
0100
0000
0100
0010
0000
,
1000
1000
0100
0010
0000
0010
0001
0000
,
1000
0000
0010
0100
0000
0100
0001
0000
,
0010
0010
0100
1000
0000
1000
0010
1000
,
0001
0000
0010
0100
0000
0100
1000
0000
,
0010
0010
0100
0000
0001
1000
0100
0000
,
0010
0010
0001
1000
0100
0100
0010
0001
,
1000
0000
0010
0000
0001
0000
0010
0000
1000
0000
0001
0010
0100
1000
0001
1000
,
0001
0100
0010
0100
0001
1000
0100
0000
,
0010
0001
1000
0010
0001
0010
1000
0000
,
0100
0010
0001
1000
0010
0100
0001
0000
,
0010
0010
0100
1000
0000
0001
1000
0000
,
0001
0000
0100
0010
0000
0010
1000
0000
,
0100
0100
0010
0001
1000
0010
0001
0010
,
1000
0000
0100
0010
0001
0000
1000
0000
0001
0010
0100
0000
1000
0000
0010
0100
,
0001
0000
0010
0000
0100
1000
0001
0000
1000
0010
1000
0010
0100
0001
0100
0001
,
1000
0100
0010
0001
0000
1000
0010
0100
,
0010
0001
0010
0100
0001
1000
0100
0010
,
0001
0100
0010
0100
0001
0100
1000
0100
,
0001
0010
0100
1000
0000
1000
0001
0000
,
1000
0010
0100
0010
0000
1000
0001
0000
,
0010
0000
0100
1000
0000
1000
0001
0000
,
1000
0010
0100
0001
0000
1000
0100
0000
,
0010
0010
0001
0100
1000
0100
0001
1000
,
0001
0010
0100
1000
0100
0010
0001
1000
,
0001
0100
0010
1000
0000
1000
0001
0010
,
0001
0100
0010
1000
0010
0100
0001
1000
,
0001
0010
0010
0100
1000
0010
0001
0010
,
1000
0100
0100
0010
0001
0100
0010
1000
,
0001
0010
0010
0100
1000
0010
0100
0001
,
0011
1010
1100
0101
,
2001
0000
0000
0010
0000
0010
3000
0000
,
0011
0000
0011
0000
0010
0100
1000
0100
,
0110
0000
0110
0000
0010
0001
1000
0001
,
1001
1001
1100
0101
,
1001
0000
0001
0010
0100
0000
1000
0001
,
1000
0000
0010
0100
0010
0000
1000
0000
0000
0000
0001
0010
0100
0000
1000
0000
,
0001
0000
0100
0010
0100
0000
0001
0000
0000
0000
1000
0100
0010
0001
0010
0001
,
1000
0010
0100
0010
0001
0010
0100
0010
,
1000
0100
0100
0001
0100
1000
0010
0100
,
0101
0000
0101
0000
0100
0010
1000
0010
,
0110
0000
0110
0000
0100
0001
1000
0001
,
1001
1001
1010
0011
,
1001
0000
0001
0100
0010
0000
1000
0001
,
1000
0000
0100
0010
0100
0000
1000
0000
0000
0000
0001
0100
0010
0000
1000
0000
,
0001
0000
0010
0100
0010
0000
0001
0000
0000
0000
1000
0010
0100
0001
0100
0001
,
1000
0100
0010
0100
0001
0100
0010
0100
,
1000
0010
0010
0001
0010
1000
0100
0010
,
0011
0011
0000
1100
1100
0000
1001
1001
,
0000
0000
0101
0000
0001
0100
0001
0100
0010
1000
0010
1000
0001
0000
1000
0000
,
0000
0000
0100
0000
0010
0000
0001
1000
0001
1000
0010
1000
0010
0000
0100
0000
,
0001
0000
0010
0000
0100
0000
1000
0000
0000
0000
0001
1000
0001
1000
0010
0100
,
0001
0100
0001
0100
0010
1000
0010
1000
0100
0000
0010
0000
0001
0000
1000
0000
,
0000
1010
0000
0011
0000
0101
0000
1100
,
0000
0000
1000
0001
0100
0000
0010
0000
1000
0100
1000
0100
0010
0001
0010
0001
,
1000
0001
0100
0010
0000
1000
0001
0010
,
0100
1000
0100
1000
0100
1000
0100
0000
0010
0000
0001
0000
1000
0000
0001
0000
,
0100
0010
0100
0010
0100
0010
0100
0000
0001
0000
1000
0000
0100
0000
0010
0000
,
0000
0000
0001
0000
0100
0000
0001
0000
0010
0100
1000
0001
1000
0000
0001
0000
,
1000
0000
0010
0100
0001
1000
0100
0010
0001
0000
1000
0000
0001
0000
1001
0000
,
0000
0000
1100
0000
0100
0010
0001
0010
,
0110
0000
0110
0000
0100
1000
0001
1000
,
1001
1001
0011
1010
,
1001
0000
1000
0100
0010
0000
0001
1000
,
0001
0000
0100
0010
0100
0000
0001
0000
0000
0000
1000
0100
0010
0000
0001
0000
,
1000
0000
0010
0100
0010
0000
1000
0000
0000
0000
0001
0010
0100
1000
0100
1000
,
0001
0100
0010
0100
1000
0100
0010
0100
,
0001
0010
0010
1000
0010
0001
0100
0010
,
1010
0000
1010
0000
0010
0100
0001
0100
,
0110
0000
0110
0000
0010
1000
0001
1000
,
1001
1001
0101
1100
,
1001
0000
1000
0010
0100
0000
0001
1000
,
0001
0000
0010
0100
0010
0000
0001
0000
0000
0000
1000
0010
0100
0000
0001
0000
,
1000
0000
0100
0010
0100
0000
1000
0000
0000
0000
0001
0100
0010
1000
0010
1000
,
0001
0010
0100
0010
1000
0010
0100
0010
,
0001
0100
0100
1000
0100
0001
0010
0100
,
1000
0010
0100
0010
0001
0010
0100
0010
,
1000
0100
0100
0001
0100
1000
0010
0100
,
0101
0101
0000
1010
1010
0000
1001
1001
,
0000
0000
0110
0000
0110
0000
0000
0000
0001
0000
0000
1000
0001
0000
2002
0000
,
0000
0000
0000
0000
,
0000
0003
3200
0000
,
0310
0000
0000
0000
;

//---------------dance-single - ----------------
#NOTES:
     dance-single:
     :
     Easy:
     4:
     0.166366,0.273592,0.000000,0.023929,0.000000,146.000000,146.000000,0.000000,3.000000,0.000000,0.000000,0.166366,0.273592,0.000000,0.023929,0.000000,146.000000,146.000000,0.000000,3.000000,0.000000,0.000000:
0000
0000
0000
0000
,
0000
0000
0000
0000
,
0000
0000
0000
0000
,
0000
0000
0000
0000
,
1000
0000
0001
0000
,
1000
0000
0001
0000
,
0100
0000
0010
0000
,
1000
0000
0000
0000
,
0001
0000
0001
0000
,
0010
0000
0010
0000
,
0100
0000
0000
0000
,
1000
0000
0000
0000
,
0001
0000
0001
0000
,
0100
0000
0100
0000
,
0010
0000
0000
0000
,
1000
0000
0000
0000
,
0100
0000
0000
0000
,
0010
0000
0000
0000
,
0100
0000
0000
0000
,
0010
0000
0000
0000
,
0001
0000
0000
0000
,
1000
0000
0000
0000
,
0001
0000
0000
0000
,
1000
0000
0000
0000
,
0001
0000
1000
0000
,
0001
0000
0000
0000
,
1000
0000
0001
0000
,
1000
0000
0000
0000
,
0010
0000
0100
0000
,
0010
0000
0000
0000
,
1000
0000
1000
0000
,
0001
0000
0001
0000
,
1000
0000
0000
0000
,
0001
0000
0000
0000
,
1000
0000
0000
0000
,
0001
0000
0000
0000
,
0100
0000
0000
0000
,
0010
0000
0000
0000
,
0100
0000
0000
0000
,
0010
0000
0000
0000
,
1000
0000
0000
0000
,
0100
0000
0000
0000
,
0010
0000
0000
0000
,
0001
0000
0000
0000
,
1000
0000
1000
0000
,
0001
0000
0001
0000
,
1000
1000
1000
1000
,
1000
0000
0000
0000
,
0010
0000
0010
0000
,
0010
0000
0010
0000
,
0100
0000
0100
0000
,
0100
0000
0100
0000
,
0001
0000
1000
0000
,
0001
0000
1000
0000
,
0010
0000
0010
0000
,
0100
0000
0100
0000
,
0001
0000
0001
0000
,
0001
0000
0001
0000
,
1000
0000
1000
0000
,
1000
0000
1000
0000
,
0100
0000
0010
0000
,
0100
0000
0010
0000
,
0001
0000
0001
0000
,
1000
0000
1000
0000
,
0002
0000
0000
0000
,
0003
0000
0000
0000
,
1000
0000
1000
0000
,
0100
0000
0100
0000
,
0010
0000
0000
0000
,
0001
0000
0000
0000
,
1000
0000
1000
0000
,
0010
0000
0010
0000
,
0100
0000
0000
0000
,
0001
0000
0000
0000
,
1000
0000
0000
0000
,
0001
0000
0000
0000
,
0100
0000
0100
0000
,
0100
0000
0100
0000
,
0010
0000
0010
0000
,
0010
0000
0010
0000
,
1000
0000
0001
0000
,
1000
0000
0001
0000
,
0100
0000
0100
0000
,
0010
0000
0010
0000
,
1000
0000
1000
0000
,
1000
0000
1000
0000
,
0001
0000
0001
0000
,
0001
0000
0001
0000
,
0010
0000
0100
0000
,
0010
0000
0100
0000
,
1000
0000
1000
0000
,
0001
0000
0001
0000
,
0100
0000
0100
0000
,
0010
0000
0010
0000
,
2000
0000
0000
0000
,
3000
0000
0000
0000
,
0002
0000
0000
0000
,
0000
0000
0000
0000
,
0003
0000
0000
0000
;

//---------------dance-single - ----------------
#NOTES:
     dance-single:
     :
     Beginner:
     1:
     0.166366,0.273592,0.000000,0.023929,0.000000,146.000000,146.000000,0.000000,3.000000,0.000000,0.000000,0.166366,0.273592,0.000000,0.023929,0.000000,146.000000,146.000000,0.000000,3.000000,0.000000,0.000000:
// measure 0
0000
0000
0000
0000
,  // measure 1
0000
0000
0000
0000
,  // measure 2
0000
0000
0000
0000
,  // measure 3
0000
0000
0000
0000
,  // measure 4
1000
0000
0001
0000
,  // measure 5
1000
0000
0001
0000
,  // measure 6
1000
0000
0001
0000
,  // measure 7
1000
0000
0000
0000
,  // measure 8
0001
0000
0001
0000
,  // measure 9
0001
0000
0001
0000
,  // measure 10
1000
0000
0000
0000
,  // measure 11
1000
0000
0000
0000
,  // measure 12
0001
0000
0001
0000
,  // measure 13
1000
0000
1000
0000
,  // measure 14
0001
0000
0000
0000
,  // measure 15
1000
0000
0000
0000
,  // measure 16
1000
0000
0000
0000
,  // measure 17
0001
0000
0000
0000
,  // measure 18
1000
0000
0000
0000
,  // measure 19
0001
0000
0000
0000
,  // measure 20
0001
0000
0000
0000
,  // measure 21
1000
0000
0000
0000
,  // measure 22
0001
0000
0000
0000
,  // measure 23
1000
0000
0000
0000
,  // measure 24
0001
0000
1000
0000
,  // measure 25
0001
0000
0000
0000
,  // measure 26
1000
0000
0001
0000
,  // measure 27
1000
0000
0000
0000
,  // measure 28
0001
0000
1000
0000
,  // measure 29
0001
0000
0000
0000
,  // measure 30
1000
0000
1000
0000
,  // measure 31
0001
0000
0001
0000
,  // measure 32
1000
0000
0000
0000
,  // measure 33
0001
0000
0000
0000
,  // measure 34
1000
0000
0000
0000
,  // measure 35
0001
0000
0000
0000
,  // measure 36
1000
0000
0000
0000
,  // measure 37
0001
0000
0000
0000
,  // measure 38
1000
0000
0000
0000
,  // measure 39
0001
0000
0000
0000
,  // measure 40
1000
0000
0000
0000
,  // measure 41
1000
0000
0000
0000
,  // measure 42
0001
0000
0000
0000
,  // measure 43
0001
0000
0000
0000
,  // measure 44
1000
0000
1000
0000
,  // measure 45
0001
0000
0001
0000
,  // measure 46
1000
1000
1000
1000
,  // measure 47
1000
0000
0000
0000
,  // measure 48
0001
0000
0001
0000
,  // measure 49
0001
0000
0001
0000
,  // measure 50
1000
0000
1000
0000
,  // measure 51
1000
0000
1000
0000
,  // measure 52
0001
0000
1000
0000
,  // measure 53
0001
0000
1000
0000
,  // measure 54
0001
0000
0001
0000
,  // measure 55
1000
0000
1000
0000
,  // measure 56
0001
0000
0001
0000
,  // measure 57
0001
0000
0001
0000
,  // measure 58
1000
0000
1000
0000
,  // measure 59
1000
0000
1000
0000
,  // measure 60
1000
0000
0001
0000
,  // measure 61
1000
0000
0001
0000
,  // measure 62
0001
0000
0001
0000
,  // measure 63
1000
0000
1000
0000
,  // measure 64
0002
0000
0000
0000
,  // measure 65
0003
0000
0000
0000
,  // measure 66
1000
0000
1000
0000
,  // measure 67
1000
0000
1000
0000
,  // measure 68
0001
0000
0000
0000
,  // measure 69
0001
0000
0000
0000
,  // measure 70
1000
0000
1000
0000
,  // measure 71
0001
0000
0001
0000
,  // measure 72
1000
0000
0000
0000
,  // measure 73
0001
0000
0000
0000
,  // measure 74
1000
0000
0000
0000
,  // measure 75
0001
0000
0000
0000
,  // measure 76
1000
0000
1000
0000
,  // measure 77
1000
0000
1000
0000
,  // measure 78
0001
0000
0001
0000
,  // measure 79
0001
0000
0001
0000
,  // measure 80
1000
0000
0001
0000
,  // measure 81
1000
0000
0001
0000
,  // measure 82
1000
0000
1000
0000
,  // measure 83
0001
0000
0001
0000
,  // measure 84
1000
0000
1000
0000
,  // measure 85
1000
0000
1000
0000
,  // measure 86
0001
0000
0001
0000
,  // measure 87
0001
0000
0001
0000
,  // measure 88
0001
0000
1000
0000
,  // measure 89
0001
0000
1000
0000
,  // measure 90
1000
0000
1000
0000
,  // measure 91
0001
0000
0001
0000
,  // measure 92
1000
0000
1000
0000
,  // measure 93
0001
0000
0001
0000
,  // measure 94
2000
0000
0000
0000
,  // measure 95
3000
0000
0000
0000
,  // measure 96
0002
0000
0000
0000
,  // measure 97
0000
0000
0000
0000
,  // measure 98
0003
0000
0000
0000
;
