#TITLE:SHOOTING STAR (FROM NONSTOP MEGAMIX);
#SUBTITLE:;
#ARTIST:BANG;
#TITLETRANSLIT:;
#SUBTITLETRANSLIT:;
#ARTISTTRANSLIT:;
#GENRE:;
#CREDIT:BadWolf;
#BANNER:SHOOTING STAR.png;
#BACKGROUND:SHOOTING STAR-BG.PNG;
#LYRICSPATH:;
#CDTITLE:cdtitle.png;
#MUSIC:SHOOTING STAR (FROM NONSTOP MEGAMIX).ogg;
#OFFSET:0.140000;
#SAMPLESTART:61.531643;
#SAMPLELENGTH:22.574959;
#SELECTABLE:YES;
#BPMS:0.000000=170.100006
;
#STOPS:
;
#BGCHANGES:0.397=DDR Project 3_0001.AVI=1.000=0=0=1===CrossFade_Fastest==,
275.500=flash=0.000=0=0=1====#000000=,
99999=-nosongbg-=1.000=0=0=0 // don't automatically add -songbackground-
;
#KEYSOUNDS:;
#ATTACKS:;

//---------------dance-single - ----------------
#NOTES:
     dance-single:
     :
     Hard:
     5:
     0.363201,0.425364,0.133811,0.102931,0.000000,247.000000,234.000000,13.000000,10.000000,0.000000,0.000000,0.363201,0.425364,0.133811,0.102931,0.000000,247.000000,234.000000,13.000000,10.000000,0.000000,0.000000:
0000
0000
0000
0000
,
0000
0000
0000
0000
,
0000
0000
0000
0000
,
2000
0000
0000
0000
,
3020
0000
0000
0000
,
0230
0000
0000
0000
,
0302
0000
0000
0000
,
0023
0000
0000
0000
,
0230
0000
0000
0000
,
2300
0000
0000
0000
,
3002
0000
0000
0000
,
1003
0001
1000
0001
,
0100
0010
0100
0010
,
1000
0001
1000
0001
,
0010
0100
0010
0100
,
1000
0010
1000
0010
,
0100
0001
0100
0001
,
1000
0100
1000
0100
,
0010
0001
0010
0001
,
1001
0000
1010
0101
,
1000
0100
0010
0100
,
1000
0100
0010
0001
,
1000
0010
0100
0010
,
1000
0010
0100
0001
,
0010
0100
0010
0001
,
0010
0100
1000
0001
,
0100
0010
0100
0001
,
0100
0010
1000
0001
,
1000
1000
0001
0001
,
0010
0100
1000
0001
,
0100
0100
0010
0010
,
1000
0100
0010
0001
,
1000
1000
0001
0001
,
0100
0010
1000
0001
,
0010
0010
0100
0100
,
1000
0010
0100
0001
,
1000
0100
0001
0100
,
1000
0100
0001
0100
,
1000
0010
0001
0010
,
1000
0010
0001
0010
,
1000
0100
0010
0001
,
1000
0100
0010
0001
,
1001
0000
1000
0000
0001
1000
0000
1001
,
0000
0110
0000
0000
0000
0000
0000
0000
,
1000
1000
0001
0001
,
1000
0010
0001
0010
,
1000
1000
0001
0001
,
1000
0100
0001
0100
,
1000
1010
0001
0011
,
1000
0100
0010
0001
,
0100
0010
0100
0010
,
1000
0001
1000
1001
,
0001
0001
1000
1000
,
0001
0100
1000
0100
,
0001
0001
1000
1000
,
0001
0010
1000
0010
,
0001
0101
1000
1100
,
0001
0010
0100
1000
,
0010
0100
0010
0100
,
0001
1000
0001
1001
,
1000
1000
0001
0001
,
0010
0100
1000
0001
,
1000
1000
0001
0001
,
1000
0100
0010
0001
,
1000
0010
0001
0010
,
1000
0010
0100
0001
,
1000
0100
0001
0100
,
1000
0100
0010
0001
,
2002
0000
0000
0000
0000
0000
0000
3003
;

//---------------dance-single - ----------------
#NOTES:
     dance-single:
     :
     Challenge:
     10:
     0.755811,0.779835,0.226449,0.020586,0.205863,514.000000,492.000000,22.000000,2.000000,0.000000,0.000000,0.755811,0.779835,0.226449,0.020586,0.205863,514.000000,492.000000,22.000000,2.000000,0.000000,0.000000:
0000
0000
0000
0000
,
0000
0000
0000
0000
,
0000
0000
0000
0000
,
1000
0000
0010
0100
0010
0000
1000
0000
,
0001
0010
0100
1000
0000
0001
1000
0000
,
0001
0000
0100
0010
0100
0000
0001
0000
,
1000
0100
0010
0001
0000
1000
0001
1000
,
0001
0000
1000
0010
1000
0000
0001
0000
,
0010
0100
1000
0001
0000
1000
0001
0000
,
1000
0000
0001
0100
0001
0000
1000
0000
,
0100
0000
0010
0000
0001
0000
1000
0000
0100
0000
0010
0000
0001
1000
0001
1000
,
0001
0000
0100
0001
1000
0000
1001
0000
,
0001
1000
0100
1000
0001
0000
0110
0000
,
1000
0000
0010
1000
0001
0000
1001
0000
,
1000
0001
0010
0001
1000
0000
0110
0100
,
0001
0000
0010
0100
1000
0000
1010
0000
,
0010
0100
0001
1000
0100
0000
0011
0000
,
1001
0100
1001
0010
,
1000
0000
0100
0000
0010
0000
0001
0000
1000
0001
1000
0001
1000
0001
1000
0001
,
1000
0000
1010
0011
,
1000
0100
1000
0100
0010
0100
0010
0100
,
0001
0000
0100
0000
0001
0000
0100
0000
0010
0000
0100
0000
0010
0000
0100
1000
,
0001
0010
0001
0010
0100
0010
0100
0010
,
1000
0010
1000
0010
0100
0010
0100
1000
,
1000
0010
1000
0010
0001
0010
0001
0010
,
1000
0000
0100
0000
1000
0000
0100
0000
0010
0000
0001
0000
0010
0000
0001
1000
,
0001
0100
0001
0100
1000
0100
1000
0100
,
0001
0000
0010
0000
0001
0000
0010
0100
1000
0000
0001
1000
0001
0000
1000
0001
,
1000
0010
0100
0010
1000
0001
0010
0100
,
1000
0010
0001
0010
0100
0001
1000
0100
,
0010
0100
1000
0001
0100
0010
1000
0001
,
0010
1000
0010
0100
1000
0001
1000
0001
,
0001
0100
0010
0100
0001
1000
0100
0010
,
0001
0100
1000
0100
0010
1000
0001
0010
,
0100
0010
0001
1000
0010
0100
0001
1000
,
0100
0000
0001
0000
0100
0000
0010
0001
1000
0000
0001
1000
0001
0000
1000
0001
,
1000
0000
0010
0000
0100
0000
0001
0000
1000
0010
1000
0000
0001
0100
0001
0000
,
1000
0000
0100
0000
0010
0000
0001
0000
1000
0010
1000
0000
0001
0100
0001
0000
,
1000
0010
1000
0000
0001
0000
0010
0000
0100
1000
0001
0000
1000
0001
1000
0000
,
0001
0000
0100
0000
0010
0000
1000
0000
0001
0100
0001
0000
1000
0000
0001
0000
,
0001
0000
0010
0000
0100
0000
1000
0000
0001
0010
0001
0000
1000
0100
1000
0000
,
0001
0000
0100
0000
0010
0000
1000
0000
0001
0010
0001
0000
1000
0100
1000
0000
,
0001
0000
0100
0100
0010
1000
0000
1100
,
0000
0101
0000
0000
0000
0000
0000
0000
,
1000
0000
0100
0010
0001
0000
1010
0000
,
1000
0000
0001
0100
0001
0000
1000
0000
0010
0000
0000
0000
0110
0000
0000
0000
,
0001
0000
0010
0100
1000
0000
0101
0000
,
0001
0000
1000
0010
1000
0000
0001
0000
0100
0000
0000
0000
0110
0000
0000
0000
,
1001
0000
0001
1000
0100
0000
0011
0000
,
0001
0000
0100
0010
0100
0000
0001
0000
1000
0000
0000
0000
1100
0000
0000
0000
,
1001
0000
1000
0001
0010
0000
1100
0000
,
1000
0000
0010
0000
0100
0000
0001
1000
0100
0000
0010
0001
1000
0000
0001
1000
,
0001
0100
0010
0100
0010
1000
0100
0010
,
0001
0000
1000
0000
0010
0000
1000
0000
0001
0000
0010
0000
0100
0000
1000
0001
,
1000
0010
0100
0010
0100
0001
0010
0100
,
1000
0001
0100
0001
1000
0100
0010
0001
,
0001
0100
1000
0001
0010
1000
0001
0000
,
1000
0010
0001
1000
0100
0001
1000
0000
,
0010
0100
0001
1000
0100
0001
0100
0010
,
0001
0000
1000
0000
0010
0000
0100
0001
1000
0000
0001
1000
0001
0000
1000
0001
,
1000
0010
0100
0010
0001
0010
0100
0010
,
1000
0000
0100
0000
0010
0000
0001
0000
0010
0000
0100
0000
1000
0000
0001
1000
,
0001
0100
0010
0100
1000
0100
0010
0100
,
0001
0010
0100
1000
0100
0010
0001
1000
,
1000
0010
0100
0001
1000
0100
0001
0100
,
0010
0000
0001
0000
0100
0000
0010
0000
1000
0000
0010
0000
0001
0000
0010
0100
,
0001
0100
0010
1000
0001
0010
1000
0010
,
0100
0000
1000
0000
0010
0000
0100
0001
1000
0000
0001
1000
0001
0000
1000
0000
,
2002
0000
0000
0000
0000
0000
0000
3003
;

//---------------dance-single - ----------------
#NOTES:
     dance-single:
     :
     Medium:
     2:
     0.363201,0.425364,0.133811,0.102931,0.000000,247.000000,234.000000,13.000000,10.000000,0.000000,0.000000,0.363201,0.425364,0.133811,0.102931,0.000000,247.000000,234.000000,13.000000,10.000000,0.000000,0.000000:
// measure 0
0000
0000
0000
0000
,  // measure 1
0000
0000
0000
0000
,  // measure 2
0000
0000
0000
0000
,  // measure 3
2000
0000
0000
0000
,  // measure 4
3002
0000
0000
0000
,  // measure 5
2003
0000
0000
0000
,  // measure 6
3002
0000
0000
0000
,  // measure 7
2003
0000
0000
0000
,  // measure 8
3002
0000
0000
0000
,  // measure 9
2003
0000
0000
0000
,  // measure 10
3002
0000
0000
0000
,  // measure 11
1003
0001
1000
0001
,  // measure 12
1000
0001
1000
0001
,  // measure 13
1000
0001
1000
0001
,  // measure 14
0001
1000
0001
1000
,  // measure 15
1000
0001
1000
0001
,  // measure 16
1000
0001
1000
0001
,  // measure 17
1000
1000
1000
1000
,  // measure 18
0001
0001
0001
0001
,  // measure 19
1001
0000
1001
1001
,  // measure 20
1000
1000
0001
1000
,  // measure 21
1000
1000
0001
0001
,  // measure 22
1000
0001
1000
0001
,  // measure 23
1000
0001
1000
0001
,  // measure 24
0001
1000
0001
0001
,  // measure 25
0001
1000
1000
0001
,  // measure 26
1000
0001
1000
0001
,  // measure 27
1000
0001
1000
0001
,  // measure 28
1000
1000
0001
0001
,  // measure 29
0001
1000
1000
0001
,  // measure 30
1000
1000
0001
0001
,  // measure 31
1000
1000
0001
0001
,  // measure 32
1000
1000
0001
0001
,  // measure 33
1000
0001
1000
0001
,  // measure 34
0001
0001
1000
1000
,  // measure 35
1000
0001
1000
0001
,  // measure 36
1000
1000
0001
1000
,  // measure 37
1000
1000
0001
1000
,  // measure 38
1000
0001
0001
0001
,  // measure 39
1000
0001
0001
0001
,  // measure 40
1000
1000
0001
0001
,  // measure 41
1000
1000
0001
0001
,  // measure 42
1001
0000
1000
0000
0001
1000
0000
1001
,  // measure 43
0000
1001
0000
0000
0000
0000
0000
0000
,  // measure 44
1000
1000
0001
0001
,  // measure 45
1000
0001
0001
0001
,  // measure 46
1000
1000
0001
0001
,  // measure 47
1000
1000
0001
1000
,  // measure 48
1000
1001
0001
1001
,  // measure 49
1000
1000
0001
0001
,  // measure 50
1000
0001
1000
0001
,  // measure 51
1000
0001
1000
1001
,  // measure 52
0001
0001
1000
1000
,  // measure 53
0001
1000
1000
1000
,  // measure 54
0001
0001
1000
1000
,  // measure 55
0001
0001
1000
0001
,  // measure 56
0001
1001
1000
1001
,  // measure 57
0001
0001
1000
1000
,  // measure 58
0001
1000
0001
1000
,  // measure 59
0001
1000
0001
1001
,  // measure 60
1000
1000
0001
0001
,  // measure 61
0001
1000
1000
0001
,  // measure 62
1000
1000
0001
0001
,  // measure 63
1000
1000
0001
0001
,  // measure 64
1000
0001
0001
0001
,  // measure 65
1000
0001
1000
0001
,  // measure 66
1000
1000
0001
1000
,  // measure 67
1000
1000
0001
0001
,  // measure 68
2002
0000
0000
0000
0000
0000
0000
3003
;
