#VERSION:0.83;
#TITLE:Ready To Party;
#SUBTITLE:;
#ARTIST:Desiree Goyette;
#TITLETRANSLIT:;
#SUBTITLETRANSLIT:;
#ARTISTTRANSLIT:;
#GENRE:;
#ORIGIN:;
#CREDIT:BadWolf;
#BANNER:Ready to Party.png;
#BACKGROUND:Ready to Party-bg.png;
#PREVIEWVID:;
#JACKET:Ready to Party-jacket.png;
#CDIMAGE:;
#DISCIMAGE:;
#LYRICSPATH:;
#CDTITLE:cdtitle.png;
#MUSIC:Ready to Party.ogg;
#OFFSET:-0.180000;
#SAMPLESTART:12.304236;
#SAMPLELENGTH:13.475699;
#SELECTABLE:YES;
#BPMS:0.000=135.800;
#STOPS:117.500=4.529;
#DELAYS:;
#WARPS:;
#TIMESIGNATURES:0.000=4=4;
#TICKCOUNTS:0.000=4;
#COMBOS:0.000=1;
#SPEEDS:0.000=1.000=0.000=0;
#SCROLLS:0.000=1.000;
#FAKES:;
#LABELS:0.000=Song Start;
#BGCHANGES:0.000=GARFIELD_VOL3_D1_0001.MPEG=1.000=0=0=1===CrossFade_Fastest==,
118.500=Ready to Party-bg.png=1.000=0=0=1=====,
99999=-nosongbg-=1.000=0=0=0 // don't automatically add -songbackground-
;
#KEYSOUNDS:;
#ATTACKS:
;

//---------------dance-single - ----------------
#NOTEDATA:;
#CHARTNAME:;
#STEPSTYPE:dance-single;
#DESCRIPTION:;
#CHARTSTYLE:;
#DIFFICULTY:Edit;
#METER:9;
#RADARVALUES:0.593760,0.715284,0.551876,0.068985,0.560499,241.000000,209.000000,32.000000,4.000000,0.000000,0.000000,0.000000,0.000000,0.000000,0.593760,0.715284,0.551876,0.068985,0.560499,241.000000,209.000000,32.000000,4.000000,0.000000,0.000000,0.000000,0.000000,0.000000;
#CREDIT:;
#NOTES:
0000
0000
0000
0000
,
0000
0000
0000
0000
,
0000
0000
0000
0000
0000
0000
1000
0000
0000
0000
0000
0000
0000
0000
0000
0001
0000
0000
0000
0000
0000
0000
0000
0000
1000
0000
0100
0000
1000
0000
0100
0000
1000
0000
0100
0000
0010
0000
0001
0000
0010
0000
0001
0000
0010
0000
0001
0000
,
1000
0000
0000
0100
0000
0000
0010
0000
0001
0000
1000
0000
0000
0010
0000
0000
,
1000
0000
0000
0001
0000
0000
0010
0000
0100
0000
1000
0000
0000
0001
0000
0000
,
1000
0000
0000
0010
0000
0000
0100
0000
0001
0000
1000
0000
0000
0100
0000
0000
,
1001
1001
0000
0000
0220
0000
0330
0001
,
1000
0100
0000
0010
0001
0100
0000
0010
,
1010
0000
0000
1001
0000
0000
0000
0000
0011
0000
0000
1001
0000
0000
1000
0000
,
0001
0000
0010
0000
0000
0000
0100
0000
1000
0000
0000
0010
0000
0000
0100
0000
,
0101
0000
0000
1001
0000
0000
0000
0000
1100
0000
0000
1001
0000
0000
0000
0000
,
1000
0000
0010
0000
1000
0000
0100
0010
0000
0001
0000
0100
0001
0000
1000
0000
,
0001
0000
0010
0000
0100
0000
1000
0001
0000
1000
0000
1000
0010
0000
0100
0000
,
0001
0000
0010
0000
0001
0000
0100
0010
0000
1000
0000
0100
1000
0000
0001
0000
,
0011
0000
1010
0000
1100
0000
0101
0000
0001
1000
0001
1000
0000
0001
1000
0000
,
0001
0000
0000
0010
0000
0000
0100
0000
1000
0000
0000
0010
0000
0000
0100
0000
,
0001
0000
0000
1000
0000
0000
0100
0000
0010
0000
0000
0001
0000
0000
0100
0000
,
0010
0000
0000
1000
0000
0000
0001
0000
0010
0000
0000
0100
0000
1000
0001
1000
,
0001
0002
2000
3003
,
0001
0000
0010
0100
0000
0010
0100
0000
1000
0000
0010
0000
0001
0000
0010
0000
,
1000
0000
0100
0010
0000
0100
0010
0000
0001
0000
0100
0000
1000
0000
0100
0000
,
0001
0000
1000
0010
0000
1000
0010
0000
0100
0000
0001
0000
1000
0000
0100
0000
,
0110
0000
0110
0000
0000
0011
0000
0000
1001
0000
0000
0000
0000
0000
0000
0000
,
1000
0000
0010
0000
1000
0000
0100
0010
0000
0001
0000
0100
0001
0000
1000
0000
,
0001
0000
0010
0000
0100
0000
1000
0001
0000
1000
0000
1000
0010
0000
0100
0000
,
0001
0000
0010
0000
0001
0000
0100
0010
0000
1000
0000
0100
1000
0000
0001
0000
,
0011
0000
1010
0000
1100
0000
0101
0000
1000
0001
1000
0001
0000
1000
0001
0000
,
1000
0000
0100
0000
1000
0000
0010
0100
0000
0001
0000
0010
0001
0000
1000
0000
,
1100
0000
0101
0000
0011
0000
1010
0000
0001
1000
0001
1000
0000
0001
1000
0000
,
0011
1010
1100
0101
0000
1001
0000
0000
;

//---------------dance-single - ----------------
#NOTEDATA:;
#CHARTNAME:;
#STEPSTYPE:dance-single;
#DESCRIPTION:;
#CHARTSTYLE:;
#DIFFICULTY:Challenge;
#METER:7;
#RADARVALUES:0.436081,0.434279,0.275938,0.068985,0.388038,177.000000,161.000000,16.000000,4.000000,0.000000,0.000000,0.000000,0.000000,0.000000,0.436081,0.434279,0.275938,0.068985,0.388038,177.000000,161.000000,16.000000,4.000000,0.000000,0.000000,0.000000,0.000000,0.000000;
#CREDIT:;
#NOTES:
0000
0000
0000
0000
,
0000
0000
0000
0000
,
0000
0000
0000
0000
0000
0000
1000
0000
0000
0000
0000
0000
0000
0000
0000
0001
0000
0000
0000
0000
0000
0000
0000
0000
1000
0000
0000
0000
0100
0000
0000
0000
1000
0000
0000
0000
0001
0000
0000
0000
0100
0000
0000
0000
0001
0000
0000
0000
,
1000
0000
0000
0100
0000
0000
0010
0000
0000
0000
0001
0000
0000
1000
0000
0000
,
0001
0000
0000
0010
0000
0000
0100
0000
0000
0000
1000
0000
0000
0001
0000
0000
,
1000
0000
0000
0010
0000
0000
0100
0000
0000
0000
0001
0000
0000
1000
0000
0000
,
1001
1001
0000
0000
0220
0000
0330
0001
,
1000
0001
0000
1000
0100
0010
0000
0100
,
1000
0000
0000
1010
0000
0000
0000
0000
0001
0000
0000
0011
0000
0000
1000
0000
,
0100
0000
0010
0000
0000
0000
0001
0000
0100
0000
0000
0010
0000
0000
1000
0000
,
0001
0000
0000
0101
0000
0000
0000
0000
1000
0000
0000
1100
0000
0000
0000
0000
,
0001
0000
1000
0000
0001
0000
0000
1000
0000
0010
0000
1000
0001
0000
1000
0000
,
0001
0010
0100
1000
0000
0010
0100
0000
,
0001
0000
1000
0000
0001
0000
0000
1000
0000
0100
0000
1000
0001
0000
1000
0000
,
0100
0010
0001
1001
0000
0000
0000
0000
,
1000
0000
0000
0100
0000
0000
0010
0000
0001
0000
0000
0100
0000
0000
0010
0000
,
1000
0000
0000
0001
0000
0000
0010
0000
0100
0000
0000
1000
0000
0000
0010
0000
,
0100
0000
0000
0001
0000
0000
1000
0000
0100
0000
0000
0010
0000
0000
0001
1000
,
0001
2000
0002
3003
,
1000
0000
0000
0010
0000
0000
0100
0000
0001
0000
0000
0010
0000
0000
0100
0000
,
1000
0000
0000
0001
0000
0000
0100
0000
0010
0000
0000
1000
0000
0000
0100
0000
,
0010
0000
0000
0001
0000
0000
1000
0000
0010
0000
0000
0100
0000
0000
0001
0000
,
1001
0000
1001
0000
0000
0110
0000
0000
1001
0000
0000
0000
0000
0000
0000
0000
,
1000
0000
0001
0000
1000
0000
0000
0001
0000
0100
0000
0001
1000
0000
0001
0000
,
1000
0100
0010
0001
0000
0100
0010
0000
,
1000
0000
0001
0000
1000
0000
0000
0001
0000
0010
0000
0001
1000
0000
0001
0000
,
0010
0100
1000
1001
0000
0000
0000
0000
,
0001
0000
1000
0000
0001
0000
0000
1000
0000
0100
0000
1000
0001
0000
1000
0000
,
0100
0010
0001
1001
0000
0000
0000
0000
,
1000
0100
0010
0110
0000
1001
0000
0000
;

//---------------dance-single - ----------------
#NOTEDATA:;
#CHARTNAME:;
#STEPSTYPE:dance-single;
#DESCRIPTION:;
#CHARTSTYLE:;
#DIFFICULTY:Hard;
#METER:5;
#RADARVALUES:0.315358,0.332096,0.275938,0.051738,0.103477,128.000000,112.000000,16.000000,3.000000,0.000000,0.000000,0.000000,0.000000,0.000000,0.315358,0.332096,0.275938,0.051738,0.103477,128.000000,112.000000,16.000000,3.000000,0.000000,0.000000,0.000000,0.000000,0.000000;
#CREDIT:;
#NOTES:
0000
0000
0000
0000
,
0000
0000
0000
0000
,
0000
0000
1000
0000
0000
0001
0000
0000
1000
0000
0100
0000
0010
0000
0001
0000
,
1001
0000
0110
0000
,
1010
0000
0011
0000
,
0101
0000
1100
0000
,
1001
1001
0000
0000
0002
0000
0003
1000
,
0001
1000
0000
0010
0100
0010
0000
1000
,
0001
0000
0000
1000
0000
0000
0000
0000
0001
0000
0000
1000
0000
0000
0001
0000
,
1000
0001
0000
0010
0100
0010
0000
0001
,
1000
0000
0000
0001
0000
0000
0000
0000
1000
0000
0000
0001
0000
0000
0000
0000
,
1000
0100
0010
0000
0001
0000
1000
0000
,
0001
0010
0100
0000
1000
0000
0001
0000
,
0100
0010
1000
0000
0100
0000
0010
0000
,
0001
1000
0001
1000
0000
0000
0000
0000
,
1001
0000
0110
0000
,
0011
0000
1010
0000
,
1100
0000
0101
0000
,
2002
0000
3003
0000
,
1000
0000
0000
0100
0000
0000
0000
0000
0100
0000
0000
0010
0000
0000
0000
0000
,
0010
0000
0000
0001
0000
0000
0000
0000
0001
0000
0000
0100
0000
0000
0000
0000
,
0100
0000
0000
0010
0000
0000
0000
0000
0010
0000
0000
1000
0000
0000
0000
0000
,
0001
0000
0001
0000
0000
1000
0000
0000
0001
0000
0000
0000
0000
0000
0000
0000
,
1000
0100
0010
0000
0001
0000
1000
0000
,
0001
0010
0100
0000
1000
0000
0001
0000
,
0100
0010
1000
0000
0100
0000
0010
0000
,
0001
1000
0001
1000
0000
0000
0000
0000
,
0001
1000
0001
0000
0100
0000
0010
0000
,
1000
0001
1000
0001
0000
0000
0000
0000
,
0001
1000
0001
1000
0000
1001
0000
0000
;

//---------------dance-single - ----------------
#NOTEDATA:;
#CHARTNAME:;
#STEPSTYPE:dance-single;
#DESCRIPTION:;
#CHARTSTYLE:;
#DIFFICULTY:Medium;
#METER:3;
#RADARVALUES:0.216809,0.281004,0.155215,0.379415,0.000000,88.000000,79.000000,9.000000,22.000000,0.000000,0.000000,0.000000,0.000000,0.000000,0.216809,0.281004,0.155215,0.379415,0.000000,88.000000,79.000000,9.000000,22.000000,0.000000,0.000000,0.000000,0.000000,0.000000;
#CREDIT:;
#NOTES:
0000
0000
0000
0000
,
0000
0000
0000
0000
,
0000
0000
0000
0000
,
2000
3000
0002
0003
,
0200
0300
0020
0030
,
2000
3000
0002
0003
,
2002
3003
0000
0000
,
1000
0100
0010
0001
,
1001
0000
0110
0000
,
0001
0010
0100
1000
,
1001
0000
0110
0000
,
1000
1000
0001
0100
,
0001
0001
1000
0100
,
1000
1000
0001
1000
,
0001
1000
0001
1000
0000
0000
0000
0000
,
0002
0003
2000
3000
,
0020
0030
0200
0300
,
0002
0003
2000
3000
,
2002
0000
3003
0000
,
0002
0003
2000
3000
,
0200
0300
0020
0030
,
0002
0003
2000
3000
,
1001
0000
0110
0000
,
0001
0001
1000
0010
,
1000
1000
0001
0010
,
0001
0001
1000
0001
,
1000
0001
1000
0001
0000
0000
0000
0000
,
1000
1000
0001
1000
,
0001
1000
0001
1000
0000
0000
0000
0000
,
0001
1000
0001
1000
0000
1001
0000
0000
;

//---------------dance-single - ----------------
#NOTEDATA:;
#CHARTNAME:;
#STEPSTYPE:dance-single;
#DESCRIPTION:;
#CHARTSTYLE:;
#DIFFICULTY:Easy;
#METER:1;
#RADARVALUES:0.096086,0.127729,0.051738,0.017246,0.000000,39.000000,36.000000,3.000000,1.000000,0.000000,0.000000,0.000000,0.000000,0.000000,0.096086,0.127729,0.051738,0.017246,0.000000,39.000000,36.000000,3.000000,1.000000,0.000000,0.000000,0.000000,0.000000,0.000000;
#CREDIT:;
#NOTES:
0000
0000
0000
0000
,
0000
0000
0000
0000
,
0000
0000
0000
0000
,
1000
0000
0000
0000
,
0001
0000
0000
0000
,
1000
0000
0000
0000
,
1001
0000
0000
0000
,
0001
0000
1000
0000
,
0001
0000
0000
0000
,
0100
0000
0010
0000
,
0100
0000
0000
0000
,
0001
0000
0001
0000
,
1000
0000
1000
0000
,
0001
0000
1000
0000
,
0001
0000
0000
0000
,
1000
0000
0000
0000
,
0001
0000
0000
0000
,
1000
0000
0000
0000
,
1001
0000
0000
0000
,
0010
0000
0000
0000
,
0100
0000
0000
0000
,
0010
0000
0000
0000
,
0110
0000
0000
0000
,
1000
0000
1000
0000
,
0001
0000
0001
0000
,
1000
0000
0001
0000
,
1000
0000
0000
0000
,
0001
0000
1000
0000
,
0001
0000
0000
0000
,
2000
0000
0000
0000
0000
3000
0000
0000
;

//---------------dance-single - ----------------
#NOTEDATA:;
#CHARTNAME:;
#STEPSTYPE:dance-single;
#DESCRIPTION:;
#CHARTSTYLE:;
#DIFFICULTY:Beginner;
#METER:1;
#RADARVALUES:0.096086,0.127729,0.051738,0.017246,0.000000,39.000000,36.000000,3.000000,1.000000,0.000000,0.000000,0.000000,0.000000,0.000000,0.096086,0.127729,0.051738,0.017246,0.000000,39.000000,36.000000,3.000000,1.000000,0.000000,0.000000,0.000000,0.000000,0.000000;
#CREDIT:;
#NOTES:
// measure 0
0000
0000
0000
0000
,  // measure 1
0000
0000
0000
0000
,  // measure 2
0000
0000
0000
0000
,  // measure 3
1000
0000
0000
0000
,  // measure 4
0001
0000
0000
0000
,  // measure 5
1000
0000
0000
0000
,  // measure 6
1001
0000
0000
0000
,  // measure 7
0001
0000
1000
0000
,  // measure 8
0001
0000
0000
0000
,  // measure 9
1000
0000
0001
0000
,  // measure 10
1000
0000
0000
0000
,  // measure 11
0001
0000
0001
0000
,  // measure 12
1000
0000
1000
0000
,  // measure 13
0001
0000
1000
0000
,  // measure 14
0001
0000
0000
0000
,  // measure 15
1000
0000
0000
0000
,  // measure 16
0001
0000
0000
0000
,  // measure 17
1000
0000
0000
0000
,  // measure 18
1001
0000
0000
0000
,  // measure 19
0001
0000
0000
0000
,  // measure 20
1000
0000
0000
0000
,  // measure 21
0001
0000
0000
0000
,  // measure 22
1001
0000
0000
0000
,  // measure 23
1000
0000
1000
0000
,  // measure 24
0001
0000
0001
0000
,  // measure 25
1000
0000
0001
0000
,  // measure 26
1000
0000
0000
0000
,  // measure 27
0001
0000
1000
0000
,  // measure 28
0001
0000
0000
0000
,  // measure 29
2000
0000
0000
0000
0000
3000
0000
0000
;
