#VERSION:0.83;
#TITLE:Ready to Party;
#SUBTITLE:;
#ARTIST:Desiree Goyette;
#TITLETRANSLIT:;
#SUBTITLETRANSLIT:;
#ARTISTTRANSLIT:;
#GENRE:;
#ORIGIN:;
#CREDIT:BadWolf;
#BANNER:Ready to Party.png;
#BACKGROUND:Ready to Party-bg.png;
#PREVIEWVID:;
#JACKET:Ready to Party-jacket.png;
#CDIMAGE:;
#DISCIMAGE:;
#LYRICSPATH:;
#CDTITLE:cdtitle.png;
#MUSIC:Ready to Party.ogg;
#OFFSET:-0.180000;
#SAMPLESTART:12.304236;
#SAMPLELENGTH:13.475699;
#SELECTABLE:YES;
#BPMS:0.000=135.800;
#STOPS:117.500=4.529;
#DELAYS:;
#WARPS:;
#TIMESIGNATURES:0.000=4=4;
#TICKCOUNTS:0.000=4;
#COMBOS:0.000=1;
#SPEEDS:0.000=1.000=0.000=0;
#SCROLLS:0.000=1.000;
#FAKES:;
#LABELS:0.000=Song Start;
#BGCHANGES:0.000=Ready to Party.mp4=1.000=0=0=1===CrossFade_Fastest==,
119.500=Ready to Party-bg.png=1.000=0=0=1===CrossFade_Fastest==,
99999=-nosongbg-=1.000=0=0=0 // don't automatically add -songbackground-
;
#KEYSOUNDS:;
#ATTACKS:
;

//---------------pump-single - ----------------
#NOTEDATA:;
#CHARTNAME:;
#STEPSTYPE:pump-single;
#DESCRIPTION:;
#CHARTSTYLE:;
#DIFFICULTY:Challenge;
#METER:13;
#RADARVALUES:0.592941,0.711345,0.548838,0.068605,0.548838,242.000000,210.000000,32.000000,4.000000,0.000000,0.000000,0.000000,0.000000,0.000000,0.592941,0.711345,0.548838,0.068605,0.548838,242.000000,210.000000,32.000000,4.000000,0.000000,0.000000,0.000000,0.000000,0.000000;
#CREDIT:;
#NOTES:
00000
00000
00000
00000
,
00000
00000
00000
00000
,
00000
00000
00000
00000
00000
00000
10000
00000
00000
00000
00000
00000
00000
00000
00000
00100
00000
00000
00000
00000
00000
00000
00000
00000
10000
00000
00001
00000
10000
00000
00001
00000
10000
00000
00001
00000
01000
00000
00010
00000
01000
00000
00010
00000
01000
00000
00010
00000
,
10000
00000
00000
00100
00000
00000
01000
00000
00010
00000
00100
00000
00000
00001
00000
00000
,
10000
00000
00000
01000
00000
00000
00100
00000
00010
00000
00100
00000
00000
00001
00000
00000
,
10000
00000
00000
00010
00000
00000
00100
00000
00001
00000
01000
00000
00000
00100
00000
00000
,
10001
10001
00000
00000
02020
00000
03030
00001
,
10000
00100
00000
01000
00010
00100
00000
00001
,
00101
00000
00000
00110
00000
00000
00000
00000
01100
00000
00000
10100
00000
00000
10000
00000
,
00001
00000
00100
00000
00000
00000
00010
00000
01000
00000
00000
00100
00000
00000
10000
00000
,
10100
00000
00000
01100
00000
00000
00000
00000
00110
00000
00000
00101
00000
00000
00000
00000
,
01000
00000
00100
00000
10000
00000
00100
01000
00000
00010
00000
00100
00001
00000
10000
00000
,
00001
00000
00010
00000
00100
00000
01000
00000
00010
00100
00000
00100
00001
00000
10000
00000
,
00010
00000
00100
00000
00001
00000
00100
00010
00000
01000
00000
00100
10000
00000
00001
00000
,
00011
00000
00101
00000
01001
00000
10001
00000
10000
00100
01000
00100
00000
00010
00001
00000
,
10000
00000
00000
01000
00000
00000
00100
00000
00010
00000
00000
00100
00000
00000
00001
00000
,
01000
00000
00000
10000
00000
00000
00100
00000
00001
00000
00000
00100
00000
00000
00010
00000
,
10000
00000
00000
00000
00000
00000
00000
00000
00000
00001
00000
00000
00000
00000
00000
00000
00000
00000
00010
00000
00000
00000
00000
00000
00100
00000
00000
00000
00000
00000
00000
00000
00000
01000
00000
00000
00000
00000
00000
00000
00100
00000
10000
00000
00100
00000
10000
00000
,
00100
20000
00002
30003
,
10000
00000
00100
01000
00000
00100
10000
00000
00001
00000
00100
00000
10000
00000
00100
00000
,
00001
00000
00100
00010
00000
00100
00001
00000
10000
00000
00100
00000
00001
00000
00100
00000
,
10000
00000
00100
01000
00000
00010
00100
00000
00001
00000
01000
00000
00010
00000
10000
00000
,
10001
00000
10001
00000
00000
00110
00000
00000
01010
00000
00000
00000
00000
00000
00000
00000
,
00010
00000
00100
00000
00001
00000
00100
00010
00000
01000
00000
00100
10000
00000
00001
00000
,
10000
00000
01000
00000
00100
00000
00010
00000
01000
00100
00000
00100
10000
00000
00001
00000
,
01000
00000
00100
00000
10000
00000
00100
01000
00000
00010
00000
00100
00001
00000
10000
00000
,
11000
00000
10100
00000
10010
00000
10001
00000
00001
00100
00010
00100
00000
01000
10000
00000
,
00001
00000
00100
00000
00010
00000
00100
00001
00000
10000
00000
00100
01000
00000
00010
00000
,
00011
00000
00110
00000
10010
00000
01010
00000
01000
00100
10000
00100
00000
00001
00010
00000
,
00110
01100
10100
00101
00000
10010
00000
00000
;

//---------------pump-single - ----------------
#NOTEDATA:;
#CHARTNAME:;
#STEPSTYPE:pump-single;
#DESCRIPTION:;
#CHARTSTYLE:;
#DIFFICULTY:Hard;
#METER:2;
#RADARVALUES:0.095557,0.127026,0.051454,0.017151,0.000000,39.000000,36.000000,3.000000,1.000000,0.000000,0.000000,0.000000,0.000000,0.000000,0.095557,0.127026,0.051454,0.017151,0.000000,39.000000,36.000000,3.000000,1.000000,0.000000,0.000000,0.000000,0.000000,0.000000;
#CREDIT:;
#NOTES:
00000
00000
00000
00000
,
00000
00000
00000
00000
,
00000
00000
00000
00000
,
10000
00000
00000
00000
,
00001
00000
00000
00000
,
01000
00000
00000
00000
,
01010
00000
00000
00000
,
00001
00000
00100
00000
,
00001
00000
00000
00000
,
01000
00000
00100
00000
,
01000
00000
00000
00000
,
10000
00000
10000
00000
,
00100
00000
00100
00000
,
01000
00000
00010
00000
,
01000
00000
00000
00000
,
00010
00000
00000
00000
,
00100
00000
00000
00000
,
00001
00000
00000
00000
,
10001
00000
00000
00000
,
01000
00000
00000
00000
,
00100
00000
00000
00000
,
10000
00000
00000
00000
,
10001
00000
00000
00000
,
01000
00000
01000
00000
,
00100
00000
00100
00000
,
10000
00000
00001
00000
,
10000
00000
00000
00000
,
00010
00000
01000
00000
,
00010
00000
00000
00000
,
00200
00000
00000
00000
00000
00300
00000
00000
;

//---------------pump-single - ----------------
#NOTEDATA:;
#CHARTNAME:;
#STEPSTYPE:pump-single;
#DESCRIPTION:;
#CHARTSTYLE:;
#DIFFICULTY:Medium;
#METER:1;
#RADARVALUES:0.098007,0.127026,0.068605,0.034302,0.000000,40.000000,36.000000,4.000000,2.000000,0.000000,0.000000,0.000000,0.000000,0.000000,0.098007,0.127026,0.068605,0.034302,0.000000,40.000000,36.000000,4.000000,2.000000,0.000000,0.000000,0.000000,0.000000,0.000000;
#CREDIT:;
#NOTES:
// measure 0
00000
00000
00000
00000
,  // measure 1
00000
00000
00000
00000
,  // measure 2
00000
00000
00000
00000
,  // measure 3
10000
00000
00000
00000
,  // measure 4
00001
00000
00000
00000
,  // measure 5
10000
00000
00000
00000
,  // measure 6
10001
00000
00000
00000
,  // measure 7
00001
00000
10000
00000
,  // measure 8
00001
00000
00000
00000
,  // measure 9
10000
00000
00001
00000
,  // measure 10
10000
00000
00000
00000
,  // measure 11
10000
00000
10000
00000
,  // measure 12
00001
00000
10000
00000
,  // measure 13
10000
00000
00001
00000
,  // measure 14
10000
00000
00000
00000
,  // measure 15
00001
00000
00000
00000
,  // measure 16
10000
00000
00000
00000
,  // measure 17
00001
00000
00000
00000
,  // measure 18
10001
00000
00000
00000
,  // measure 19
10000
00000
00000
00000
,  // measure 20
00001
00000
00000
00000
,  // measure 21
10000
00000
00000
00000
,  // measure 22
10001
00000
00000
00000
,  // measure 23
10000
00000
10000
00000
,  // measure 24
00001
00000
00001
00000
,  // measure 25
10000
00000
00001
00000
,  // measure 26
10000
00000
00000
00000
,  // measure 27
00001
00000
10000
00000
,  // measure 28
00001
00000
00000
00000
,  // measure 29
20002
00000
00000
00000
00000
30003
00000
00000
;
