#TITLE:Pump It (Full version);
#SUBTITLE:;
#ARTIST:Black Eyed Peas;
#TITLETRANSLIT:;
#SUBTITLETRANSLIT:;
#ARTISTTRANSLIT:;
#GENRE:;
#CREDIT:BadWolf;
#BANNER:Pump It (Full version).png;
#BACKGROUND:Pump It (Full version)-bg.png;
#LYRICSPATH:;
#CDTITLE:cdtitle.png;
#MUSIC:Pump It (Full version).ogg;
#OFFSET:-0.420000;
#SAMPLESTART:59.725250;
#SAMPLELENGTH:12.491879;
#SELECTABLE:YES;
#BPMS:0.000000=153.699997
,212.000000=153.000000
,216.000000=153.660004
,296.000000=153.500000
,416.000000=153.520004
,448.000000=153.600006
,480.000000=153.699997
;
#STOPS:
;
#BGCHANGES:-1.400=Pump It (Full Version).mp4=1.000=0=0=1===CrossFade_Fastest==,
544.000=Pump It (Full version)-bg.png=1.000=0=0=1===CrossFade_Fastest==,
99999=-nosongbg-=1.000=0=0=0 // don't automatically add -songbackground-
;
#KEYSOUNDS:;
#ATTACKS:;

//---------------dance-single - ----------------
#NOTES:
     dance-single:
     :
     Challenge:
     10:
     0.742846,0.920489,0.228722,0.018671,0.273066,1114.000000,1065.000000,49.000000,4.000000,0.000000,0.000000,0.742846,0.920489,0.228722,0.018671,0.273066,1114.000000,1065.000000,49.000000,4.000000,0.000000,0.000000:
0000
0000
0000
0000
,
0000
0000
0000
0000
,
1000
0001
1000
0001
1000
0000
0001
0000
1000
0001
1000
0000
0001
1000
0001
0000
,
1000
0100
1000
0100
1000
0100
1000
0100
0010
0001
0010
0001
0010
0001
0010
0001
,
1000
0000
0010
0000
0100
0000
0001
0000
1000
0001
1000
0001
1000
0000
0001
0000
,
0010
0000
0100
0000
1000
0000
0010
0000
0100
0001
0100
0001
0100
0000
0001
0000
,
0010
0100
0010
0100
0010
0000
0001
0000
1000
0010
1000
0000
0001
0100
0001
0000
,
1000
0100
1000
0100
1000
0000
0010
0000
0100
0001
0100
0000
0010
1000
0010
0000
,
1000
0000
0100
0000
0010
0000
0001
0000
0100
0010
0100
0010
0100
0000
0001
0000
,
0010
0000
0100
0000
1000
0000
0001
0000
0100
0010
0100
0010
0100
0000
0001
0000
,
1000
0000
1000
0000
0010
0000
0100
0000
0001
1000
0001
0000
0010
0000
0100
0000
,
1000
0000
0001
0000
0100
0000
0010
0000
1000
0100
1000
0000
0001
0000
0100
0000
,
0001
0000
0001
0000
0100
0000
0010
0000
1000
0001
1000
0000
0100
0000
0010
0000
,
0001
0000
1000
0000
0010
0000
0100
0000
0001
0010
0001
0000
1000
0000
0010
0000
,
1000
0100
0001
1000
0010
0001
0100
0010
,
1000
0001
0010
1000
0001
0100
1000
0001
,
1000
0000
0010
0010
0100
0001
1000
0100
,
0010
0000
0001
0100
0001
0100
0010
1000
0001
1000
0001
1000
0100
0010
0001
1000
,
0001
0000
0000
0000
1000
0000
1000
0010
0100
0000
0001
0000
1000
0000
0000
0000
,
1001
0000
0001
0001
0010
0100
1000
0000
,
1001
0000
0000
1000
0010
0000
0100
0001
0010
0000
0001
0000
1000
0000
0000
0000
,
0110
0010
1000
0100
0010
0001
0100
0000
,
0011
0000
0000
0000
0001
1000
0001
0000
0100
0000
0010
0000
1000
0000
0000
0000
,
1100
0000
0100
0000
0010
0001
1000
0000
0010
0000
0100
0000
0010
0000
0000
0000
,
1001
0000
1000
0010
0001
1000
0100
0001
,
1000
0000
0000
0010
0000
0000
0100
0000
0000
0001
0000
0000
0010
0000
0100
0000
1000
0000
0001
0000
0000
0000
0000
0000
,
1001
0000
1000
0010
0001
0010
0100
0001
,
0011
0000
0010
0100
1000
0010
0001
0010
,
0110
0000
0100
0001
1000
0100
0010
0001
,
0100
0010
1000
0001
0010
0100
1000
0000
,
0001
0100
1000
0100
0001
1000
1001
0000
,
1000
0010
0001
0010
1000
0100
0010
0001
,
1001
0000
1000
1000
0001
0100
0010
1000
,
0100
0000
1000
0010
1000
0010
0100
0001
1000
0001
1000
0001
0010
0100
1000
0001
,
1000
0000
0001
0100
1000
0100
0001
0000
,
1001
0000
1000
0010
0001
0010
1000
0000
,
1001
0000
0001
0100
1000
0100
0001
0000
,
1000
0001
0100
0010
0001
0010
1000
0001
,
1000
0000
1000
0000
0100
0000
0010
0000
0001
1000
0001
0000
0100
0000
0010
0000
,
1000
0000
0001
0000
0010
0000
0100
0000
1000
0010
1000
0000
0001
0000
0010
0000
,
0001
0000
0001
0000
0010
0000
0100
0000
1000
0001
1000
0000
0010
0000
0100
0000
,
0001
0000
1000
0000
0100
0000
0010
0000
0001
0100
0001
0000
1000
0000
0100
0000
,
1000
0000
1000
0000
0010
0000
0100
0000
0001
1000
0001
0000
0010
0000
0100
0000
,
1000
0000
0001
0000
0100
0000
0010
0000
1000
0100
1000
0000
0001
0000
0100
0000
,
0001
0000
0010
0010
0100
1000
0001
0000
,
1000
0000
0010
0010
0100
0001
1000
0001
,
0001
0010
1000
0001
0100
1000
0010
0100
,
0001
1000
0100
0001
1000
0010
0001
1000
,
0001
0000
0100
0100
0010
1000
0001
0010
,
0100
0000
0010
0010
0100
1000
0001
0100
,
0001
0010
1000
0001
0100
1000
0010
0100
,
0001
1000
0100
0001
1000
0010
0001
1000
,
0001
0000
0100
0100
0010
1000
0001
1000
,
2002
0000
0000
3003
,
0001
0000
0000
0000
1000
0000
0100
0010
0001
0000
1000
0000
0001
0000
0000
0000
,
2002
0000
0000
0000
0000
3003
1000
0000
,
1001
0000
0000
0000
0001
0000
0100
0010
1000
0000
0100
0000
0010
0000
0100
0000
,
1000
0010
0001
0010
0100
0010
1000
0000
,
1001
0000
0001
0010
1000
0010
0100
1000
,
0010
0001
0010
1000
0100
0010
0001
0000
,
1001
0000
1000
0010
0001
0010
1000
0000
,
1001
0000
0001
0100
1000
0100
0001
0000
,
1001
1000
0001
0001
0100
0010
1000
0100
,
0010
0100
1000
0010
0001
0010
0100
0001
,
1000
0000
0001
0010
1000
0001
0100
1000
,
0010
0100
1000
0100
0001
1000
0001
0000
,
1000
0100
0110
0000
0001
0100
0110
0000
,
1000
0100
0010
0001
0010
0100
1001
0000
,
0001
0100
1000
0100
0001
1000
0001
0000
,
1000
0000
0001
0010
0001
0010
0100
1000
0001
1000
0001
1000
0010
0100
0001
1000
,
0001
0001
1000
0010
0001
0010
1000
0000
,
1001
0000
0001
0100
1000
0100
0001
0000
,
1001
0000
1000
0010
0001
0010
1000
0000
,
0001
1000
0010
0100
1000
0100
0001
1000
,
0001
0000
0001
0000
0010
0000
0100
0000
1000
0001
1000
0000
0010
0000
0100
0000
,
0001
0000
1000
0000
0100
0000
0010
0000
0001
0100
0001
0000
1000
0000
0100
0000
,
1000
0000
1000
0000
0100
0000
0010
0000
0001
1000
0001
0000
0100
0000
0010
0000
,
1000
0000
0001
0000
0010
0000
0100
0000
1000
0010
1000
0000
0001
0000
0010
0000
,
0001
0000
0001
0000
0100
0000
0010
0000
1000
0001
1000
0000
0100
0000
0010
0000
,
0001
0000
1000
0000
0010
0000
0100
0000
0001
0010
0001
0000
1000
0000
0010
0000
,
1000
0000
0100
0100
0010
0001
1000
0000
,
0001
0000
0100
0100
0010
1000
0001
1000
,
1000
0100
0001
1000
0010
0001
0100
0010
,
1000
0001
0010
1000
0001
0100
1000
0001
,
1000
0000
0010
0010
0100
0001
1000
0100
,
0010
0000
0100
0100
0010
0001
1000
0010
,
1000
0100
0001
1000
0010
0001
0100
0010
,
1000
0001
0010
1000
0001
0100
1000
0001
,
1000
0000
0010
0010
0100
0001
1000
0001
,
1000
0100
0010
0001
0100
0010
1000
0001
,
1000
0100
1000
0100
1000
0000
0010
0100
0010
0100
0010
0000
1000
0001
1000
0001
,
0010
0100
0010
0100
0010
0000
0001
1000
0001
1000
0001
0000
0010
0100
0010
0100
,
1000
0010
1000
0010
1000
0000
0001
0100
0001
0100
0001
0000
1000
0010
1000
0010
,
1000
0100
0010
0001
1000
0000
0001
0010
0100
1000
0001
0000
0100
0010
0100
0010
,
1000
0001
1000
0001
1000
0000
0001
0010
0100
1000
0001
0000
1000
0010
0100
0001
,
1000
0100
1000
0100
0010
0000
0001
0000
1000
0010
1000
0000
0001
0100
0001
0000
,
1000
0000
0100
0000
0010
0000
0001
0100
0001
0000
1000
0000
0010
0000
0100
0000
,
1000
0100
0001
1000
0001
0010
0100
0000
,
1000
0010
1000
0000
0001
0000
0100
0001
0100
0000
0010
0000
1000
0000
0100
0000
,
0001
0100
1000
0001
1000
0010
0100
0000
,
1001
1001
0000
0001
0010
0100
1000
0000
,
1001
1001
0000
1000
0100
0010
0001
0100
,
0110
0110
0000
0010
1000
0001
1000
0000
,
1001
1001
0001
0010
0100
1000
0001
1000
,
1001
0000
0001
0001
0000
0100
0010
0000
,
1001
0000
1000
1000
0000
0100
0010
0000
,
1001
0000
0001
0001
0000
0010
0100
0000
,
1001
0000
1000
1000
0000
0010
0100
0000
,
1001
0000
0001
0001
0000
1000
0100
0000
,
1001
0000
1000
1000
0000
0001
0100
0000
,
1001
0000
0001
0001
0000
1000
0010
0000
,
1001
0000
1000
1000
0000
0001
0010
0000
,
1001
0000
0001
0001
0010
0100
1000
0000
,
1001
0000
1000
1000
0010
0100
0001
0000
,
1001
0000
0001
0001
0100
0010
1000
0000
,
1001
0000
1000
1000
0100
0010
0001
0000
,
0110
0000
0100
1000
0010
0100
0001
0000
,
0110
0000
0010
0001
0100
0010
1000
0000
,
1001
0000
0001
1000
0100
0010
0001
0000
,
1001
0000
1000
0001
0100
0010
1000
0000
,
0001
0000
0001
0000
0010
0000
0100
0000
1000
0001
1000
0000
0010
0000
0100
0000
,
0001
0000
1000
0000
0100
0000
0010
0000
0001
0100
0001
0000
1000
0000
0100
0000
,
1000
0000
1000
0000
0100
0000
0010
0000
0001
1000
0001
0000
0100
0000
0010
0000
,
1000
0000
0001
0000
0010
0000
0100
0000
1000
0010
1000
0000
0001
0000
0010
0000
,
0001
0000
0001
0000
0100
0000
0010
0000
1000
0001
1000
0000
0100
0000
0010
0000
,
0001
0000
1000
0000
0010
0000
0100
0000
0001
0010
0001
0000
1000
0000
0010
0000
,
1000
0000
0100
0100
0010
0001
1000
0000
,
0001
0000
0100
0100
0010
1000
0001
1000
,
1000
0100
0001
1000
0010
0001
0100
0010
,
1000
0001
0010
1000
0001
0100
1000
0001
,
1000
0000
0010
0010
0100
0001
1000
0100
,
0010
0000
0100
0100
0010
0001
1000
0010
,
1000
0100
0001
1000
0010
0001
0100
0010
,
1000
0001
0010
1000
0001
0100
1000
0001
,
1000
0000
0010
0010
0100
0001
1000
0001
,
1000
0100
0010
0001
0100
0010
1000
0001
,
1000
0000
0000
0000
;

//---------------dance-single - ----------------
#NOTES:
     dance-single:
     :
     Hard:
     9:
     0.653491,0.761784,0.364088,0.018671,0.130698,980.000000,902.000000,78.000000,4.000000,0.000000,0.000000,0.653491,0.761784,0.364088,0.018671,0.130698,980.000000,902.000000,78.000000,4.000000,0.000000,0.000000:
// measure 0
0000
0000
0000
0000
,  // measure 1
0000
0000
0000
0000
,  // measure 2
0000
0000
0000
0000
,  // measure 3
1001
0000
0110
0000
,  // measure 4
1001
0000
0001
0001
0010
0100
1000
0000
,  // measure 5
1001
0000
1000
1000
0010
0100
0001
0000
,  // measure 6
1001
0000
0000
1000
0000
0000
0100
0000
0010
0000
0001
0000
1000
0000
0000
0000
,  // measure 7
1001
0000
0001
0001
0100
0010
1000
0000
,  // measure 8
1001
0000
1000
1000
0100
0010
0001
0000
,  // measure 9
1001
0000
0001
0001
0100
0010
1000
0000
,  // measure 10
1001
0000
0000
0001
0000
0000
1000
0000
0100
0000
0010
0000
0001
0000
0000
0000
,  // measure 11
1001
0000
0000
1000
0000
0000
0001
0000
0010
0000
0100
0000
1000
0000
0000
0000
,  // measure 12
1001
0000
0000
0001
0000
0000
1000
0000
0010
0000
0100
0000
0001
0000
0000
0000
,  // measure 13
1001
0000
0000
1000
0000
0000
0001
0000
0100
0000
0010
0000
1000
0000
0000
0000
,  // measure 14
0001
0010
1000
0001
0100
1000
0010
0100
,  // measure 15
0001
1000
0100
0001
1000
0010
0001
1000
,  // measure 16
0001
0000
0100
0100
0010
1000
0001
0010
,  // measure 17
0100
0000
1000
0010
1000
0010
0100
0001
1000
0001
1000
0001
0010
0100
1000
0001
,  // measure 18
1000
0000
0000
0000
0001
0000
0001
0100
0010
0000
1000
0000
0001
0000
0000
0000
,  // measure 19
1001
0000
1000
1000
0100
0010
0001
0000
,  // measure 20
1001
0000
0000
0001
0100
0000
0010
1000
0100
0000
1000
0000
0001
0000
0000
0000
,  // measure 21
0110
0100
0001
0010
0100
1000
0010
0000
,  // measure 22
1100
0000
0000
0000
1000
0001
1000
0000
0010
0000
0100
0000
0001
0000
0000
0000
,  // measure 23
0011
0000
0010
0000
0100
1000
0001
0000
0100
0000
0010
0000
0100
0000
0000
0000
,  // measure 24
1001
0000
0001
0100
1000
0001
0010
1000
,  // measure 25
0001
0000
0000
0100
0000
0000
0010
0000
0000
1000
0000
0000
0100
0000
0010
0000
0001
0000
1000
0000
0000
0000
0000
0000
,  // measure 26
1001
0000
0001
0100
1000
0100
0010
1000
,  // measure 27
1100
0000
0100
0010
0001
0100
1000
0100
,  // measure 28
0110
0000
0010
1000
0001
0010
0100
1000
,  // measure 29
0010
0100
0001
1000
0100
0010
0001
0000
,  // measure 30
1000
0010
0001
0010
1000
0001
1001
0000
,  // measure 31
0001
0100
1000
0100
0001
0010
0100
1000
,  // measure 32
1001
0000
0001
0001
1000
0010
0100
0001
,  // measure 33
0010
0000
0001
0100
0001
0100
0010
1000
0001
1000
0001
1000
0100
0010
0001
1000
,  // measure 34
0001
0000
1000
0010
0001
0010
1000
0000
,  // measure 35
1001
0000
0001
0100
1000
0100
0001
0000
,  // measure 36
1001
0000
1000
0010
0001
0010
1000
0000
,  // measure 37
0001
1000
0010
0100
1000
0100
0001
1000
,  // measure 38
1001
0000
0000
0001
0000
0000
1000
0000
0100
0000
0010
0000
0001
0000
0000
0000
,  // measure 39
1001
0000
0000
1000
0000
0000
0001
0000
0010
0000
0100
0000
1000
0000
0000
0000
,  // measure 40
1001
0000
0000
0001
0000
0000
1000
0000
0010
0000
0100
0000
0001
0000
0000
0000
,  // measure 41
1001
0000
0000
1000
0000
0000
0001
0000
0100
0000
0010
0000
1000
0000
0000
0000
,  // measure 42
1001
0000
0000
0001
0000
0000
1000
0000
0100
0000
0010
0000
0001
0000
0000
0000
,  // measure 43
1001
0000
0000
1000
0000
0000
0001
0000
0010
0000
0100
0000
1000
0000
0001
0000
,  // measure 44
1000
0000
0100
0100
0010
0001
1000
0000
,  // measure 45
0001
0000
0100
0100
0010
1000
0001
1000
,  // measure 46
1000
0100
0001
1000
0010
0001
0100
0010
,  // measure 47
1000
0001
0010
1000
0001
0100
1000
0001
,  // measure 48
1000
0000
0010
0010
0100
0001
1000
0100
,  // measure 49
0010
0000
0100
0100
0010
0001
1000
0010
,  // measure 50
1000
0100
0001
1000
0010
0001
0100
0010
,  // measure 51
1000
0001
0010
1000
0001
0100
1000
0001
,  // measure 52
1000
0000
0010
0010
0100
0001
1000
0001
,  // measure 53
2002
0000
0000
3003
,  // measure 54
1000
0000
0000
0000
0001
0000
0010
0100
1000
0000
0001
0000
1000
0000
0000
0000
,  // measure 55
2002
0000
0000
0000
0000
3003
0001
0000
,  // measure 56
1001
0000
0000
0000
1000
0000
0010
0100
0001
0000
0010
0000
0100
0000
0010
0000
,  // measure 57
0001
0100
1000
0100
0010
0100
0001
0000
,  // measure 58
1001
0000
1000
0100
0001
0100
0010
0001
,  // measure 59
0100
1000
0100
0001
0010
0100
1000
0000
,  // measure 60
1001
0000
0001
0100
1000
0100
0001
0000
,  // measure 61
1001
0000
1000
0010
0001
0010
1000
0000
,  // measure 62
1001
0001
1000
1000
0010
0100
0001
0010
,  // measure 63
0100
0010
0001
0100
1000
0100
0010
1000
,  // measure 64
0001
0000
1000
0100
0001
1000
0010
0001
,  // measure 65
0100
0010
0001
0010
1000
0001
1000
0000
,  // measure 66
0001
0010
0110
0000
1000
0010
0110
0000
,  // measure 67
0001
0010
0100
1000
0100
0010
0001
0000
,  // measure 68
1000
0010
0001
0010
1000
0001
1000
0000
,  // measure 69
0001
0000
1000
0100
1000
0100
0010
0001
1000
0001
1000
0001
0100
0010
1000
0001
,  // measure 70
1000
1000
0001
0100
1000
0100
0001
0000
,  // measure 71
1001
0000
1000
0010
0001
0010
1000
0000
,  // measure 72
1001
0000
0001
0100
1000
0100
0001
0000
,  // measure 73
1000
0001
0100
0010
0001
0010
1000
0001
,  // measure 74
1001
0000
0000
1000
0000
0000
0001
0000
0010
0000
0100
0000
1000
0000
0000
0000
,  // measure 75
1001
0000
0000
0001
0000
0000
1000
0000
0100
0000
0010
0000
0001
0000
0000
0000
,  // measure 76
1001
0000
0000
1000
0000
0000
0001
0000
0100
0000
0010
0000
1000
0000
0000
0000
,  // measure 77
1001
0000
0000
0001
0000
0000
1000
0000
0010
0000
0100
0000
0001
0000
0000
0000
,  // measure 78
1001
0000
0000
1000
0000
0000
0001
0000
0010
0000
0100
0000
1000
0000
0000
0000
,  // measure 79
1001
0000
0000
0001
0000
0000
1000
0000
0100
0000
0010
0000
0001
0000
1000
0000
,  // measure 80
0001
0000
0010
0010
0100
1000
0001
0000
,  // measure 81
1000
0000
0010
0010
0100
0001
1000
0001
,  // measure 82
0001
0010
1000
0001
0100
1000
0010
0100
,  // measure 83
0001
1000
0100
0001
1000
0010
0001
1000
,  // measure 84
0001
0000
0100
0100
0010
1000
0001
0010
,  // measure 85
0100
0000
0010
0010
0100
1000
0001
0100
,  // measure 86
0001
0010
1000
0001
0100
1000
0010
0100
,  // measure 87
0001
1000
0100
0001
1000
0010
0001
1000
,  // measure 88
0001
0000
0100
0100
0010
1000
0001
1000
,  // measure 89
0001
0010
0100
1000
0010
0100
0001
1000
,  // measure 90
0001
0000
0010
0100
0000
0100
1000
0010
,  // measure 91
1000
0000
0100
0010
0000
0010
0001
0100
,  // measure 92
0001
0000
0010
0100
0000
0100
1000
0010
,  // measure 93
1000
0000
0100
0010
0000
0010
0001
1000
,  // measure 94
0001
0000
0100
0010
0000
0010
1000
0100
,  // measure 95
1000
0000
0010
0100
0000
0100
0001
1000
,  // measure 96
0001
0000
0010
0000
0100
0000
1000
0010
1000
0000
0001
0000
0100
0000
0010
0000
,  // measure 97
0001
0010
1000
0001
1000
0100
0010
0000
,  // measure 98
0001
0100
0001
0000
1000
0000
0010
1000
0010
0000
0100
0000
0001
0000
0010
0000
,  // measure 99
1000
0010
0001
1000
0001
0100
0010
0000
,  // measure 100
1001
1001
0000
1000
0100
0010
0001
0000
,  // measure 101
1001
1001
0000
0001
0010
0100
1000
0010
,  // measure 102
0110
0110
0000
0100
0001
1000
0001
0000
,  // measure 103
1001
1001
1000
0100
0010
0001
1000
0001
,  // measure 104
1001
0000
1000
1000
0000
0010
0100
0000
,  // measure 105
1001
0000
0001
0001
0000
0010
0100
0000
,  // measure 106
1001
0000
1000
1000
0000
0100
0010
0000
,  // measure 107
1001
0000
0001
0001
0000
0100
0010
0000
,  // measure 108
1001
0000
1000
1000
0000
0001
0010
0000
,  // measure 109
1001
0000
0001
0001
0000
1000
0010
0000
,  // measure 110
1001
0000
1000
1000
0000
0001
0100
0000
,  // measure 111
1001
0000
0001
0001
0000
1000
0100
0000
,  // measure 112
1001
0000
1000
1000
0100
0010
0001
0000
,  // measure 113
1001
0000
0001
0001
0100
0010
1000
0000
,  // measure 114
1001
0000
1000
1000
0010
0100
0001
0000
,  // measure 115
1001
0000
0001
0001
0010
0100
1000
0000
,  // measure 116
0110
0000
0010
0001
0100
0010
1000
0000
,  // measure 117
0110
0000
0100
1000
0010
0100
0001
0000
,  // measure 118
1001
0000
1000
0001
0010
0100
1000
0000
,  // measure 119
1001
0000
0001
1000
0010
0100
0001
0000
,  // measure 120
1001
0000
0000
1000
0000
0000
0001
0000
0010
0000
0100
0000
1000
0000
0000
0000
,  // measure 121
1001
0000
0000
0001
0000
0000
1000
0000
0100
0000
0010
0000
0001
0000
0000
0000
,  // measure 122
1001
0000
0000
1000
0000
0000
0001
0000
0100
0000
0010
0000
1000
0000
0000
0000
,  // measure 123
1001
0000
0000
0001
0000
0000
1000
0000
0010
0000
0100
0000
0001
0000
0000
0000
,  // measure 124
1001
0000
0000
1000
0000
0000
0001
0000
0010
0000
0100
0000
1000
0000
0000
0000
,  // measure 125
1001
0000
0000
0001
0000
0000
1000
0000
0100
0000
0010
0000
0001
0000
1000
0000
,  // measure 126
0001
0000
0010
0010
0100
1000
0001
0000
,  // measure 127
1000
0000
0010
0010
0100
0001
1000
0001
,  // measure 128
0001
0010
1000
0001
0100
1000
0010
0100
,  // measure 129
0001
1000
0100
0001
1000
0010
0001
1000
,  // measure 130
0001
0000
0100
0100
0010
1000
0001
0010
,  // measure 131
0100
0000
0010
0010
0100
1000
0001
0100
,  // measure 132
0001
0010
1000
0001
0100
1000
0010
0100
,  // measure 133
0001
1000
0100
0001
1000
0010
0001
1000
,  // measure 134
0001
0000
0100
0100
0010
1000
0001
1000
,  // measure 135
0001
0010
0100
1000
0010
0100
0001
1000
,  // measure 136
0001
0000
0000
0000
;
