#VERSION:0.83;
#TITLE:Pump It (AMV version);
#SUBTITLE:;
#ARTIST:Black Eyed Peas;
#TITLETRANSLIT:;
#SUBTITLETRANSLIT:;
#ARTISTTRANSLIT:;
#GENRE:;
#ORIGIN:;
#CREDIT:BadWolf;
#BANNER:Pump It (AMV version).png;
#BACKGROUND:Pump It (AMV version)-bg.png;
#PREVIEWVID:;
#JACKET:Pump It (AMV version)-jacket.png;
#CDIMAGE:;
#DISCIMAGE:;
#LYRICSPATH:;
#CDTITLE:cdtitle.png;
#MUSIC:Pump It (AMV version).ogg;
#OFFSET:-0.300000;
#SAMPLESTART:61.206738;
#SAMPLELENGTH:12.491875;
#SELECTABLE:YES;
#BPMS:0.000=153.700;
#STOPS:;
#DELAYS:;
#WARPS:;
#TIMESIGNATURES:0.000=4=4;
#TICKCOUNTS:0.000=4;
#COMBOS:0.000=1;
#SPEEDS:0.000=1.000=0.000=0;
#SCROLLS:0.000=1.000;
#FAKES:;
#LABELS:0.000=Song Start;
#BGCHANGES:-1.000=Pump It (AMV Version).mp4=1.000=0=0=1===CrossFade_Fastest==,
220.000=Pump It (AMV version)-bg.png=1.000=0=0=1===CrossFade_Fastest==,
99999=-nosongbg-=1.000=0=0=0 // don't automatically add -songbackground-
;
#KEYSOUNDS:;
#ATTACKS:
;

//---------------dance-single - ----------------
#NOTEDATA:;
#CHARTNAME:;
#STEPSTYPE:dance-single;
#DESCRIPTION:;
#CHARTSTYLE:;
#DIFFICULTY:Edit;
#METER:10;
#RADARVALUES:0.647077,0.794403,0.369758,0.023110,0.167547,392.000000,360.000000,32.000000,2.000000,0.000000,0.000000,0.000000,0.000000,0.000000,0.647077,0.794403,0.369758,0.023110,0.167547,392.000000,360.000000,32.000000,2.000000,0.000000,0.000000,0.000000,0.000000,0.000000;
#CREDIT:;
#NOTES:
0000
0000
0000
0000
,
0000
0000
0000
0000
,
0000
0000
0000
0000
,
0000
0000
0000
0000
,
1001
0000
0110
0000
,
1001
0000
0001
0001
0010
0100
1000
0000
,
1001
0000
1000
1000
0100
0010
0001
0000
,
0110
0000
0010
0010
1000
0001
0100
0000
,
0110
0000
0100
0100
0001
1000
0100
0000
,
0011
0000
0001
0001
0100
0010
1000
0000
,
1100
0000
1000
1000
0010
0100
0001
0000
,
1001
1000
0100
0100
0010
0001
0100
0010
,
1010
1000
0001
0001
0010
0100
1000
0001
,
1001
1000
0010
0010
0100
0001
0010
0100
,
1100
1000
0001
0001
0100
0010
1000
0001
,
1000
0010
0001
0010
0100
0010
1000
0100
,
0010
1000
0010
0001
0100
0010
1000
0000
,
1002
0000
0100
0100
0000
0010
1003
0000
,
1000
0000
0100
0010
0100
0010
0001
0010
0001
1000
0001
1000
0001
1000
0001
1000
,
0001
0000
0000
0000
0100
0010
0100
0010
1000
0000
0001
0000
1000
0000
0000
0000
,
1001
0000
0000
0000
0001
0010
0001
0000
0100
0000
0010
0000
1000
0000
0000
0000
,
1001
0000
0000
0001
1000
0000
0100
0010
0001
0000
1000
0000
0001
0000
0000
0000
,
1001
1000
0010
0001
0010
0100
0001
0000
,
1001
0000
0000
0000
1000
0100
0010
0000
0001
0000
1000
0000
0001
0000
0000
0000
,
1001
0000
1000
0000
0010
0100
0010
0000
1000
0000
0001
0000
1000
0000
0000
0000
,
1001
0000
0001
0010
0100
0010
1000
0010
,
0100
0000
0000
0010
0000
0000
0001
0000
0000
1000
0000
0000
0010
0000
0100
0000
0010
0000
1000
0000
0000
0000
0000
0000
,
1001
0000
0001
0001
0010
1000
0010
0001
,
1001
0000
1000
1000
0010
0001
0010
1000
,
1001
0000
0001
0100
1000
0100
0010
0100
,
0001
1000
0100
0010
0001
0100
0010
0000
,
1000
0001
0010
0010
0100
1000
0001
0000
,
0100
0010
1000
1000
0100
0010
0001
0000
,
1001
0000
1000
0010
0001
0010
1000
0000
,
0001
0000
0010
0100
0010
0100
1000
0100
1000
0001
1000
0001
1000
0001
1000
0001
,
1000
0000
0001
0001
0100
0010
1000
0000
,
1001
0000
1000
1000
0100
0010
0001
0000
,
1001
0000
0001
0001
1000
0010
0100
0000
,
0001
0010
0100
0001
0100
1000
0010
1000
,
1100
0000
0000
0100
0000
0000
0010
0000
0001
0000
0100
0000
1000
0000
0100
0000
,
0110
0000
0000
0010
0000
0000
1000
0000
0100
0000
0001
0000
0100
0000
1000
0000
,
1001
0000
0000
0001
0000
0000
0010
0000
0100
0000
0010
0000
0001
0000
1000
0000
,
1100
0000
0000
0100
0000
0000
0010
0000
0001
0000
0100
0000
1000
0000
0100
0000
,
0101
0000
0000
0001
0000
0000
0010
0000
0001
0000
0100
0000
1000
0000
0100
0000
,
0110
0000
0000
0010
0000
0000
1000
0000
0100
0000
0001
0000
0100
0000
1000
0000
,
0001
0000
0100
0100
0010
1000
0001
0000
,
0010
0000
0100
0100
1000
0010
1000
0000
,
0001
0100
1000
0001
0010
1000
0001
0100
,
0010
1000
0100
0001
1000
0010
0001
1000
,
0001
0000
0100
0100
0010
1000
0001
0000
,
0010
0000
0100
0100
0010
0001
1000
0000
,
0001
0010
1000
0001
0100
1000
0001
0010
,
0100
1000
0010
0001
1000
0100
0001
1000
,
0001
0000
0010
0010
0100
1000
0001
0000
,
2001
0000
0000
0000
,
3001
0000
0000
0000
;

//---------------dance-single - ----------------
#NOTEDATA:;
#CHARTNAME:;
#STEPSTYPE:dance-single;
#DESCRIPTION:;
#CHARTSTYLE:;
#DIFFICULTY:Challenge;
#METER:8;
#RADARVALUES:0.529877,0.540194,0.335094,0.011555,0.057775,321.000000,292.000000,29.000000,1.000000,0.000000,0.000000,0.000000,0.000000,0.000000,0.529877,0.540194,0.335094,0.011555,0.057775,321.000000,292.000000,29.000000,1.000000,0.000000,0.000000,0.000000,0.000000,0.000000;
#CREDIT:;
#NOTES:
0000
0000
0000
0000
,
0000
0000
0000
0000
,
0000
0000
0000
0000
,
0000
0000
0000
0000
,
1001
0000
0110
0000
,
1001
0000
0001
0010
0000
0010
0100
0000
,
1001
0000
1000
0010
0000
0010
0100
0000
,
1001
0000
0001
0100
0000
0100
0010
0000
,
1001
0000
1000
0100
0000
0100
0010
0000
,
1001
0000
0001
0010
0000
0100
1000
0000
,
1001
0000
1000
0100
0000
0010
0001
0000
,
1001
0000
0000
1000
0000
0000
0001
0000
0010
0000
0100
0000
0000
0000
0000
0000
,
1001
0000
0000
0001
0000
0000
1000
0000
0100
0000
0010
0000
0000
0000
0000
0000
,
1001
0000
0000
0001
0000
0000
0100
0000
0010
0000
1000
0000
0000
0000
0000
0000
,
1001
0000
0000
1000
0000
0000
0010
0000
0100
0000
0001
0000
0000
0000
0000
0000
,
1000
0100
0010
0100
1000
0001
1000
0000
,
0001
0100
0010
0100
0001
1000
0001
0000
,
1001
0000
1000
0010
0000
0010
0100
0000
,
0001
1000
0100
0010
0001
1000
0100
0010
,
0001
0000
0100
0100
0010
1000
0001
0000
,
0100
0000
0010
0010
1000
0001
0010
0000
,
0100
0000
1000
1000
0010
1000
0001
0000
,
0010
0000
0100
0100
1000
0001
1000
0000
,
0001
0000
1000
0100
0010
0001
1000
0000
,
0010
0000
0100
0001
0010
0100
1000
0000
,
0001
0000
1000
0010
0001
0010
0100
0001
,
1000
0100
0010
0001
0010
0100
1000
0000
,
1001
0000
0110
0000
0001
1000
0001
1000
,
0100
0000
0010
0010
0001
0100
0010
1000
,
0001
0000
0010
0010
0100
1000
0010
0100
,
0001
1000
0100
0010
0001
1000
0010
0000
,
0100
0001
1000
0100
0010
0001
1000
0000
,
0010
1000
0001
0010
0100
1000
0001
0000
,
1000
0000
0010
0100
0010
0100
0001
0000
,
1000
0001
0010
0100
1000
0001
0010
0100
,
1000
0000
0001
1000
0001
1000
0000
0000
,
0110
0000
1000
0001
1000
0001
0000
0000
,
0110
0000
0001
1000
0001
1000
0000
0000
,
0001
0010
0100
0010
1000
0010
0100
0010
,
1001
0000
0000
1000
0000
0000
0001
0000
0010
0000
0100
0000
0000
0000
0000
0000
,
1001
0000
0000
0001
0000
0000
1000
0000
0100
0000
0010
0000
0000
0000
0000
0000
,
1001
0000
0000
0001
0000
0000
0100
0000
0010
0000
1000
0000
0000
0000
0000
0000
,
1001
0000
0000
1000
0000
0000
0010
0000
0100
0000
0001
0000
0000
0000
0000
0000
,
1001
0000
0000
1000
0000
0000
0001
0000
0010
0000
0100
0000
0000
0000
0000
0000
,
1001
0000
0000
0001
0000
0000
1000
0000
0100
0000
0010
0000
0000
0000
0000
0000
,
1001
0000
0001
0100
0000
0100
0010
0000
,
1001
0000
1000
0010
0000
0010
0100
0000
,
0001
0010
0100
0010
0001
1000
0001
0000
,
1000
0010
0100
0010
1000
0001
1000
0000
,
1001
0000
0001
0100
0000
0100
0010
0000
,
1001
0000
1000
0100
0000
0100
0010
0000
,
0001
0100
0010
0100
0001
1000
0001
0000
,
1000
0100
0010
0100
1000
0001
1000
0000
,
1001
0000
0001
0010
0000
0010
0100
0000
,
2001
0000
0000
0000
,
3001
0000
0000
0000
;

//---------------dance-single - ----------------
#NOTEDATA:;
#CHARTNAME:;
#STEPSTYPE:dance-single;
#DESCRIPTION:;
#CHARTSTYLE:;
#DIFFICULTY:Hard;
#METER:6;
#RADARVALUES:0.417629,0.444866,0.034665,0.069330,0.057775,253.000000,250.000000,3.000000,6.000000,0.000000,0.000000,0.000000,0.000000,0.000000,0.417629,0.444866,0.034665,0.069330,0.057775,253.000000,250.000000,3.000000,6.000000,0.000000,0.000000,0.000000,0.000000,0.000000;
#CREDIT:;
#NOTES:
0000
0000
0000
0000
,
0000
0000
0000
0000
,
0000
0000
0000
0000
,
0000
0000
0000
0000
,
0000
0000
0000
0000
,
0001
0000
1000
0001
0000
1000
0001
0000
,
0100
0000
0010
0100
0000
0010
0100
0000
,
1001
0000
1000
0001
0000
1000
0001
0000
,
0010
0000
0100
0010
0000
0100
0010
0000
,
0001
0000
1000
0001
0000
1000
0001
0000
,
1000
0000
0010
0100
0000
0100
0001
0000
,
1000
0000
0000
0001
0000
0000
1000
0000
0001
0000
1000
0000
0000
0000
0000
0000
,
0010
0000
0000
0100
0000
0000
0010
0000
0100
0000
0010
0000
0000
0000
0000
0000
,
1000
0000
0000
0001
0000
0000
1000
0000
0001
0000
1000
0000
0000
0000
0000
0000
,
0100
0000
0000
0010
0000
0000
0100
0000
0010
0000
0100
0000
0000
0000
0000
0000
,
1000
0000
0010
0100
0010
0100
0001
0000
,
0010
0000
0100
1000
0001
0000
1000
0000
,
2002
0000
0000
3003
,
0001
0100
0001
0100
0010
1000
0010
1000
,
0001
0000
0010
0100
0000
0100
1000
0000
,
0001
0000
0100
0010
0000
0100
0001
0000
,
1000
0000
0100
0010
0000
0010
0001
0000
,
1000
0000
0010
0100
0000
0010
1000
0000
,
0001
0000
0010
0100
0000
1000
0001
0000
,
1000
0000
0010
0100
0000
0100
0001
0000
,
1000
0000
0100
0010
0000
0001
1000
0000
,
0001
0000
0100
0010
0000
0010
1000
0000
,
0001
0000
1000
0100
0000
0100
0010
0000
,
0001
0000
0100
0010
0000
1000
0001
0000
,
1000
0000
0001
0010
0000
0010
0100
0000
,
1000
0000
0010
0100
0000
0001
1000
0000
,
0100
0000
0010
0001
0000
0001
1000
0000
,
0010
0000
0100
0001
0000
1000
0001
0000
,
0010
0000
0100
1000
0000
1000
0001
0000
,
1000
0010
1000
0010
0100
0001
0100
0001
,
1000
0000
0001
1000
0000
0001
1000
0000
,
0010
0000
0100
0010
0000
0100
0010
0000
,
1000
0000
0001
1000
0000
0001
1000
0000
,
0000
0001
0010
0001
0010
0100
1000
0100
,
1000
0000
0000
0001
0000
0000
1000
0000
0001
0000
1000
0000
0000
0000
0000
0000
,
0010
0000
0000
0100
0000
0000
0010
0000
0100
0000
0010
0000
0000
0000
0000
0000
,
1000
0000
0000
0001
0000
0000
1000
0000
0001
0000
1000
0000
0000
0000
0000
0000
,
0100
0000
0000
0010
0000
0000
0100
0000
0010
0000
0100
0000
0000
0000
0000
0000
,
1000
0000
0000
0001
0000
0000
1000
0000
0001
0000
1000
0000
0000
0000
0000
0000
,
0010
0000
0000
0100
0000
0000
0010
0000
0100
0000
0010
0000
0000
0000
0000
0000
,
1000
0000
0100
0010
0000
0001
1000
0000
,
0001
0000
0100
0010
0000
1000
0001
0000
,
1000
0000
0100
0010
0100
0010
0001
0000
,
1000
0000
0010
0100
0001
0000
1000
0000
,
0002
0000
0010
0010
0000
0000
0013
0000
,
2000
0000
0010
0010
0000
0000
3010
0000
,
0001
0000
0010
0100
0010
0100
1000
0000
,
0001
0000
0100
0010
1000
0000
0000
0000
,
2000
0000
0100
0100
0000
0000
3100
0000
,
1002
0000
0000
0000
,
1003
0000
0000
0000
;

//---------------dance-single - ----------------
#NOTEDATA:;
#CHARTNAME:;
#STEPSTYPE:dance-single;
#DESCRIPTION:;
#CHARTSTYLE:;
#DIFFICULTY:Medium;
#METER:4;
#RADARVALUES:0.320237,0.317761,0.219544,0.011555,0.000000,194.000000,175.000000,19.000000,1.000000,0.000000,0.000000,0.000000,0.000000,0.000000,0.320237,0.317761,0.219544,0.011555,0.000000,194.000000,175.000000,19.000000,1.000000,0.000000,0.000000,0.000000,0.000000,0.000000;
#CREDIT:;
#NOTES:
0000
0000
0000
0000
,
0000
0000
0000
0000
,
0000
0000
0000
0000
,
0000
0000
0000
0000
,
1001
0000
0110
0000
,
1001
0001
0000
0001
,
1001
1000
0000
1000
,
0110
0010
0000
0010
,
0110
0100
0000
0100
,
1001
0001
0000
0001
,
1001
1000
0000
1000
,
0001
0010
0100
0000
,
1000
0100
0010
0000
,
0001
0100
0010
0000
,
1000
0010
0100
0000
,
0001
0010
1000
0010
,
0001
0100
0010
1000
,
0001
0010
0000
0100
,
1000
1000
0001
0001
,
1000
0100
0010
0001
,
0100
0010
0100
0010
,
1000
0001
0010
0100
,
1000
0001
1000
0001
,
0010
0010
0100
0100
,
1000
0010
0100
0001
,
1000
0100
0010
0001
,
0100
0010
1000
0001
,
1000
1000
0001
0001
,
0010
0100
1000
0001
,
1000
0010
0100
0001
,
1000
0100
0010
0001
,
0100
0100
0010
0010
,
1000
1000
0001
0001
,
0010
0100
1000
0001
,
0100
0010
1000
0001
,
1001
1000
0000
1000
,
1001
0001
0000
0001
,
0110
0100
0000
0100
,
0001
0010
0100
1000
,
1001
0001
0000
0001
,
1001
1000
0000
1000
,
0110
0010
0000
0010
,
0110
0100
0000
0100
,
1001
0001
0000
0001
,
1001
1000
0000
1000
,
0110
0100
0000
0100
,
0110
0010
0000
0010
,
1000
0100
0001
0100
,
1000
0010
0100
0001
,
1000
0100
0000
0010
,
0001
0100
0000
0010
,
1000
0100
0001
0100
,
1000
0010
0100
0001
,
1000
0100
0000
0010
,
0002
0000
0000
0000
,
1003
0000
0000
0000
;

//---------------dance-single - ----------------
#NOTEDATA:;
#CHARTNAME:;
#STEPSTYPE:dance-single;
#DESCRIPTION:;
#CHARTSTYLE:;
#DIFFICULTY:Easy;
#METER:2;
#RADARVALUES:0.145262,0.158881,0.000000,0.034665,0.000000,88.000000,88.000000,0.000000,3.000000,0.000000,0.000000,0.000000,0.000000,0.000000,0.145262,0.158881,0.000000,0.034665,0.000000,88.000000,88.000000,0.000000,3.000000,0.000000,0.000000,0.000000,0.000000,0.000000;
#CREDIT:;
#NOTES:
0000
0000
0000
0000
,
0000
0000
0000
0000
,
0000
0000
0000
0000
,
0000
0000
0000
0000
,
0000
0000
0000
0000
,
1000
0000
0000
0000
,
0001
0000
0000
0000
,
1000
0000
0000
0000
,
0010
0000
0100
0000
,
0010
0000
0000
0000
,
1000
0000
0000
0000
,
0001
0000
0001
0000
,
1000
0000
1000
0000
,
0010
0000
0010
0000
,
0100
0000
0100
0000
,
0001
0000
1000
0000
,
0001
0000
0000
0000
,
1000
0000
0001
0000
,
2000
0000
0000
3000
,
0001
0000
1000
0000
,
0001
0000
1000
0000
,
0010
0000
0100
0000
,
0010
0000
0100
0000
,
0001
0000
1000
0000
,
0001
0000
1000
0000
,
0100
0000
0010
0000
,
0100
0000
0010
0000
,
0001
0000
0100
0000
,
0001
0000
0100
0000
,
0010
0000
1000
0000
,
0010
0000
1000
0000
,
0001
0000
0010
0000
,
0001
0000
0010
0000
,
0100
0000
1000
0000
,
0100
0000
1000
0000
,
0001
0000
0001
0000
,
1000
0000
1000
0000
,
0010
0000
0010
0000
,
2000
0000
0000
3000
,
0001
0000
0001
0000
,
1000
0000
1000
0000
,
0010
0000
0010
0000
,
0100
0000
0100
0000
,
0001
0000
0001
0000
,
1000
0000
1000
0000
,
0100
0000
0100
0000
,
0010
0000
0010
0000
,
0001
0000
1000
0000
,
0001
0000
0000
0000
,
0100
0000
0010
0000
,
0100
0000
0000
0000
,
0001
0000
1000
0000
,
0001
0000
0000
0000
,
0010
0000
0100
0000
,
2000
0000
0000
0000
,
3000
0000
0000
0000
;

//---------------dance-single - ----------------
#NOTEDATA:;
#CHARTNAME:;
#STEPSTYPE:dance-single;
#DESCRIPTION:;
#CHARTSTYLE:;
#DIFFICULTY:Beginner;
#METER:1;
#RADARVALUES:0.145262,0.158881,0.000000,0.034665,0.000000,88.000000,88.000000,0.000000,3.000000,0.000000,0.000000,0.000000,0.000000,0.000000,0.145262,0.158881,0.000000,0.034665,0.000000,88.000000,88.000000,0.000000,3.000000,0.000000,0.000000,0.000000,0.000000,0.000000;
#CREDIT:;
#NOTES:
// measure 0
0000
0000
0000
0000
,  // measure 1
0000
0000
0000
0000
,  // measure 2
0000
0000
0000
0000
,  // measure 3
0000
0000
0000
0000
,  // measure 4
0000
0000
0000
0000
,  // measure 5
1000
0000
0000
0000
,  // measure 6
0001
0000
0000
0000
,  // measure 7
1000
0000
0000
0000
,  // measure 8
0001
0000
1000
0000
,  // measure 9
0001
0000
0000
0000
,  // measure 10
1000
0000
0000
0000
,  // measure 11
0001
0000
0001
0000
,  // measure 12
1000
0000
1000
0000
,  // measure 13
0001
0000
0001
0000
,  // measure 14
1000
0000
1000
0000
,  // measure 15
0001
0000
1000
0000
,  // measure 16
0001
0000
0000
0000
,  // measure 17
1000
0000
0001
0000
,  // measure 18
2000
0000
0000
3000
,  // measure 19
0001
0000
1000
0000
,  // measure 20
0001
0000
1000
0000
,  // measure 21
0001
0000
1000
0000
,  // measure 22
0001
0000
1000
0000
,  // measure 23
0001
0000
1000
0000
,  // measure 24
0001
0000
1000
0000
,  // measure 25
1000
0000
0001
0000
,  // measure 26
1000
0000
0001
0000
,  // measure 27
0001
0000
1000
0000
,  // measure 28
0001
0000
1000
0000
,  // measure 29
0001
0000
1000
0000
,  // measure 30
0001
0000
1000
0000
,  // measure 31
0001
0000
0001
0000
,  // measure 32
0001
0000
0001
0000
,  // measure 33
1000
0000
1000
0000
,  // measure 34
1000
0000
1000
0000
,  // measure 35
0001
0000
0001
0000
,  // measure 36
1000
0000
1000
0000
,  // measure 37
0001
0000
0001
0000
,  // measure 38
2000
0000
0000
3000
,  // measure 39
0001
0000
0001
0000
,  // measure 40
1000
0000
1000
0000
,  // measure 41
0001
0000
0001
0000
,  // measure 42
1000
0000
1000
0000
,  // measure 43
0001
0000
0001
0000
,  // measure 44
1000
0000
1000
0000
,  // measure 45
1000
0000
1000
0000
,  // measure 46
0001
0000
0001
0000
,  // measure 47
0001
0000
1000
0000
,  // measure 48
0001
0000
0000
0000
,  // measure 49
1000
0000
0001
0000
,  // measure 50
1000
0000
0000
0000
,  // measure 51
0001
0000
1000
0000
,  // measure 52
0001
0000
0000
0000
,  // measure 53
0001
0000
1000
0000
,  // measure 54
2000
0000
0000
0000
,  // measure 55
3000
0000
0000
0000
;
