#VERSION:0.83;
#TITLE:PETIT LOVE;
#SUBTITLE:;
#ARTIST:SMILE.dk;
#TITLETRANSLIT:;
#SUBTITLETRANSLIT:;
#ARTISTTRANSLIT:;
#GENRE:;
#ORIGIN:;
#CREDIT:BadWolf;
#BANNER:PETIT LOVE.png;
#BACKGROUND:Smile dk - Smile Paradise (Back).JPG;
#PREVIEWVID:;
#JACKET:PETIT LOVE-jacket.png;
#CDIMAGE:;
#DISCIMAGE:;
#LYRICSPATH:;
#CDTITLE:cdtitle.png;
#MUSIC:PETIT LOVE.ogg;
#OFFSET:-0.380000;
#SAMPLESTART:66.943909;
#SAMPLELENGTH:12.327091;
#SELECTABLE:YES;
#BPMS:0.000=155.000;
#STOPS:;
#DELAYS:;
#WARPS:;
#TIMESIGNATURES:0.000=4=4;
#TICKCOUNTS:0.000=4;
#COMBOS:0.000=1;
#SPEEDS:0.000=1.000=0.000=0;
#SCROLLS:0.000=1.000;
#FAKES:;
#LABELS:0.000=Song Start;
#BGCHANGES:-0.982=PETIT LOVE.mp4=1.000=0=0=1===CrossFade_Fastest==,
275.000=PETIT LOVE-bg.png=1.000=0=0=1===CrossFade_Fastest==,
99999=-nosongbg-=1.000=0=0=0 // don't automatically add -songbackground-
;
#KEYSOUNDS:;
#ATTACKS:
;

//---------------dance-single - ----------------
#NOTEDATA:;
#CHARTNAME:;
#STEPSTYPE:dance-single;
#DESCRIPTION:;
#CHARTSTYLE:;
#DIFFICULTY:Edit;
#METER:9;
#RADARVALUES:0.670883,0.672471,0.305669,0.018525,0.148203,507.000000,474.000000,33.000000,2.000000,0.000000,0.000000,0.000000,0.000000,0.000000,0.670883,0.672471,0.305669,0.018525,0.148203,507.000000,474.000000,33.000000,2.000000,0.000000,0.000000,0.000000,0.000000,0.000000;
#CREDIT:;
#NOTES:
0000
0000
0000
0000
,
0000
0000
0000
0000
,
0000
0000
0000
0000
,
1000
0010
0001
1000
0100
0001
1000
0010
,
0001
1000
0100
0001
1000
0000
1001
0000
,
0001
0010
1000
0001
0100
1000
0001
0010
,
1000
0000
0001
0000
0100
0000
1000
0000
0001
0000
1000
0000
0010
0000
1000
0001
,
1000
0100
0001
0100
1000
0100
0001
0100
,
1000
0010
0001
0010
1000
0010
0001
0010
,
1000
0100
0001
0100
1000
0100
0001
0100
,
1000
0010
0001
0010
1000
0001
0001
1000
,
0001
0010
1000
0010
0001
0010
1000
0010
,
0001
0100
1000
0100
0001
0100
1000
0100
,
0001
0010
1000
0010
0001
0010
1000
0010
,
0001
0100
1000
0100
0001
0001
1000
0000
,
0001
0000
0000
1000
0010
0000
1000
0000
0001
0000
0000
0100
0010
0000
1000
0000
,
0100
0000
0000
0010
0001
0000
0100
0000
0010
0000
1000
0000
0001
0000
1000
0001
,
1000
0000
0000
0001
0100
0000
0001
0000
1000
0000
0000
0010
0100
0000
0001
0000
,
0010
0000
0000
0100
1000
0000
0010
0000
0100
0000
0001
0000
1000
0001
1000
0001
,
1000
0000
0000
0001
0010
0000
0001
0000
1000
0000
0000
0100
0010
0000
0001
0000
,
0100
0000
0000
0010
1000
0000
0100
0000
0010
0000
0001
0000
1000
0000
0001
1000
,
0001
0100
1000
0100
0001
0100
1000
0100
,
0001
0000
0000
0010
0100
0000
1000
0000
0001
0000
0100
0000
0010
0000
0010
0000
,
0110
0000
1001
0000
,
1100
0000
1100
0000
0011
0000
0011
0000
1001
0000
0000
0000
0001
0000
1000
0001
,
1000
0010
0100
0010
0001
0010
0100
0010
,
1000
0100
0010
0100
0001
0100
0010
0001
,
1000
0010
0001
0010
1000
0100
0001
0100
,
1000
0010
0100
0001
1001
0000
0110
0000
,
0001
0010
0100
1000
1001
0000
0001
0100
,
1000
0100
0001
0010
0100
1000
0001
1000
,
0001
0100
1000
0100
0001
0010
1000
0010
,
0001
0010
0100
0010
0001
0000
0000
0000
1000
0100
0010
0100
1000
0000
0000
0000
,
0001
0100
0010
0100
1000
0100
0010
0100
,
0001
0010
0100
0010
1000
0010
0100
1000
,
0001
0100
1000
0100
0001
0010
1000
0010
,
0001
0100
0010
1000
0001
1000
0100
0010
,
0001
0100
0101
0000
1000
0010
1000
0100
,
0001
0000
0100
0000
1000
0000
0010
0000
0001
0000
0010
0000
1000
0001
1000
0001
,
1000
0000
0000
0001
0011
0000
0000
1000
,
1010
0010
0110
0100
0101
0000
0000
1000
,
1100
0000
0000
0001
0101
0000
0000
1000
,
1100
0000
0100
0000
0110
0000
0010
0000
0011
0000
0001
0000
1000
0001
1000
0000
,
0001
0100
0010
0100
1000
0100
0010
1000
,
0001
0010
1000
0010
0001
0100
1000
0100
,
0001
0010
0100
0010
1000
0010
0100
1000
,
0001
0100
1000
0100
0001
0010
1000
0010
,
0001
0001
0100
0010
1000
0100
0010
0001
,
1000
0000
0000
1000
0010
0000
0000
0010
0100
0000
0000
0100
0001
0000
0000
0001
,
1000
1000
0100
0010
0001
0100
0010
1000
,
0001
0000
0000
0001
0010
0000
0000
0010
0100
0000
0000
0100
1000
0001
1000
0001
,
1000
0010
0100
0010
0001
0010
0100
0001
,
1000
0100
0001
0100
1000
0010
0001
0010
,
1000
0100
0010
0100
0001
0100
0010
0001
,
1000
0010
0001
0010
1000
0100
0001
0100
,
1000
0001
0100
0001
1000
0100
0010
0001
,
1000
0010
0100
0010
0001
0010
0100
0010
,
1000
0001
0010
0001
1000
0010
0100
0001
,
1000
0100
0010
0100
0001
0100
0010
0100
,
1000
0010
0001
0010
1000
0100
0010
0001
,
1000
0010
0100
1000
0100
0001
1000
0001
,
0101
0000
0000
1000
1100
0000
0000
0001
,
0101
0100
0110
0010
1010
0000
0000
1000
,
1100
0000
0000
0001
0101
0000
0000
1000
,
1100
0100
0110
0010
0011
0000
1001
0000
,
0220
0000
0000
0000
,
0330
0000
0000
0000
;

//---------------dance-single - ----------------
#NOTEDATA:;
#CHARTNAME:;
#STEPSTYPE:dance-single;
#DESCRIPTION:;
#CHARTSTYLE:;
#DIFFICULTY:Challenge;
#METER:8;
#RADARVALUES:0.575610,0.580771,0.296406,0.027788,0.055576,435.000000,403.000000,32.000000,3.000000,0.000000,0.000000,0.000000,0.000000,0.000000,0.575610,0.580771,0.296406,0.027788,0.055576,435.000000,403.000000,32.000000,3.000000,0.000000,0.000000,0.000000,0.000000,0.000000;
#CREDIT:;
#NOTES:
0000
0000
0000
0000
,
0000
0000
0000
0000
,
0000
0000
0000
0000
,
1000
0010
1000
0001
0100
0001
1000
0100
,
1000
0001
0010
0001
1000
0000
1001
0000
,
0001
0100
0001
1000
0010
1000
0001
0010
,
0001
1000
0100
1000
0001
0010
0100
1000
,
0001
1000
0000
0001
0100
1000
0100
0001
,
0000
1001
0000
1000
0010
0001
0010
1000
,
0000
1001
0000
0001
0010
1000
0010
0001
,
0000
1001
0000
1000
0100
0001
0100
1000
,
0001
1000
0000
0001
0100
1000
0100
0001
,
0000
1001
0000
1000
0010
0001
0010
1000
,
0000
1001
0000
0001
0010
1000
0010
0001
,
0000
1001
0000
1000
0100
0010
0001
0000
,
1000
0000
1000
0010
0100
0000
0100
0001
,
0010
0000
0010
0100
1000
0000
1000
0001
,
0100
0000
0100
0010
1000
0000
1000
0001
,
0010
0000
0010
0100
1000
0000
0010
1000
,
0001
0000
0001
0010
0100
0000
0100
1000
,
0010
0000
0010
0100
0001
0000
0001
1000
,
0100
0000
0100
0010
0001
0000
0001
1000
,
0010
0000
0010
0100
0001
0000
0010
0001
,
1000
0010
0010
0010
0010
0100
0000
0001
,
1000
0100
0010
0001
1000
0000
0001
1000
,
0000
0001
0010
0100
1000
0000
0010
0100
,
0001
1000
0100
0010
0001
1000
0000
1010
,
0000
0011
0000
0101
0000
1100
0000
1001
,
0000
1000
0010
0100
0001
0000
1001
0000
,
1000
0010
0001
0010
1000
0000
0001
0010
,
0100
1000
0010
0100
0001
1000
0000
1100
,
0000
0101
0000
0011
0000
1010
0000
0001
,
1000
0010
1000
0010
1000
0000
0000
0000
0001
0100
0001
0100
0001
0000
0000
0000
,
1000
0100
0001
0100
1000
0000
0010
0100
,
0001
1000
0100
0010
0001
1000
0000
1010
,
0000
0011
0000
0101
0000
1100
0000
1001
,
0000
0110
0000
1001
0000
1000
0100
0010
,
0002
0100
0010
1003
,
1100
0011
1010
0101
,
1001
0000
0000
0001
0001
0000
0000
0100
,
0100
0010
0010
1000
1000
0000
0000
0001
,
0001
0000
0000
1000
1000
0000
0000
0100
,
0100
0010
0010
0001
0001
0000
0000
0000
,
1000
0010
0001
0010
1000
0010
0001
0010
,
1000
0010
0100
0001
1000
0100
0010
0001
,
1000
0100
0001
0100
1000
0100
0001
0100
,
1000
0100
0010
0001
1000
0010
0100
0001
,
1000
0100
0010
0001
1000
0001
0010
0100
,
1000
0000
0000
1000
0010
0000
0000
0010
0100
0000
0000
0100
0001
0000
0000
0001
,
1000
0100
0010
0001
1000
0001
0010
0100
,
1000
0000
0000
1000
0001
0000
0000
0001
0100
0000
0000
0100
0010
0000
0000
0010
,
1000
0100
0001
0100
1000
0100
0001
0100
,
1000
0100
0010
0001
1000
0010
0100
0001
,
1000
0010
0001
0010
1000
0010
0001
0010
,
1000
0010
0100
0001
1000
0100
0010
0001
,
0100
0010
1000
0001
0010
0100
0010
0001
,
1000
0010
0100
0001
1000
0001
1000
0000
,
0010
0100
0001
1000
0100
0010
0100
1000
,
0001
0100
0010
1000
0001
1000
0001
0000
,
0010
0100
1000
0001
0100
0010
0100
0001
,
1000
0100
0010
0001
1000
0001
1000
0000
,
1001
0000
0000
0001
0001
0000
0000
0100
,
0100
0010
0010
1000
1000
0000
0000
0001
,
0001
0000
0000
1000
1000
0000
0000
0100
,
0100
0010
0010
0001
0001
0000
1001
0000
,
0220
0000
0000
0000
,
0330
0000
0000
0000
;

//---------------dance-single - ----------------
#NOTEDATA:;
#CHARTNAME:;
#STEPSTYPE:dance-single;
#DESCRIPTION:;
#CHARTSTYLE:;
#DIFFICULTY:Hard;
#METER:6;
#RADARVALUES:0.501509,0.550204,0.852167,0.037051,0.000000,379.000000,287.000000,92.000000,4.000000,0.000000,0.000000,0.000000,0.000000,0.000000,0.501509,0.550204,0.852167,0.037051,0.000000,379.000000,287.000000,92.000000,4.000000,0.000000,0.000000,0.000000,0.000000,0.000000;
#CREDIT:;
#NOTES:
0000
0000
0000
0000
,
0000
0000
0000
0000
,
0000
0000
0000
0000
,
1000
0100
0010
0000
0001
0010
0100
0000
,
1000
0100
0010
0000
1001
0000
1001
0000
,
0001
0100
0010
0000
1000
0010
0100
0000
,
0001
0100
0010
0000
1000
0001
1000
0001
,
1000
1001
1001
1001
,
0110
0110
1001
1001
,
1100
1100
0011
0011
,
1010
0101
0011
1100
,
1001
1001
1001
1001
,
0110
0110
1001
1001
,
0011
0011
1100
1100
,
0101
1010
0011
1100
,
0001
1000
0100
0000
1000
0000
0010
0000
,
0100
0001
1000
0100
,
0010
0001
1000
0000
0010
0000
0100
0000
,
0001
1000
0100
0000
0010
0001
1000
0001
,
1000
0000
0010
0000
0100
0001
1000
0000
,
0001
0000
0010
0000
0100
1000
0001
0000
,
1000
0010
0100
0000
0100
0001
1000
0000
,
0001
0000
0010
0000
0100
1000
0100
0000
,
1001
0000
0110
0000
,
1000
0100
0010
0001
1000
0000
0000
0000
,
0011
0011
1100
1100
,
0010
0100
0010
0000
1000
0001
1000
0000
,
0001
1000
0001
1000
0001
0000
0010
0000
,
0110
0110
1001
1001
,
1000
0010
0100
0010
1000
0000
0001
0010
,
0100
0000
1000
0001
1000
0000
0010
0000
,
0110
1010
1001
0011
,
1000
0100
0010
0000
0010
0100
1000
0000
,
1010
1010
0101
0101
,
0010
0100
0010
0000
0001
1000
0001
0000
,
1000
0001
1000
0001
1000
0000
0010
0000
,
0110
0110
1001
1001
,
2000
0100
0010
3001
,
0002
0100
0010
1003
,
1100
0000
0101
0000
,
1001
0110
1001
0000
,
0011
0000
1010
0000
,
1001
0110
1001
0000
,
1000
0100
0010
0000
0010
0100
1000
0000
,
0001
1001
0110
1001
,
0001
0010
0100
0000
0100
0010
0001
0000
,
1000
1001
0110
1001
,
1000
0010
0100
0000
0100
0001
1000
0000
,
0001
0010
0100
1000
,
0001
0100
0010
0000
0010
1000
0001
0000
,
1000
0100
0010
0001
,
1000
0010
0100
0000
0100
0010
1000
0000
,
0001
1001
0110
1001
,
0001
0100
0010
0000
0010
0100
0001
0000
,
1000
1001
0110
1001
,
1000
0100
0010
0100
1000
0000
0001
0000
,
0100
0010
1000
1001
,
0001
0100
0010
0100
0001
0000
1000
0000
,
0100
0010
0001
1001
,
1000
0010
0100
0010
1000
0000
0001
0000
,
0010
0100
1000
1001
,
0101
0000
1100
0000
,
1001
0110
1001
0000
,
1010
0000
0101
0000
,
1001
0110
1001
0011
,
2200
0000
0000
0000
,
3300
0000
0000
0000
;

//---------------dance-single - ----------------
#NOTEDATA:;
#CHARTNAME:;
#STEPSTYPE:dance-single;
#DESCRIPTION:;
#CHARTSTYLE:;
#DIFFICULTY:Medium;
#METER:4;
#RADARVALUES:0.390356,0.489070,0.537236,0.009263,0.000000,295.000000,237.000000,58.000000,1.000000,0.000000,0.000000,0.000000,0.000000,0.000000,0.390356,0.489070,0.537236,0.009263,0.000000,295.000000,237.000000,58.000000,1.000000,0.000000,0.000000,0.000000,0.000000,0.000000;
#CREDIT:;
#NOTES:
0000
0000
0000
0000
,
0000
0000
0000
0000
,
0000
0000
0000
0000
,
1000
0100
0010
0001
,
1000
0100
0010
0010
,
0001
0010
0100
1000
,
0001
0010
0100
1000
,
0001
0011
0011
0011
,
1000
1010
1010
1010
,
0001
0010
0100
1000
,
1001
1001
1001
1001
,
1000
1100
1100
1100
,
0001
0101
0101
0101
,
1000
0100
0010
0001
,
1001
1001
1001
1001
,
1000
0100
0001
0100
,
1000
0010
0100
0001
,
1000
0100
0010
0001
,
1000
0010
0001
0010
,
1000
1000
0001
0001
,
0010
0100
1000
0001
,
0100
0100
0010
0010
,
1000
0100
0010
0001
,
1001
0000
0110
0000
,
1001
0110
1001
0000
,
1000
0100
0010
0100
,
1000
0100
0010
0001
,
1000
0010
0100
0001
,
1000
0100
0010
0010
,
0001
1000
0001
1000
,
0010
0001
0010
1000
,
0001
0010
0100
1000
,
0001
1000
0001
0000
1000
0001
1000
0000
,
0001
0100
0010
0100
,
0001
0100
0010
1000
,
0001
0010
0100
1000
,
0001
0100
0010
0010
,
1000
0001
1000
0001
,
0010
1000
0010
0001
,
1001
0000
0110
0000
,
1001
0110
1001
0000
,
0110
0000
1001
0000
,
0110
1001
0110
0000
,
1000
1000
0001
0001
,
0010
0100
1000
0001
,
0100
0100
0010
0010
,
1000
0100
0010
0001
,
1000
1000
0010
0010
,
0100
0001
1000
0100
,
0010
0010
0001
0001
,
0100
0010
0110
1000
,
0001
0001
1000
1000
,
0100
0010
0001
1000
,
0010
0010
0100
0100
,
0001
0010
0100
1000
,
1001
1001
0110
0110
,
1000
0100
0010
0001
,
1001
1001
0110
0110
,
0001
0010
0100
1000
,
1001
1001
0110
0110
,
1000
0010
0100
0001
,
1001
0000
0110
0000
,
1001
0110
1001
0000
,
0110
0000
1001
0000
,
0110
1001
0110
1000
,
0002
0000
0000
0000
,
0003
0000
0000
0000
;

//---------------dance-single - ----------------
#NOTEDATA:;
#CHARTNAME:;
#STEPSTYPE:dance-single;
#DESCRIPTION:;
#CHARTSTYLE:;
#DIFFICULTY:Easy;
#METER:2;
#RADARVALUES:0.144233,0.179233,0.000000,0.018525,0.000000,109.000000,109.000000,0.000000,2.000000,0.000000,0.000000,0.000000,0.000000,0.000000,0.144233,0.179233,0.000000,0.018525,0.000000,109.000000,109.000000,0.000000,2.000000,0.000000,0.000000,0.000000,0.000000,0.000000;
#CREDIT:;
#NOTES:
0000
0000
0000
0000
,
0000
0000
0000
0000
,
0000
0000
0000
0000
,
1000
0000
1000
0000
,
0001
0000
0001
0001
,
0001
0000
0001
0000
,
1000
0000
1000
0000
,
0001
0000
0010
0000
,
0100
0000
1000
0000
,
0001
0000
0100
0000
,
0010
0000
1000
0000
,
0001
0000
0010
0000
,
0100
0000
1000
0000
,
0001
0000
0100
0000
,
0010
0000
1000
0000
,
0001
0000
0000
0000
,
1000
0000
0000
0000
,
0001
0000
0000
0000
,
1000
0000
0000
0000
,
0010
0000
0000
0000
,
0100
0000
0000
0000
,
0010
0000
0000
0000
,
0100
0000
0000
0000
,
0001
0000
1000
0000
,
0001
0001
0001
0000
,
1000
0000
0000
0000
,
0001
0000
0000
0000
,
1000
0000
0000
0000
,
0001
0000
0000
0000
,
0100
0000
0000
0000
,
0010
0000
0000
0000
,
0100
0000
0000
0000
,
0002
0003
2000
3000
,
0001
0000
0000
0000
,
1000
0000
0000
0000
,
0001
0000
0000
0000
,
1000
0000
0000
0000
,
0010
0000
0000
0000
,
0100
0000
0000
0000
,
0001
0000
1000
0000
,
0001
0001
0001
0000
,
1000
0000
0001
0000
,
1000
1000
1000
0000
,
0001
0000
0001
0000
,
0010
0000
0010
0000
,
0100
0000
0100
0000
,
1000
0000
1000
0000
,
0001
0000
0001
0000
,
0100
0000
0100
0000
,
0010
0000
0010
0000
,
1000
0000
1000
0000
,
0001
0000
0001
0000
,
0010
0000
0010
0000
,
0100
0000
0100
0000
,
1000
0000
1000
0000
,
0001
0000
1000
0000
,
0001
0000
1000
0000
,
0010
0000
0100
0000
,
0010
0000
0100
0000
,
0001
0000
1000
0000
,
0001
0000
1000
0000
,
0001
0000
1000
0000
,
0001
0001
0001
0000
,
1000
0000
0001
0000
,
1000
1000
1000
0000
;

//---------------dance-single - ----------------
#NOTEDATA:;
#CHARTNAME:;
#STEPSTYPE:dance-single;
#DESCRIPTION:;
#CHARTSTYLE:;
#DIFFICULTY:Beginner;
#METER:1;
#RADARVALUES:0.144233,0.179233,0.000000,0.018525,0.000000,109.000000,109.000000,0.000000,2.000000,0.000000,0.000000,0.000000,0.000000,0.000000,0.144233,0.179233,0.000000,0.018525,0.000000,109.000000,109.000000,0.000000,2.000000,0.000000,0.000000,0.000000,0.000000,0.000000;
#CREDIT:;
#NOTES:
// measure 0
0000
0000
0000
0000
,  // measure 1
0000
0000
0000
0000
,  // measure 2
0000
0000
0000
0000
,  // measure 3
1000
0000
1000
0000
,  // measure 4
0001
0000
0001
0001
,  // measure 5
0001
0000
0001
0000
,  // measure 6
1000
0000
1000
0000
,  // measure 7
0001
0000
0001
0000
,  // measure 8
1000
0000
1000
0000
,  // measure 9
0001
0000
1000
0000
,  // measure 10
0001
0000
1000
0000
,  // measure 11
0001
0000
0001
0000
,  // measure 12
1000
0000
1000
0000
,  // measure 13
0001
0000
1000
0000
,  // measure 14
0001
0000
1000
0000
,  // measure 15
0001
0000
0000
0000
,  // measure 16
1000
0000
0000
0000
,  // measure 17
0001
0000
0000
0000
,  // measure 18
1000
0000
0000
0000
,  // measure 19
0001
0000
0000
0000
,  // measure 20
1000
0000
0000
0000
,  // measure 21
0001
0000
0000
0000
,  // measure 22
1000
0000
0000
0000
,  // measure 23
0001
0000
1000
0000
,  // measure 24
0001
0001
0001
0000
,  // measure 25
1000
0000
0000
0000
,  // measure 26
0001
0000
0000
0000
,  // measure 27
1000
0000
0000
0000
,  // measure 28
0001
0000
0000
0000
,  // measure 29
1000
0000
0000
0000
,  // measure 30
0001
0000
0000
0000
,  // measure 31
1000
0000
0000
0000
,  // measure 32
0002
0003
2000
3000
,  // measure 33
0001
0000
0000
0000
,  // measure 34
1000
0000
0000
0000
,  // measure 35
0001
0000
0000
0000
,  // measure 36
1000
0000
0000
0000
,  // measure 37
0001
0000
0000
0000
,  // measure 38
1000
0000
0000
0000
,  // measure 39
0001
0000
1000
0000
,  // measure 40
0001
0001
0001
0000
,  // measure 41
1000
0000
0001
0000
,  // measure 42
1000
1000
1000
0000
,  // measure 43
0001
0000
0001
0000
,  // measure 44
0001
0000
0001
0000
,  // measure 45
1000
0000
1000
0000
,  // measure 46
1000
0000
1000
0000
,  // measure 47
0001
0000
0001
0000
,  // measure 48
1000
0000
1000
0000
,  // measure 49
0001
0000
0001
0000
,  // measure 50
1000
0000
1000
0000
,  // measure 51
0001
0000
0001
0000
,  // measure 52
0001
0000
0001
0000
,  // measure 53
1000
0000
1000
0000
,  // measure 54
1000
0000
1000
0000
,  // measure 55
0001
0000
1000
0000
,  // measure 56
0001
0000
1000
0000
,  // measure 57
0001
0000
1000
0000
,  // measure 58
0001
0000
1000
0000
,  // measure 59
0001
0000
1000
0000
,  // measure 60
0001
0000
1000
0000
,  // measure 61
0001
0000
1000
0000
,  // measure 62
0001
0001
0001
0000
,  // measure 63
1000
0000
0001
0000
,  // measure 64
1000
1000
1000
0000
;
