#TITLE:Never Wanted To Dance;
#SUBTITLE:;
#ARTIST:Mindless Self Indulgence;
#TITLETRANSLIT:;
#SUBTITLETRANSLIT:;
#ARTISTTRANSLIT:;
#GENRE:;
#CREDIT:BadWolf;
#BANNER:Never Wanted To Dance.png;
#BACKGROUND:Never Wanted To Dance-bg.png;
#LYRICSPATH:;
#CDTITLE:cdtitle.png;
#MUSIC:Never Wanted To Dance.ogg;
#OFFSET:0.520000;
#SAMPLESTART:143.736313;
#SAMPLELENGTH:10.491806;
#SELECTABLE:YES;
#BPMS:0.000000=183.000000
;
#STOPS:
;
#BGCHANGES:1.586=Never Wanted To Dance.mp4=1.000=0=0=1===CrossFade_Fastest==,
520.000=Never Wanted To Dance-bg.png=1.000=0=0=1===CrossFade_Fastest==,
99999=-nosongbg-=1.000=0=0=0 // don't automatically add -songbackground-
;
#KEYSOUNDS:;
#ATTACKS:;

//---------------dance-single - ----------------
#NOTES:
     dance-single:
     :
     Challenge:
     10:
     0.669189,0.952694,0.082078,0.052765,0.181745,799.000000,785.000000,14.000000,9.000000,0.000000,0.000000,0.669189,0.952694,0.082078,0.052765,0.181745,799.000000,785.000000,14.000000,9.000000,0.000000,0.000000:
// measure 0
0000
0000
0000
0000
,  // measure 1
0000
0000
0000
0000
,  // measure 2
0000
0000
0000
0000
,  // measure 3
0000
0000
0000
0000
,  // measure 4
1000
0100
1000
0100
0010
0001
0010
0001
,  // measure 5
0100
0010
1000
0001
0010
0100
1000
0000
,  // measure 6
0002
1000
1000
1003
,  // measure 7
1000
0001
1000
0001
1000
0001
1000
0001
0100
0010
0100
0010
0100
0010
0100
0010
,  // measure 8
1000
0010
1000
0010
0100
0001
0100
0001
,  // measure 9
0010
0100
1000
0001
0100
0010
1000
0000
,  // measure 10
1100
0001
1100
0001
,  // measure 11
0101
1000
0101
1000
,  // measure 12
0001
0010
0000
0000
0010
0100
0000
0000
,  // measure 13
1000
0000
0010
0001
0010
1000
0100
0010
,  // measure 14
0001
1000
0000
0000
1000
0001
0000
0000
,  // measure 15
0001
0100
0000
0000
0100
0010
0000
0000
,  // measure 16
0010
1000
0010
0000
1000
0100
0010
0001
,  // measure 17
1000
0010
1000
0000
0001
0100
0001
1000
,  // measure 18
0100
0010
0100
0000
1000
0010
0100
0001
,  // measure 19
1000
0100
1000
0000
0001
0010
0001
0000
,  // measure 20
1000
0010
1000
0000
0100
0010
0001
0010
,  // measure 21
0100
1000
0001
0000
0100
0010
1000
0001
,  // measure 22
0010
0100
1000
0000
0010
0100
0010
0000
,  // measure 23
1000
0001
1000
0000
0100
0010
0001
1000
,  // measure 24
0001
0100
0001
0100
0010
1000
0000
0100
,  // measure 25
0010
0001
0010
0001
1000
0001
0000
1000
,  // measure 26
0010
0100
0010
0100
0010
1000
0000
0001
,  // measure 27
0010
0000
0100
1000
0001
1000
0000
0000
,  // measure 28
0001
0100
1000
0100
0010
1000
0010
0001
,  // measure 29
0010
1000
0100
0010
1000
0010
0001
1000
,  // measure 30
0010
0001
1000
0100
0001
0010
0100
1000
,  // measure 31
0001
0000
0001
0000
0000
0000
0000
0000
0000
0000
0000
0000
,  // measure 32
1000
0010
0001
0010
0100
0001
0100
1000
,  // measure 33
0100
0001
0010
0100
0001
0100
1000
0001
,  // measure 34
0100
1000
0001
0010
1000
0100
0010
0001
,  // measure 35
1000
0000
1000
0000
0000
0000
0000
0000
0000
0000
0000
0000
,  // measure 36
0010
0000
0010
0000
0000
0000
0000
0000
0000
0000
0000
0000
,  // measure 37
0100
0000
0100
0000
0000
0000
0000
0000
0000
0000
0000
0000
,  // measure 38
0001
0000
0000
0000
0000
0000
0000
0000
0001
0000
0000
0000
0000
0000
0000
0000
0000
0000
0000
0000
0000
0000
0000
0000
1000
0000
0000
0100
0000
0000
1000
0000
0000
0100
0000
0000
0010
0000
0000
0001
0000
0000
0010
0000
0000
0001
0000
0000
,  // measure 39
1000
0000
0010
1000
0000
0001
0010
0100
,  // measure 40
1000
0000
0010
0100
0000
0001
1000
0001
,  // measure 41
1000
0000
0100
0010
0000
0001
1000
0010
,  // measure 42
1000
0000
0100
0010
0000
0001
1000
0001
,  // measure 43
1000
0000
0010
0000
0100
0001
0100
0000
,  // measure 44
0001
0000
0010
0000
0100
1000
0100
0000
,  // measure 45
1000
0010
0001
0010
,  // measure 46
1000
0100
0001
0100
,  // measure 47
1000
0000
0010
0000
0100
0001
1000
0000
,  // measure 48
0001
0000
0010
0000
0100
1000
0001
0000
,  // measure 49
1000
0010
1000
0010
1000
0100
0010
0001
,  // measure 50
2000
0000
0000
3000
,  // measure 51
0001
0010
0001
0010
0100
1000
0100
1000
,  // measure 52
0010
0100
0001
1000
0100
0010
0001
0000
,  // measure 53
2000
0001
0001
3001
,  // measure 54
0001
1000
0001
1000
0001
1000
0001
1000
0010
0100
0010
0100
0010
0100
0010
0100
,  // measure 55
0001
0100
0001
0100
0010
1000
0010
1000
,  // measure 56
0100
0010
0001
1000
0010
0100
0001
0000
,  // measure 57
2000
0001
0001
3001
,  // measure 58
1000
0100
1000
0100
1000
0100
1000
0100
0010
0001
0010
0001
0010
0001
0010
0001
,  // measure 59
1000
0010
1000
0010
0100
0001
0100
0001
,  // measure 60
0010
0100
1000
0001
0100
0010
1000
0000
,  // measure 61
0011
1000
0011
1000
,  // measure 62
1010
0001
1010
0001
,  // measure 63
1000
0100
0000
0000
0100
0010
0000
0000
,  // measure 64
0001
0000
0100
1000
0100
0001
0010
0100
,  // measure 65
1000
0001
0000
0000
0001
1000
0000
0000
,  // measure 66
1000
0010
0000
0000
0010
0100
0000
0000
,  // measure 67
0100
0001
0100
0000
0001
0010
0100
1000
,  // measure 68
0001
0100
0001
0000
1000
0010
1000
0001
,  // measure 69
0010
0100
0010
0000
0001
0100
0010
1000
,  // measure 70
0001
0010
0001
0000
1000
0100
1000
0000
,  // measure 71
0001
0100
0001
0000
0010
0100
1000
0100
,  // measure 72
0010
0001
1000
0000
0010
0100
0001
1000
,  // measure 73
0100
0010
0001
0000
0100
0010
0100
0000
,  // measure 74
0001
1000
0001
0000
0010
0100
1000
0001
,  // measure 75
1000
0010
1000
0010
0100
0001
0000
0010
,  // measure 76
0100
1000
0100
1000
0001
1000
0000
0001
,  // measure 77
0100
0010
0100
0010
0100
0001
0000
1000
,  // measure 78
0100
0000
0010
0001
1000
0001
0000
0000
,  // measure 79
1000
0010
0001
0010
0100
0001
0100
1000
,  // measure 80
0100
0001
0010
0100
0001
0100
1000
0001
,  // measure 81
0100
1000
0001
0010
1000
0100
0010
0001
,  // measure 82
1000
0000
1000
0000
0000
0000
0000
0000
0000
0000
0000
0000
,  // measure 83
0001
0100
1000
0100
0010
1000
0010
0001
,  // measure 84
0010
1000
0100
0010
1000
0010
0001
1000
,  // measure 85
0010
0001
1000
0100
0001
0010
0100
1000
,  // measure 86
0001
0000
0001
0000
0000
0000
0000
0000
0000
0000
0000
0000
,  // measure 87
0100
0000
0100
0000
0000
0000
0000
0000
0000
0000
0000
0000
,  // measure 88
0010
0000
0010
0000
0000
0000
0000
0000
0000
0000
0000
0000
,  // measure 89
1000
0000
1000
0000
0000
0000
0000
0000
0000
0000
0000
0000
,  // measure 90
0001
0000
1000
0100
0000
0100
0010
0000
,  // measure 91
0001
0000
0100
0010
0000
0010
1000
0001
,  // measure 92
1000
0000
0001
0010
0001
0000
1000
0100
,  // measure 93
1000
0010
0001
0010
1000
0100
0010
0001
,  // measure 94
1000
0000
0001
0100
0000
0100
0010
0000
,  // measure 95
1000
0000
0100
0010
0000
0010
0001
1000
,  // measure 96
0001
0000
1000
0010
1000
0000
0001
0100
,  // measure 97
0001
0010
1000
0010
0001
0100
0010
1000
,  // measure 98
0001
0010
0000
0010
0000
0010
0000
0100
,  // measure 99
1000
0000
0010
0000
0000
0000
0010
0000
0000
0000
0010
0000
1000
0001
1000
0001
,  // measure 100
1000
0000
0100
0010
0100
0000
1000
0010
,  // measure 101
0001
0000
0010
0000
1000
0000
0100
0000
0000
0000
0010
0000
0001
1000
0001
1000
,  // measure 102
0001
0100
0000
0100
0000
0100
0000
0010
,  // measure 103
1000
0000
0100
0000
0000
0000
0100
0000
0000
0000
0100
0000
1000
0001
1000
0001
,  // measure 104
1000
0000
0010
0100
0010
0000
1000
0100
,  // measure 105
0001
0000
0100
0000
1000
0000
0010
0000
0000
0000
0100
0000
0001
1000
0001
1000
,  // measure 106
0001
0000
1000
0100
0010
0001
1000
0002
,  // measure 107
0000
0000
0103
0010
1000
0001
0010
0000
,  // measure 108
2002
0000
0000
0000
,  // measure 109
0000
0000
3003
0000
,  // measure 110
1000
0100
1000
0100
0010
0001
0010
0001
,  // measure 111
0100
0010
1000
0001
0010
0100
1000
0000
,  // measure 112
0002
1000
1000
1003
,  // measure 113
1000
0001
1000
0001
1000
0001
1000
0001
0100
0010
0100
0010
0100
0010
0100
0010
,  // measure 114
1000
0010
1000
0010
0100
0001
0100
0001
,  // measure 115
0010
0100
1000
0001
0100
0010
1000
0000
,  // measure 116
0002
1000
1000
1003
,  // measure 117
0001
0010
0001
0010
0001
0010
0001
0010
0100
1000
0100
1000
0100
1000
0100
1000
,  // measure 118
0001
0100
0001
0100
0010
1000
0010
1000
,  // measure 119
0100
0010
0001
1000
0010
0100
0001
0000
,  // measure 120
1100
0001
1100
0001
,  // measure 121
0101
1000
0101
1000
,  // measure 122
0001
0010
0000
0000
0010
0100
0000
0000
,  // measure 123
1000
0000
0010
0001
0010
1000
0100
0010
,  // measure 124
0001
1000
0000
0000
1000
0001
0000
0000
,  // measure 125
0001
0100
0000
0000
0100
0010
0000
0000
,  // measure 126
1000
0100
0000
0000
0100
0010
0000
0000
,  // measure 127
0001
0000
0100
1000
0100
0001
0010
0100
,  // measure 128
1000
0001
0000
0000
0001
1000
0000
0000
,  // measure 129
1000
0010
0000
0000
0010
0100
0000
0000
,  // measure 130
1001
0000
0000
0000
;

//---------------dance-single - ----------------
#NOTES:
     dance-single:
     :
     Hard:
     9:
     0.545234,0.647832,0.082078,0.076215,0.029314,651.000000,637.000000,14.000000,13.000000,0.000000,0.000000,0.545234,0.647832,0.082078,0.076215,0.029314,651.000000,637.000000,14.000000,13.000000,0.000000,0.000000:
0000
0000
0000
0000
,
0000
0000
0000
0000
,
0000
0000
0000
0000
,
0000
0000
0000
0000
,
1000
0000
0001
0010
0100
0010
0001
1000
,
0001
0000
1000
0010
0100
0010
1000
0001
,
2000
0010
0010
3010
,
0001
0010
0100
1000
0001
0010
0100
1000
,
0001
0000
1000
0010
0100
0010
1000
0001
,
1000
0000
0001
0010
0100
0010
0001
1000
,
1001
0001
1001
1000
,
0110
0010
0110
0100
,
0001
0010
0000
0000
0010
0100
0000
0000
,
0100
0000
1000
0100
0010
0001
0010
0100
,
1000
0010
0000
0000
0010
0100
0000
0000
,
0100
0001
0000
0000
0001
1000
0000
0000
,
1000
0000
0100
0000
0010
0001
0010
0000
,
0001
0000
0100
0000
0010
1000
0010
0000
,
1000
0000
0100
0000
0010
0001
1000
0000
,
0001
0000
0100
0000
0010
1000
0001
0000
,
1000
0000
0001
0000
0010
0100
1000
0000
,
0001
0000
1000
0000
0010
0100
0001
0000
,
1000
0000
0001
0000
1000
0100
0010
0000
,
0001
0000
1000
0000
0001
0100
0010
0000
,
1000
0000
0001
1000
0001
1000
0000
1000
,
0010
0000
0100
0001
0100
0001
0000
0001
,
0010
0000
0100
1000
0100
1000
0000
1000
,
0002
0000
1003
0000
,
1000
0010
1000
0010
0100
0001
0100
0001
,
1000
0100
1000
0100
0010
0001
0010
0001
,
0100
0010
0100
0010
1000
0001
1000
0001
,
1000
0000
1000
0000
0000
0000
0000
0000
0000
0000
0000
0000
,
0001
0100
0001
0100
0010
1000
0010
1000
,
0001
0010
0001
0010
0100
1000
0100
1000
,
0010
0100
0010
0100
0001
1000
0001
1000
,
0001
0000
0001
0000
0000
0000
0000
0000
0000
0000
0000
0000
,
1000
0000
1000
0000
0000
0000
0000
0000
0000
0000
0000
0000
,
0100
0000
0100
0000
0000
0000
0000
0000
0000
0000
0000
0000
,
0010
0000
0000
0000
0010
0000
0000
0000
0000
0000
0000
0000
0001
0000
0000
0100
0000
0000
0010
0000
0000
1000
0000
0000
,
0002
0000
0000
0000
,
0023
0000
0000
0000
,
0230
0000
0000
0000
,
2300
0000
0000
0000
,
3001
0100
0010
0100
,
1000
0100
0010
0100
,
0001
0010
0100
0010
,
1000
0010
0100
0010
,
0001
0100
1000
0100
,
0001
0010
1000
0010
,
0001
0100
0010
1000
,
0001
0000
0000
0000
,
1000
0000
0001
0010
0100
0010
0001
1000
,
0001
0000
1000
0010
0100
0010
1000
0001
,
2000
0010
0010
3010
,
0001
0010
0100
1000
0001
0010
0100
1000
,
0001
0000
1000
0100
0010
0100
1000
0001
,
1000
0000
0001
0100
0010
0100
0001
1000
,
0002
0100
0100
0103
,
1000
0100
0010
0001
1000
0100
0010
0001
,
1000
0000
0001
0100
0010
0100
0001
1000
,
0001
0000
1000
0100
0010
0100
1000
0001
,
1001
1000
1001
0001
,
0110
0100
0110
0010
,
1000
0100
0000
0000
0100
0010
0000
0000
,
0010
0000
0001
0010
0100
1000
0100
0010
,
0001
0100
0000
0000
0100
0010
0000
0000
,
0010
1000
0000
0000
1000
0001
0000
0000
,
0001
0000
0010
0000
0100
1000
0100
0000
,
1000
0000
0010
0000
0100
0001
0100
0000
,
0001
0000
0010
0000
0100
1000
0001
0000
,
1000
0000
0010
0000
0100
0001
1000
0000
,
0001
0000
1000
0000
0100
0010
0001
0000
,
1000
0000
0001
0000
0100
0010
1000
0000
,
0001
0000
1000
0000
0001
0010
0100
0000
,
1000
0000
0001
0000
1000
0010
0100
0000
,
0001
0000
1000
0001
1000
0001
0000
0001
,
0100
0000
0010
1000
0010
1000
0000
1000
,
0100
0000
0010
0001
0010
0001
0000
0001
,
2000
0000
3001
0000
,
0001
0100
0001
0100
0010
1000
0010
1000
,
0001
0010
0001
0010
0100
1000
0100
1000
,
0010
0100
0010
0100
0001
1000
0001
1000
,
0001
0000
0001
0000
0000
0000
0000
0000
0000
0000
0000
0000
,
1000
0010
1000
0010
0100
0001
0100
0001
,
1000
0100
1000
0100
0010
0001
0010
0001
,
0100
0010
0100
0010
1000
0001
1000
0001
,
1000
0000
1000
0000
0000
0000
0000
0000
0000
0000
0000
0000
,
0001
0000
0001
0000
0000
0000
0000
0000
0000
0000
0000
0000
,
0010
0000
0010
0000
0000
0000
0000
0000
0000
0000
0000
0000
,
0100
0000
0100
0000
0000
0000
0000
0000
0000
0000
0000
0000
,
1000
0000
0100
0010
0000
0100
0010
0000
,
0001
0000
0100
0010
0000
0100
0010
0000
,
1000
0000
0001
0010
0000
0001
0010
0000
,
0001
0000
1000
0100
0000
1000
0100
0000
,
1000
0000
0010
0100
0000
0010
0100
0000
,
0001
0000
0010
0100
0000
0010
0100
0000
,
1000
0000
0001
0100
0000
0001
0100
0000
,
0001
0000
1000
0010
0000
1000
0010
0000
,
1000
0100
0000
0010
0000
0010
0000
0010
,
0001
0100
0000
0010
0000
0010
0000
0010
,
1000
0000
0001
0010
0100
0000
1000
0001
,
1000
0000
0100
0010
0000
0001
0000
1000
,
0001
0010
0000
0100
0000
0100
0000
0100
,
1000
0010
0000
0100
0000
0100
0000
0100
,
0001
0000
1000
0100
0010
0000
0001
1000
,
0001
0000
0010
0100
0000
1000
0000
0001
,
1000
0100
0010
0001
,
0100
0010
1000
0001
,
2002
0000
0000
0000
,
0000
0000
3003
0000
,
1000
0000
0001
0010
0100
0010
0001
1000
,
0001
0000
1000
0010
0100
0010
1000
0001
,
2000
0010
0010
3010
,
0001
0010
0100
1000
0001
0010
0100
1000
,
0001
0000
1000
0100
0010
0100
1000
0001
,
1000
0000
0001
0100
0010
0100
0001
1000
,
0002
0100
0100
0103
,
1000
0100
0010
0001
1000
0100
0010
0001
,
1000
0000
0001
0100
0010
0100
0001
1000
,
0001
0000
1000
0100
0010
0100
1000
0001
,
1001
1000
1001
0001
,
0110
0100
0110
0010
,
1000
0100
0000
0000
0100
0010
0000
0000
,
0010
0000
0001
0010
0100
1000
0100
0010
,
0001
0100
0000
0000
0100
0010
0000
0000
,
0010
1000
0000
0000
1000
0001
0000
0000
,
0001
0010
0000
0000
0010
0100
0000
0000
,
0100
0000
1000
0100
0010
0001
0010
0100
,
1000
0010
0000
0000
0010
0100
0000
0000
,
0100
0001
0000
0000
0001
1000
0000
0000
,
1001
0000
0000
0000
;
