#TITLE:NEVER ENDING STORY (Power Club Vocal Mix);
#SUBTITLE:;
#ARTIST:DJ AC-DC;
#TITLETRANSLIT:;
#SUBTITLETRANSLIT:;
#ARTISTTRANSLIT:;
#GENRE:;
#CREDIT:BadWolf;
#BANNER:NEVER ENDING STORY (Power Club Vocal Mix).PNG;
#BACKGROUND:NEVER ENDING STORY (Power Club Vocal Mix)-bg.PNG;
#LYRICSPATH:;
#CDTITLE:cdtitle.png;
#MUSIC:NEVER ENDING STORY (Power Club Vocal Mix).ogg;
#OFFSET:-0.040000;
#SAMPLESTART:59.811745;
#SAMPLELENGTH:15.395618;
#SELECTABLE:YES;
#DISPLAYBPM:140.000000;
#BPMS:0.000000=140.559998
,80.000000=140.300003
,208.000000=140.240005
,256.000000=140.199997
;
#STOPS:
;
#BGCHANGES:-0.046=DDR Project 4_0001.AVI=1.000=0=0=1===CrossFade_Fastest==,
307.000=flash=0.000=0=0=1===CrossFade_Fastest=#000000=,
99999=-nosongbg-=1.000=0=0=0 // don't automatically add -songbackground-
;
#KEYSOUNDS:;
#ATTACKS:;

//---------------dance-single - ----------------
#NOTES:
     dance-single:
     :
     Challenge:
     10:
     0.708113,0.964233,0.007614,0.000000,0.666235,651.000000,650.000000,1.000000,0.000000,0.000000,0.000000,0.708113,0.964233,0.007614,0.000000,0.666235,651.000000,650.000000,1.000000,0.000000,0.000000,0.000000:
0000
0000
0000
0000
,
0000
0000
0000
0000
,
0000
0000
0000
0000
,
0000
0000
0000
0000
,
0000
0000
0000
0000
,
0000
0000
0000
0000
,
0000
0000
0000
0000
,
0000
0000
0000
0000
,
1000
0000
0100
0000
0010
0000
0001
1000
0000
0001
1000
0000
0010
0000
0100
0001
,
0000
0100
0001
0000
1000
0000
0100
0010
0000
0100
0010
0000
0001
0000
1000
0001
,
1000
0010
1000
0010
1000
0010
1000
0010
0100
0001
0100
0001
0100
0001
0100
0001
,
1000
0100
0010
0001
1000
0100
0010
0001
0100
0010
1000
0001
0010
0100
1000
0001
,
1000
0000
0010
0000
0100
0000
0001
1000
0000
0001
1000
0000
0100
0000
0010
0001
,
0000
0010
0001
0000
1000
0000
0010
0100
0000
0010
0100
0000
0001
0000
1000
0001
,
0000
1000
0001
0000
0010
0000
0100
1000
0000
0100
0010
0000
0001
0000
1000
0010
,
0000
1000
0001
0000
0010
0000
0100
1000
0000
0001
1000
0000
0010
0000
1000
0001
,
1000
0000
0100
0000
0010
0000
0001
1000
0000
0001
1000
0000
0010
0000
0100
0001
,
0000
0100
0001
0000
1000
0000
0100
0010
0000
0100
0010
0000
0001
0000
1000
0001
,
0000
1000
0001
0000
0100
0000
0010
1000
0000
0010
0100
0000
0001
0000
1000
0100
,
0000
1000
0001
0000
0100
0000
0010
1000
0000
0001
1000
0000
0100
0000
1000
0001
,
1000
0010
0100
0010
1000
0010
0100
0010
,
1000
0010
0001
0010
1000
0100
0010
0001
,
0100
0010
1000
0010
0100
0010
1000
0010
,
0100
0010
0001
0010
1000
0100
0010
0001
,
0100
0001
0010
0001
0100
0001
0010
0001
,
1000
0001
0100
0001
1000
0100
0010
0001
,
1000
0010
0001
0010
1000
0010
0001
0010
,
1000
0010
0100
0010
0001
0010
1000
0001
,
1000
0100
0010
0100
1000
0001
0100
0010
,
0001
0010
1000
0001
0010
0100
1000
0001
,
1000
0010
0100
0010
1000
0001
0010
0100
,
0001
0100
1000
0001
0100
0010
1000
0001
,
1000
0100
0010
0100
0001
0100
0010
0001
,
1000
0010
0001
0010
0100
0001
0010
0100
,
1000
0010
0001
0010
1000
0100
0001
0100
,
1000
0010
0100
0001
1000
0100
0010
0001
,
1000
0000
0010
0000
0100
0000
0001
1000
0000
0001
1000
0000
0100
0000
0010
0001
,
0000
0010
0001
0000
1000
0000
0010
0100
0000
0010
0100
0000
0001
0000
1000
0001
,
0000
1000
0001
0000
0010
0000
0100
1000
0000
0100
0010
0000
0001
0000
1000
0010
,
0000
1000
0001
0000
0010
0000
0100
1000
0000
0001
1000
0000
0010
0000
1000
0001
,
1000
0000
0100
0000
0010
0000
0001
1000
0000
0001
1000
0000
0010
0000
0100
0001
,
0000
0100
0001
0000
1000
0000
0100
0010
0000
0100
0010
0000
0001
0000
1000
0001
,
0000
1000
0001
0000
0100
0000
0010
1000
0000
0010
0100
0000
0001
0000
1000
0100
,
0000
1000
0001
0000
0100
0000
0010
1000
0000
0001
1000
0000
0100
0000
1000
0000
,
0001
0100
0001
0000
1000
0000
0100
0010
0000
0010
0001
0000
1000
0000
0010
0100
,
0000
0010
0100
0000
0001
0000
0010
0100
0000
0100
1000
0000
0001
0000
1000
0010
,
0000
0100
0001
0000
1000
0000
0100
0010
0000
0010
0001
0000
0100
0000
0010
1000
,
0000
0001
0010
0000
0100
0000
1000
0001
0000
0001
0100
0000
0010
0000
1000
0001
,
1000
0010
1000
0000
0001
0000
0010
0100
0000
0100
1000
0000
0001
0000
0100
0010
,
0000
0100
0010
0000
1000
0000
0100
0010
0000
0010
0001
0000
1000
0000
0001
0100
,
0000
0010
1000
0000
0001
0000
0010
0100
0000
0100
1000
0000
0010
0000
0100
0001
,
0000
1000
0100
0000
0010
0000
0001
1000
0000
1000
0010
0000
0100
0000
0001
1000
,
0001
0010
0100
0010
0001
1000
0010
0100
,
1000
0100
0001
1000
0100
0010
0001
1000
,
0001
0100
0010
0100
0001
1000
0100
0010
,
1000
0010
0001
1000
0010
0100
0001
1000
,
0001
0010
0100
0010
1000
0010
0100
1000
,
0001
0100
1000
0100
0010
1000
0100
0010
,
0001
0100
1000
0100
0001
0010
1000
0010
,
0001
0100
0010
1000
0001
0010
0100
1000
,
0001
0000
0100
0000
0010
0000
1000
0001
0000
1000
0001
0000
0010
0000
0100
1000
,
0000
0100
1000
0000
0001
0000
0100
0010
0000
0100
0010
0000
1000
0000
0001
1000
,
0000
0001
1000
0000
0100
0000
0010
0001
0000
0010
0100
0000
1000
0000
0001
0100
,
0000
0001
1000
0000
0100
0000
0010
0001
0000
1000
0001
0000
0100
0000
0001
1000
,
0001
0000
0010
0000
0100
0000
1000
0001
0000
1000
0001
0000
0100
0000
0010
1000
,
0000
0010
1000
0000
0001
0000
0010
0100
0000
0010
0100
0000
1000
0000
0001
1000
,
0000
0001
1000
0000
0010
0000
0100
0001
0000
0100
0010
0000
1000
0000
0001
0010
,
0000
0001
1000
0000
0010
0000
0100
0001
0000
1000
0001
0000
0010
0000
0001
0000
,
1000
0000
0010
0000
0100
0000
0001
1000
0000
0001
1000
0000
0100
0000
0010
0001
,
0000
0010
0001
0000
1000
0000
0010
0100
0000
0010
0100
0000
0001
0000
1000
0001
,
0000
1000
0001
0000
0010
0000
0100
1000
0000
0100
0010
0000
0001
0000
1000
0010
,
0000
1000
0001
0000
0010
0000
0100
1000
0000
0001
1000
0000
0010
0000
1000
0001
,
1000
0000
0100
0000
0010
0000
0001
1000
0000
0001
1000
0000
0010
0000
0100
0001
,
0000
0100
0001
0000
1000
0000
0100
0010
0000
0100
0010
0000
0001
0000
1000
0001
,
0000
1000
0001
0000
0100
0000
0010
1000
0000
0010
0100
0000
0001
0000
1000
0100
,
0000
1000
0001
0000
0100
0000
0010
1000
0000
0001
1000
0000
0100
0000
1000
0001
,
1000
0000
0000
0001
0000
0000
0010
0100
1000
0000
0000
0000
1001
0000
0000
0000
;

//---------------dance-single - ----------------
#NOTES:
     dance-single:
     :
     Hard:
     4:
     0.291512,0.321411,0.022842,0.030456,0.003807,268.000000,265.000000,3.000000,4.000000,0.000000,0.000000,0.291512,0.321411,0.022842,0.030456,0.003807,268.000000,265.000000,3.000000,4.000000,0.000000,0.000000:
0000
0000
0000
0000
,
0000
0000
0000
0000
,
0000
0000
0000
0000
,
0000
0000
0000
0000
,
0000
0000
0000
0000
,
0000
0000
0000
0000
,
0000
0000
0000
0000
,
0000
0000
0000
0000
,
2000
0000
0000
0000
,
3002
0000
0000
0000
,
2003
0000
0000
0000
,
3001
0000
0000
1000
0000
0000
0002
0000
0000
0000
0000
0000
0000
0000
0000
0000
,
1003
0100
0010
0100
,
1000
0100
0010
0100
,
1000
0001
0100
0001
,
1000
0001
0100
0001
,
1000
0100
0010
0001
,
1000
0001
0010
0100
,
1000
0010
0001
0010
,
1000
0010
0001
0010
,
1000
1000
0001
0001
,
1000
0100
0010
0001
,
0100
0100
0010
0010
,
1000
0001
0010
0100
,
1000
0001
0100
0010
,
1000
1000
0001
0001
,
0010
0100
1000
0001
,
0100
0100
0010
0010
,
1000
0100
0010
0100
,
1000
0001
0100
0001
,
1000
0001
0010
0001
,
1000
0010
0100
0010
,
1000
0100
0010
0001
,
1000
0010
0100
0001
,
0010
0100
1000
0001
,
1000
1000
0001
0001
,
1000
0100
0010
0100
,
1000
0100
0010
0100
,
1000
0001
0100
0001
,
1000
0001
0100
0001
,
1000
0100
0010
0001
,
1000
0001
0010
0100
,
1000
0010
0001
0010
,
1000
0010
0001
0010
,
1000
0100
0010
0100
,
1000
0100
0001
0100
,
1000
0010
0100
0010
,
1000
0010
0001
0010
,
1000
0100
0010
0001
,
0010
1000
0010
0001
,
1000
0010
0100
0001
,
0100
1000
0100
0001
,
1000
0100
0010
0100
,
1000
0001
0100
0001
,
1000
0001
0010
0001
,
1000
0010
0100
0010
,
1000
0100
0010
0001
,
1000
0010
0100
0001
,
0010
0100
1000
0001
,
1000
1000
0001
0001
,
1000
0100
0010
0100
,
1000
0100
0010
0100
,
1000
0001
0100
0001
,
1000
0001
0100
0001
,
1000
0100
0010
0001
,
1000
0001
0010
0100
,
1000
0010
0001
0010
,
1000
0010
0001
0010
,
1000
0100
0010
0100
,
1000
0100
0010
0100
,
1000
0001
0100
0001
,
1000
0001
0100
0001
,
1000
0100
0010
0001
,
1000
0001
0010
0100
,
1000
0010
0001
0010
,
1000
0010
0001
0010
,
1001
0000
0110
1001
;

//---------------dance-single - ----------------
#NOTES:
     dance-single:
     :
     Medium:
     2:
     0.291512,0.321411,0.022842,0.030456,0.003807,268.000000,265.000000,3.000000,4.000000,0.000000,0.000000,0.291512,0.321411,0.022842,0.030456,0.003807,268.000000,265.000000,3.000000,4.000000,0.000000,0.000000:
// measure 0
0000
0000
0000
0000
,  // measure 1
0000
0000
0000
0000
,  // measure 2
0000
0000
0000
0000
,  // measure 3
0000
0000
0000
0000
,  // measure 4
0000
0000
0000
0000
,  // measure 5
0000
0000
0000
0000
,  // measure 6
0000
0000
0000
0000
,  // measure 7
0000
0000
0000
0000
,  // measure 8
2000
0000
0000
0000
,  // measure 9
3002
0000
0000
0000
,  // measure 10
2003
0000
0000
0000
,  // measure 11
3001
0000
0000
1000
0000
0000
0002
0000
0000
0000
0000
0000
0000
0000
0000
0000
,  // measure 12
1003
1000
0001
1000
,  // measure 13
1000
1000
0001
1000
,  // measure 14
1000
0001
1000
0001
,  // measure 15
1000
0001
1000
0001
,  // measure 16
1000
1000
0001
0001
,  // measure 17
1000
0001
0001
1000
,  // measure 18
1000
0001
0001
0001
,  // measure 19
1000
0001
0001
0001
,  // measure 20
1000
1000
0001
0001
,  // measure 21
1000
1000
0001
0001
,  // measure 22
1000
1000
0001
0001
,  // measure 23
1000
0001
0001
1000
,  // measure 24
1000
0001
1000
0001
,  // measure 25
1000
1000
0001
0001
,  // measure 26
0001
1000
1000
0001
,  // measure 27
1000
1000
0001
0001
,  // measure 28
1000
1000
0001
1000
,  // measure 29
1000
0001
1000
0001
,  // measure 30
1000
0001
0001
0001
,  // measure 31
1000
0001
1000
0001
,  // measure 32
1000
1000
0001
0001
,  // measure 33
1000
0001
1000
0001
,  // measure 34
0001
1000
1000
0001
,  // measure 35
1000
1000
0001
0001
,  // measure 36
1000
1000
0001
1000
,  // measure 37
1000
1000
0001
1000
,  // measure 38
1000
0001
1000
0001
,  // measure 39
1000
0001
1000
0001
,  // measure 40
1000
1000
0001
0001
,  // measure 41
1000
0001
0001
1000
,  // measure 42
1000
0001
0001
0001
,  // measure 43
1000
0001
0001
0001
,  // measure 44
1000
1000
0001
1000
,  // measure 45
1000
1000
0001
1000
,  // measure 46
1000
0001
1000
0001
,  // measure 47
1000
0001
0001
0001
,  // measure 48
1000
1000
0001
0001
,  // measure 49
0001
1000
0001
0001
,  // measure 50
1000
0001
1000
0001
,  // measure 51
1000
1000
1000
0001
,  // measure 52
1000
1000
0001
1000
,  // measure 53
1000
0001
1000
0001
,  // measure 54
1000
0001
0001
0001
,  // measure 55
1000
0001
1000
0001
,  // measure 56
1000
1000
0001
0001
,  // measure 57
1000
0001
1000
0001
,  // measure 58
0001
1000
1000
0001
,  // measure 59
1000
1000
0001
0001
,  // measure 60
1000
1000
0001
1000
,  // measure 61
1000
1000
0001
1000
,  // measure 62
1000
0001
1000
0001
,  // measure 63
1000
0001
1000
0001
,  // measure 64
1000
1000
0001
0001
,  // measure 65
1000
0001
0001
1000
,  // measure 66
1000
0001
0001
0001
,  // measure 67
1000
0001
0001
0001
,  // measure 68
1000
1000
0001
1000
,  // measure 69
1000
1000
0001
1000
,  // measure 70
1000
0001
1000
0001
,  // measure 71
1000
0001
1000
0001
,  // measure 72
1000
1000
0001
0001
,  // measure 73
1000
0001
0001
1000
,  // measure 74
1000
0001
0001
0001
,  // measure 75
1000
0001
0001
0001
,  // measure 76
1001
0000
1001
1001
;
