#VERSION:0.83;
#TITLE:Material Girl;
#SUBTITLE:;
#ARTIST:Madonna;
#TITLETRANSLIT:;
#SUBTITLETRANSLIT:;
#ARTISTTRANSLIT:;
#GENRE:;
#ORIGIN:;
#CREDIT:BadWolf;
#BANNER:Material Girl.png;
#BACKGROUND:Material Girl-bg.png;
#PREVIEWVID:;
#JACKET:Material Girl-jacket.png;
#CDIMAGE:;
#DISCIMAGE:;
#LYRICSPATH:;
#CDTITLE:cdtitle.png;
#MUSIC:Material Girl.ogg;
#OFFSET:-0.660000;
#SAMPLESTART:49.626404;
#SAMPLELENGTH:13.294926;
#SELECTABLE:YES;
#DISPLAYBPM:134.000000;
#BPMS:0.000=134.300,
16.000=135.000,
48.000=134.500,
64.000=135.000,
112.000=135.200,
140.000=134.700,
156.000=134.200,
160.000=134.500,
172.000=133.500,
204.000=133.700,
220.000=135.000,
236.000=134.500;
#STOPS:;
#DELAYS:;
#WARPS:;
#TIMESIGNATURES:0.000=4=4;
#TICKCOUNTS:0.000=4;
#COMBOS:0.000=1;
#SPEEDS:0.000=1.000=0.000=0;
#SCROLLS:0.000=1.000;
#FAKES:;
#LABELS:0.000=Song Start;
#BGCHANGES:0.000=Material Girl.mp4=1.000=0=0=1===CrossFade_Fastest==,
250.000=Material Girl-bg.png=1.000=0=0=1===CrossFade_Fastest==,
99999=-nosongbg-=1.000=0=0=0 // don't automatically add -songbackground-
;
#KEYSOUNDS:;
#ATTACKS:
;

//---------------dance-single - ----------------
#NOTEDATA:;
#CHARTNAME:;
#STEPSTYPE:dance-single;
#DESCRIPTION:;
#CHARTSTYLE:;
#DIFFICULTY:Edit;
#METER:8;
#RADARVALUES:0.527499,0.548173,0.192957,0.087708,0.052625,421.000000,399.000000,22.000000,10.000000,0.000000,0.000000,0.000000,0.000000,0.000000,0.527499,0.548173,0.192957,0.087708,0.052625,421.000000,399.000000,22.000000,10.000000,0.000000,0.000000,0.000000,0.000000,0.000000;
#CREDIT:;
#DISPLAYBPM:134.000000;
#NOTES:
0000
0000
0000
0000
,
0000
0000
0000
0000
,
0000
0000
0000
0000
,
0000
0000
0000
0000
,
1000
0000
1010
0000
0010
0001
0010
1000
,
0001
0000
0011
0000
0010
1000
0010
0001
,
0100
0000
0110
0000
0010
1000
0001
0010
,
0100
0000
0110
0000
0010
0001
0001
1000
,
1000
0000
1010
0000
0010
0100
1000
0100
,
0001
0000
0011
0000
0010
0100
0001
0100
,
1000
0000
1001
0000
0001
0100
1000
0100
,
0001
0000
1001
0000
1000
0001
0001
1000
,
1000
0100
0010
0100
1000
0010
0001
0010
,
1000
0100
0001
0100
1000
0010
0100
0010
,
1000
0000
1100
0000
0100
0010
0001
1000
,
0001
0000
1000
0000
0010
0100
0001
1000
,
0001
0010
0100
0010
0001
0100
1000
0100
,
0001
0010
1000
0010
0001
0100
0010
0100
,
0001
0010
0000
0110
0000
1100
0000
1001
,
0000
0110
0000
0000
1000
0001
0001
1000
,
1000
0010
0100
0010
1000
0100
0001
0100
,
1000
0010
0001
0010
1000
0100
0010
0100
,
1000
0000
1010
0000
0010
0100
0001
1000
,
0001
0000
1000
0100
0001
0000
1000
0010
,
0001
0100
0010
0100
0001
0010
1000
0010
,
0001
0100
1000
0100
0001
0010
0100
0010
,
0001
0100
0000
0110
0000
1010
0000
1001
,
0000
0000
0110
0000
0000
0000
0000
0000
1000
0001
1000
0000
0001
0000
1000
0001
,
1000
0100
0001
0100
1000
0010
0100
0001
,
0010
0000
0100
1000
0100
0000
0010
0000
0001
0000
0000
0000
0100
0000
0010
0000
,
1000
0000
0001
0000
0010
0000
0100
0000
1000
0000
0010
0100
0010
0000
1000
0000
,
0001
0000
1000
0010
0100
0001
0010
0100
,
1000
0010
0001
0010
1000
0100
0010
0001
,
0100
0000
0010
1000
0010
0000
0100
0000
0001
0000
0000
0000
0010
0000
0100
0000
,
1000
0000
0001
0000
0100
0000
0010
0000
1000
0000
0001
1000
0001
1000
0001
1000
,
0002
0000
1003
0200
0000
0310
0001
1000
,
0001
0100
1000
0100
0001
0010
0100
1000
,
0010
0000
0100
0001
0100
0000
0010
0000
1000
0000
0000
0000
0100
0000
0010
0000
,
0001
0000
1000
0000
0010
0000
0100
0000
0001
0000
0010
0100
0010
0000
0001
0000
,
1000
0000
0001
0010
0100
1000
0010
0100
,
0001
0010
1000
0010
0001
0100
0010
1000
,
0100
0000
0010
0001
0010
0000
0100
0000
1000
0000
0000
0000
0010
0000
0100
0000
,
0001
0000
1000
0000
0100
0000
0010
0000
0001
0000
0100
0010
0100
0000
0001
0000
,
2000
0000
3100
0020
0000
0031
0100
0001
,
0010
0100
1000
0000
0001
0100
1000
0100
,
0002
0000
0013
0200
0000
1300
0010
1000
,
0100
0010
0001
0000
1000
0010
0001
0010
,
2000
0000
3100
0020
0000
0031
0100
0001
,
0010
0100
1000
0000
0001
0100
1000
0100
,
0002
0000
0013
0200
0000
1300
0010
1000
,
0100
0000
1001
0000
1000
0100
0010
0001
,
1000
0000
0010
0100
0000
0100
0001
0010
,
0100
1000
0001
0000
1001
0000
1000
0010
,
0001
0000
0001
0010
1000
0000
1000
0100
,
0010
0001
1000
0000
0001
0100
1000
0100
,
0001
0000
0010
0100
0000
0100
1000
0010
,
0100
0001
1000
0000
1001
0000
0001
0010
,
1000
0000
1000
0010
0001
0000
0001
0100
,
0010
1000
0001
0000
1000
0100
0001
0100
,
1000
0000
0001
0000
0100
0010
0000
1000
,
0001
0000
1000
0000
0100
0010
0000
0001
,
1000
0000
0010
0000
0100
0001
0000
1000
,
0100
0010
0011
0000
;

//---------------dance-single - ----------------
#NOTEDATA:;
#CHARTNAME:;
#STEPSTYPE:dance-single;
#DESCRIPTION:;
#CHARTSTYLE:;
#DIFFICULTY:Challenge;
#METER:7;
#RADARVALUES:0.422250,0.465947,0.149103,0.175416,0.043854,337.000000,320.000000,17.000000,20.000000,0.000000,0.000000,0.000000,0.000000,0.000000,0.422250,0.465947,0.149103,0.175416,0.043854,337.000000,320.000000,17.000000,20.000000,0.000000,0.000000,0.000000,0.000000,0.000000;
#CREDIT:;
#DISPLAYBPM:134.000000;
#NOTES:
0000
0000
0000
0000
,
0000
0000
0000
0000
,
0000
0000
0000
0000
,
0000
0000
0000
0000
,
2000
0000
0000
3002
0000
0000
0003
0000
,
0010
0100
1000
0000
1001
0000
0001
1000
,
0002
0000
0000
2003
0000
0000
3000
0000
,
0100
0010
0001
0000
0100
0001
1000
0001
,
2000
0000
0000
3200
0000
0000
0300
0000
,
0010
0001
1000
0000
0001
0100
1000
0100
,
0002
0000
0000
0023
0000
0000
0030
0100
,
2000
0000
0000
3000
0000
0001
1000
0001
,
1000
0000
1000
0000
0001
0010
0100
1000
,
0001
0000
0001
0000
1000
0100
0010
0001
,
0100
0000
0100
0000
0010
1000
0001
0100
,
0010
0000
0010
0000
0100
0001
1000
0010
,
1000
0000
1000
0000
0100
0010
0001
1000
,
0001
0000
0001
0000
0010
0100
1000
0001
,
0000
0101
0000
1100
0000
1010
0000
0011
,
0000
1001
0000
0000
1000
0001
1000
0001
,
1000
0000
1000
0000
0001
0100
0010
1000
,
0001
0000
0001
0000
1000
0010
0100
0001
,
0010
0000
0010
0000
0100
1000
0001
0010
,
0100
0000
1000
0010
0001
0000
0001
0010
,
1000
0000
1000
0000
0100
0010
0001
1000
,
0001
0000
0001
0000
0010
0100
1000
0001
,
0000
0101
0000
1100
0000
1010
0000
0011
,
0000
0000
1001
0000
0000
0000
0000
0000
1000
0001
1000
0000
0001
0000
1000
0000
,
0001
0010
0100
1000
0000
0010
0100
0010
,
1000
0000
0000
0001
1000
0000
0001
0000
0000
0000
0000
0000
1000
0000
0100
0000
,
0010
0000
0001
0000
0100
0000
0010
0000
1000
0000
0000
0001
1000
0000
0001
0000
,
0000
0000
1000
0010
1000
0010
0100
0001
,
1000
0100
0010
0001
0000
0100
0010
0100
,
0001
0000
0000
1000
0001
0000
1000
0000
0000
0000
0000
0000
0001
0000
0010
0000
,
0100
0000
1000
0000
0010
0000
0100
0000
0001
0000
0000
0000
1000
0001
1000
0001
,
2000
0000
0000
3002
0000
0000
1003
0001
,
1000
0100
0010
0001
0000
0100
0010
0100
,
0001
0000
0000
1000
0001
0000
1000
0000
0000
0000
0000
0000
0001
0000
0010
0000
,
0100
0000
1000
0000
0010
0000
0100
0000
0001
0000
0000
1000
0001
0000
1000
0000
,
0000
0000
0001
0100
0001
0100
0010
1000
,
0001
0010
0100
1000
0000
0010
0100
0010
,
1000
0000
0000
0001
1000
0000
0001
0000
0000
0000
0000
0000
1000
0000
0100
0000
,
0010
0000
0001
0000
0100
0000
0010
0000
1000
0000
0000
0001
1000
0000
0001
0000
,
2000
0000
0000
3002
0000
0000
0003
0000
,
0010
0100
1000
0000
1001
0000
0001
1000
,
0002
0000
0000
2003
0000
0000
3000
0000
,
0100
0010
0001
0000
0100
0001
1000
0001
,
2000
0000
0000
3200
0000
0000
0300
0000
,
0010
0001
1000
0000
0001
0100
1000
0100
,
0002
0000
0000
0023
0000
0000
0030
0100
,
2000
0000
0000
3000
0000
0001
1000
0001
,
1000
0000
0100
0010
0000
0010
0001
1000
,
0001
1000
0001
0000
1001
0000
1000
0010
,
0001
0000
0001
0010
1000
0000
0100
0010
,
0001
1000
0001
0000
1001
0000
0000
0000
,
0001
0000
0100
0010
0000
0010
1000
0001
,
1000
0001
1000
0000
1001
0000
0001
0010
,
1000
0000
1000
0010
0001
0000
0100
0010
,
1000
0001
1000
0000
1001
0000
0000
0000
,
1000
0000
1000
0000
0001
0100
0000
0100
,
0001
0000
0001
0000
1000
0100
0000
0100
,
1000
0000
1000
0000
0001
0010
0000
0010
,
0001
1000
1001
0000
;

//---------------dance-single - ----------------
#NOTEDATA:;
#CHARTNAME:;
#STEPSTYPE:dance-single;
#DESCRIPTION:;
#CHARTSTYLE:;
#DIFFICULTY:Hard;
#METER:5;
#RADARVALUES:0.314495,0.356313,0.096479,0.192957,0.000000,251.000000,240.000000,11.000000,22.000000,0.000000,0.000000,0.000000,0.000000,0.000000,0.314495,0.356313,0.096479,0.192957,0.000000,251.000000,240.000000,11.000000,22.000000,0.000000,0.000000,0.000000,0.000000,0.000000;
#CREDIT:;
#DISPLAYBPM:134.000000;
#NOTES:
0000
0000
0000
0000
,
0000
0000
0000
0000
,
0000
0000
0000
0000
,
0000
0000
0000
0000
,
2000
0000
0000
3002
0000
0000
0003
0000
,
0100
0010
0100
0000
1001
0000
0000
0000
,
0002
0000
0000
2003
0000
0000
3000
0000
,
0010
0100
0010
0000
1001
0000
0000
0000
,
0200
0000
0000
0320
0000
0000
0030
0000
,
1000
0001
1000
0000
0110
0000
0000
0000
,
0020
0000
0000
0230
0000
0000
0300
0000
,
2002
0000
3003
0000
,
1000
0000
0100
0000
0010
0001
0010
0000
,
0001
0100
0010
1000
,
0100
0000
0010
0000
0001
1000
0001
0000
,
0100
0010
1000
0001
,
1000
0000
0001
0000
0010
0100
0010
0000
,
0001
0000
1000
0000
0010
0000
0100
0001
,
0000
0001
0000
1000
0000
1000
0000
0001
,
0000
1001
0000
0000
0000
0000
0000
0000
,
0001
0000
0010
0000
0100
1000
0100
0000
,
1000
0010
0100
0001
,
0010
0000
0100
0000
1000
0001
1000
0000
,
0010
0100
0001
1000
,
0001
0000
1000
0000
0100
0010
0100
0000
,
1000
0000
0001
0000
0100
0000
0010
1000
,
0000
1000
0000
0001
0000
0001
0000
1000
,
0000
1001
0000
0000
0001
1000
0001
1000
,
0001
0000
0010
0100
0000
0100
1000
0000
,
0010
0000
0100
0001
0000
0000
1000
0001
,
1000
0000
0001
0010
0001
0000
0100
0010
,
1000
0000
0001
0000
1000
0100
0010
0000
,
0001
0000
0100
0010
0000
0010
1000
0000
,
0100
0000
0010
0001
0000
0000
1000
0001
,
1000
0000
0001
0100
0001
0000
0010
0100
,
2000
0000
0000
3002
0000
0000
0003
0000
,
1000
0000
0010
0100
0000
0100
0001
0000
,
0010
0000
0100
1000
0000
0000
0001
1000
,
0001
0000
1000
0010
1000
0000
0100
0010
,
0001
0000
1000
0000
0001
0100
0010
0000
,
1000
0000
0100
0010
0000
0010
0001
0000
,
0100
0000
0010
1000
0000
0000
0001
1000
,
0001
0000
1000
0100
1000
0000
0010
0100
,
0002
0000
0000
2003
0000
0000
3000
0000
,
0010
0100
0010
0000
1001
0000
0000
0000
,
2000
0000
0000
3002
0000
0000
0003
0000
,
0100
0010
0100
0000
1001
0000
0000
0000
,
0020
0000
0000
0230
0000
0000
0300
0000
,
0001
1000
0001
0000
0110
0000
0000
0000
,
0200
0000
0000
0320
0000
0000
0030
0000
,
2002
0000
3003
0000
,
1000
0000
0000
0001
0000
0100
0001
0000
,
0010
0000
0100
0000
1000
0000
0010
0100
,
0010
0000
1000
0001
1000
0000
0100
0000
,
0010
0001
1000
0000
,
0001
0000
0000
1000
0000
0010
1000
0000
,
0100
0000
0010
0000
0001
0000
0100
0010
,
0100
0000
0001
1000
0001
0000
0010
0000
,
0100
1000
0001
0000
,
1000
0000
0010
0000
1000
0010
0000
1000
,
0001
0000
0100
0000
0001
0100
0000
0001
,
1000
0000
0001
0000
1000
0001
0000
1000
,
0010
0100
0110
0000
;

//---------------dance-single - ----------------
#NOTEDATA:;
#CHARTNAME:;
#STEPSTYPE:dance-single;
#DESCRIPTION:;
#CHARTSTYLE:;
#DIFFICULTY:Medium;
#METER:3;
#RADARVALUES:0.219269,0.274087,0.026312,0.271894,0.000000,175.000000,172.000000,3.000000,31.000000,0.000000,0.000000,0.000000,0.000000,0.000000,0.219269,0.274087,0.026312,0.271894,0.000000,175.000000,172.000000,3.000000,31.000000,0.000000,0.000000,0.000000,0.000000,0.000000;
#CREDIT:;
#DISPLAYBPM:134.000000;
#NOTES:
0000
0000
0000
0000
,
0000
0000
0000
0000
,
0000
0000
0000
0000
,
0000
0000
0000
0000
,
2000
0000
0000
3002
0000
0000
0003
0000
,
1000
0001
1000
0000
,
0020
0000
0000
0230
0000
0000
0300
0000
,
0010
0100
0010
0000
,
2000
0000
0000
3002
0000
0000
0003
0000
,
1000
0001
1000
0000
,
0200
0000
0000
0320
0000
0000
0030
0000
,
2002
0000
3003
0000
,
1000
1000
0100
0010
,
0001
0001
0100
0010
,
1000
0100
0010
0100
,
1000
0000
0000
0000
,
0001
0001
0100
0010
,
1000
1000
0100
0010
,
0001
1000
0001
1000
,
2002
0000
3003
0000
,
1000
0010
0001
0010
,
1000
0100
0010
0001
,
0100
0010
0100
0010
,
1000
0000
0000
0000
,
0001
0100
1000
0100
,
0001
0010
0100
1000
,
0010
0100
0010
0100
,
0001
0000
1000
0001
,
1000
0100
0010
0000
,
0010
0100
1000
0000
,
0001
0100
0010
0000
,
0010
0100
0001
0000
,
1000
0001
1000
0000
,
0010
0100
0010
0000
,
1000
0100
0010
0001
,
2000
0000
0000
3002
0000
0000
0003
0000
,
1000
0010
0100
0000
,
0100
0010
1000
0000
,
0001
0010
0100
0000
,
0100
0010
0001
0000
,
1000
0001
1000
0000
,
0100
0010
0100
0000
,
1000
0010
0100
0001
,
2000
0000
0000
3002
0000
0000
0003
0000
,
1000
0001
1000
0000
,
0020
0000
0000
0230
0000
0000
0300
0000
,
0010
0100
0010
0000
,
2000
0000
0000
3002
0000
0000
0003
0000
,
1000
0001
1000
0000
,
0200
0000
0000
0320
0000
0000
0030
0000
,
2002
0000
3003
0000
,
1000
0000
0000
1000
0000
0000
0001
0000
,
0010
0100
1000
0010
,
0010
0100
0100
0001
,
1000
0001
1000
0000
,
0001
0000
0000
0001
0000
0000
1000
0000
,
0100
0010
0001
0100
,
0100
0010
0010
1000
,
0001
1000
0001
0000
,
2000
0000
3002
0000
,
0203
0000
0320
0000
,
2030
0000
3002
0000
,
0023
0000
0130
0000
;

//---------------dance-single - ----------------
#NOTEDATA:;
#CHARTNAME:;
#STEPSTYPE:dance-single;
#DESCRIPTION:;
#CHARTSTYLE:;
#DIFFICULTY:Easy;
#METER:1;
#RADARVALUES:0.097732,0.137043,0.000000,0.149103,0.000000,78.000000,78.000000,0.000000,17.000000,0.000000,0.000000,0.000000,0.000000,0.000000,0.097732,0.137043,0.000000,0.149103,0.000000,78.000000,78.000000,0.000000,17.000000,0.000000,0.000000,0.000000,0.000000,0.000000;
#CREDIT:;
#DISPLAYBPM:134.000000;
#NOTES:
0000
0000
0000
0000
,
0000
0000
0000
0000
,
0000
0000
0000
0000
,
0000
0000
0000
0000
,
2000
0000
3000
0000
,
0002
0000
0003
0000
,
0200
0000
0300
0000
,
0020
0000
0030
0000
,
2000
0000
3000
0000
,
0002
0000
0003
0000
,
0020
0000
0030
0000
,
0200
0000
0300
0000
,
1000
0000
0000
0000
,
0001
0000
0000
0000
,
1000
0000
0000
0000
,
0001
0000
0000
0000
,
0100
0000
0000
0000
,
0010
0000
0000
0000
,
0100
0000
0000
0000
,
0010
0000
0000
0000
,
1000
0000
0000
0000
,
0001
0000
0000
0000
,
1000
0000
0000
0000
,
0001
0000
0000
0000
,
0010
0000
0000
0000
,
0100
0000
0000
0000
,
0010
0000
0000
0000
,
0100
0000
0000
0000
,
1000
0000
1000
0000
,
0001
0000
0001
0000
,
0100
0000
0100
0000
,
0010
0000
0010
0000
,
1000
0000
1000
0000
,
0001
0000
0001
0000
,
1000
0000
1000
0000
,
0002
0000
0003
0000
,
1000
0000
1000
0000
,
0001
0000
0001
0000
,
0010
0000
0010
0000
,
0100
0000
0100
0000
,
1000
0000
1000
0000
,
0001
0000
0001
0000
,
1000
0000
1000
0000
,
0002
0000
0003
0000
,
2000
0000
3000
0000
,
0020
0000
0030
0000
,
0200
0000
0300
0000
,
0002
0000
0003
0000
,
2000
0000
3000
0000
,
0200
0000
0300
0000
,
0020
0000
0030
0000
,
0001
0000
1000
0000
,
0001
0000
0000
0000
,
0100
0000
0010
0000
,
0100
0000
0000
0000
,
0001
0000
1000
0000
,
0001
0000
0000
0000
,
0010
0000
0100
0000
,
0010
0000
0000
0000
,
0001
0000
0000
0000
,
1000
0000
0000
0000
,
0001
0000
0000
0000
,
1000
0000
0001
0000
;

//---------------dance-single - ----------------
#NOTEDATA:;
#CHARTNAME:;
#STEPSTYPE:dance-single;
#DESCRIPTION:;
#CHARTSTYLE:;
#DIFFICULTY:Beginner;
#METER:1;
#RADARVALUES:0.097732,0.137043,0.000000,0.149103,0.000000,78.000000,78.000000,0.000000,17.000000,0.000000,0.000000,0.000000,0.000000,0.000000,0.097732,0.137043,0.000000,0.149103,0.000000,78.000000,78.000000,0.000000,17.000000,0.000000,0.000000,0.000000,0.000000,0.000000;
#CREDIT:;
#DISPLAYBPM:134.000000;
#NOTES:
// measure 0
0000
0000
0000
0000
,  // measure 1
0000
0000
0000
0000
,  // measure 2
0000
0000
0000
0000
,  // measure 3
0000
0000
0000
0000
,  // measure 4
2000
0000
3000
0000
,  // measure 5
0002
0000
0003
0000
,  // measure 6
2000
0000
3000
0000
,  // measure 7
0002
0000
0003
0000
,  // measure 8
2000
0000
3000
0000
,  // measure 9
0002
0000
0003
0000
,  // measure 10
0002
0000
0003
0000
,  // measure 11
2000
0000
3000
0000
,  // measure 12
1000
0000
0000
0000
,  // measure 13
0001
0000
0000
0000
,  // measure 14
1000
0000
0000
0000
,  // measure 15
0001
0000
0000
0000
,  // measure 16
1000
0000
0000
0000
,  // measure 17
0001
0000
0000
0000
,  // measure 18
1000
0000
0000
0000
,  // measure 19
0001
0000
0000
0000
,  // measure 20
1000
0000
0000
0000
,  // measure 21
0001
0000
0000
0000
,  // measure 22
1000
0000
0000
0000
,  // measure 23
0001
0000
0000
0000
,  // measure 24
0001
0000
0000
0000
,  // measure 25
1000
0000
0000
0000
,  // measure 26
0001
0000
0000
0000
,  // measure 27
1000
0000
0000
0000
,  // measure 28
1000
0000
1000
0000
,  // measure 29
0001
0000
0001
0000
,  // measure 30
1000
0000
1000
0000
,  // measure 31
0001
0000
0001
0000
,  // measure 32
1000
0000
1000
0000
,  // measure 33
0001
0000
0001
0000
,  // measure 34
1000
0000
1000
0000
,  // measure 35
0002
0000
0003
0000
,  // measure 36
1000
0000
1000
0000
,  // measure 37
0001
0000
0001
0000
,  // measure 38
0001
0000
0001
0000
,  // measure 39
1000
0000
1000
0000
,  // measure 40
1000
0000
1000
0000
,  // measure 41
0001
0000
0001
0000
,  // measure 42
1000
0000
1000
0000
,  // measure 43
0002
0000
0003
0000
,  // measure 44
2000
0000
3000
0000
,  // measure 45
0002
0000
0003
0000
,  // measure 46
2000
0000
3000
0000
,  // measure 47
0002
0000
0003
0000
,  // measure 48
2000
0000
3000
0000
,  // measure 49
2000
0000
3000
0000
,  // measure 50
0002
0000
0003
0000
,  // measure 51
0001
0000
1000
0000
,  // measure 52
0001
0000
0000
0000
,  // measure 53
1000
0000
0001
0000
,  // measure 54
1000
0000
0000
0000
,  // measure 55
0001
0000
1000
0000
,  // measure 56
0001
0000
0000
0000
,  // measure 57
0001
0000
1000
0000
,  // measure 58
0001
0000
0000
0000
,  // measure 59
0001
0000
0000
0000
,  // measure 60
1000
0000
0000
0000
,  // measure 61
0001
0000
0000
0000
,  // measure 62
1000
0000
0001
0000
;
