#VERSION:0.83;
#TITLE:Man on a Mission;
#SUBTITLE:;
#ARTIST:Lazy Town;
#TITLETRANSLIT:;
#SUBTITLETRANSLIT:;
#ARTISTTRANSLIT:;
#GENRE:;
#ORIGIN:;
#CREDIT:BadWolf;
#BANNER:Man on a Mission.png;
#BACKGROUND:Man on a Mission-bg.png;
#PREVIEWVID:;
#JACKET:Man on a Mission-jacket.png;
#CDIMAGE:;
#DISCIMAGE:;
#LYRICSPATH:;
#CDTITLE:cdtitle.png;
#MUSIC:Man on a Mission.ogg;
#OFFSET:-0.640000;
#SAMPLESTART:41.258640;
#SAMPLELENGTH:13.846153;
#SELECTABLE:YES;
#DISPLAYBPM:130.000000;
#BPMS:0.000=130.000,
181.000=135.900;
#STOPS:24.000=0.923,
42.000=0.923,
109.000=1.846,
136.000=0.923,
154.000=2.769,
181.000=1.846;
#DELAYS:;
#WARPS:;
#TIMESIGNATURES:0.000=4=4;
#TICKCOUNTS:0.000=4;
#COMBOS:0.000=1;
#SPEEDS:0.000=1.000=0.000=0;
#SCROLLS:0.000=1.000;
#FAKES:;
#LABELS:0.000=Song Start;
#BGCHANGES:-1.387=Man on a Mission.mp4=1.000=0=0=1===CrossFade_Fastest==,
208.500=Man on a Mission-bg.png=1.000=0=0=1===CrossFade_Fastest==,
99999=-nosongbg-=1.000=0=0=0 // don't automatically add -songbackground-
;
#KEYSOUNDS:;
#ATTACKS:
;

//---------------dance-single - ----------------
#NOTEDATA:;
#CHARTNAME:;
#STEPSTYPE:dance-single;
#DESCRIPTION:;
#CHARTSTYLE:;
#DIFFICULTY:Edit;
#METER:9;
#RADARVALUES:0.439237,0.577206,0.311239,0.047157,0.075452,326.000000,293.000000,33.000000,5.000000,0.000000,0.000000,0.000000,0.000000,0.000000,0.439237,0.577206,0.311239,0.047157,0.075452,326.000000,293.000000,33.000000,5.000000,0.000000,0.000000,0.000000,0.000000,0.000000;
#CREDIT:;
#DISPLAYBPM:130.000000;
#NOTES:
0000
0000
0000
0000
,
0000
0000
0000
0000
,
0000
0000
0000
0000
,
0000
0000
0000
0000
,
1000
0100
0010
0001
0000
0010
0100
1000
,
0001
0100
0010
1000
0000
0010
0100
0001
,
1001
0000
0000
0000
1000
0100
0010
1000
,
0010
0100
1000
0001
0100
0010
1000
1001
,
0000
0010
0010
0100
1000
0010
0100
0001
,
0000
0100
0010
1000
0100
0010
0001
1000
,
0000
0010
0100
0001
1001
0000
0000
0000
,
1000
0100
0001
1000
0001
0100
1000
0010
,
0100
0001
1000
1001
0000
0001
0010
0100
,
1000
0000
0010
0110
0000
1000
0100
0010
,
0011
0000
0001
1001
0000
1000
0010
0100
,
0110
0000
1001
0010
0000
1100
0001
0000
,
1000
0000
0010
0000
0100
0000
0001
0000
1000
0100
0010
0000
0001
0000
0000
0000
,
1010
0000
0010
0110
0000
0100
0001
1000
,
1100
0000
0100
0110
0000
0010
0001
1000
,
1001
0000
0001
0101
0000
0100
0010
1000
,
0001
0010
0100
2000
0000
0000
0000
0000
,
3010
0000
0000
0000
0110
0000
0000
0000
0100
0000
0001
1000
0001
0000
1000
0000
,
0100
0000
0001
0000
0100
0000
1000
0000
0010
0000
0100
0001
1000
0000
0100
0000
,
0010
0000
0000
0000
0110
0000
0000
0000
0100
0000
1000
0001
1000
0000
0001
0000
,
0100
0000
1000
0000
0100
0000
0001
0000
0010
0000
0100
1000
0001
0000
0100
0000
,
0010
0010
1000
0100
0001
1000
0010
0001
,
0100
0100
0001
0010
1000
0001
0100
1000
,
1001
1001
0000
0000
,
1100
0100
0010
0011
0000
1000
0010
0001
,
0011
0010
1000
1001
0000
0001
0010
0100
,
1100
1000
0001
0100
1000
0100
0001
1000
,
1001
0001
0010
0110
0000
0100
1000
0001
,
1000
0010
0100
0001
0000
0100
0010
1000
,
0001
0010
0100
1000
0000
0100
0010
0001
,
2002
3003
0000
0000
0000
0000
0000
0000
0000
0000
0000
0000
0000
0000
0000
0000
1000
0000
0000
0000
0010
0000
0000
0000
0100
0000
0000
0000
1000
0000
0000
0000
,
0100
0010
1000
0001
0010
0100
1000
1001
,
0000
0100
0100
0010
1000
0100
0010
0001
,
0000
0010
0100
1000
0010
0100
0001
1000
,
0000
0100
0010
0001
1001
0000
0000
0000
,
1000
0000
0010
0000
0001
0000
0010
0000
0100
0000
0001
0000
1000
0000
0100
0010
,
0001
0000
0100
0000
0010
0000
1000
0000
0001
0000
0010
0100
0010
0100
1000
0001
,
1000
0000
0010
0000
0100
0000
0001
1000
0001
1000
0100
0000
0010
0000
0001
0000
,
1000
0000
0010
0100
0001
0000
1000
0000
0100
0010
0001
0000
1000
0001
0100
0001
,
1000
1000
0010
0001
0010
0100
0001
1000
,
0001
0000
0001
0000
0010
0000
1000
0000
0010
0000
0100
1000
0001
0000
1000
0000
,
1001
1001
0000
0000
,
0000
0000
0220
0000
,
0000
0000
0000
0000
,
0000
0000
0000
0000
,
0000
0000
0000
0000
,
0030
0000
0000
0000
,
0300
0000
0000
0000
;

//---------------dance-single - ----------------
#NOTEDATA:;
#CHARTNAME:;
#STEPSTYPE:dance-single;
#DESCRIPTION:;
#CHARTSTYLE:;
#DIFFICULTY:Challenge;
#METER:7;
#RADARVALUES:0.327407,0.432905,0.113178,0.037726,0.004716,243.000000,231.000000,12.000000,4.000000,0.000000,0.000000,0.000000,0.000000,0.000000,0.327407,0.432905,0.113178,0.037726,0.004716,243.000000,231.000000,12.000000,4.000000,0.000000,0.000000,0.000000,0.000000,0.000000;
#CREDIT:;
#DISPLAYBPM:130.000000;
#NOTES:
0000
0000
0000
0000
,
0000
0000
0000
0000
,
0000
0000
0000
0000
,
0000
0000
0000
0000
,
1000
0000
0001
1000
0000
0000
0010
0100
,
0001
0000
1000
0001
0000
0000
0010
0100
,
1000
0000
0000
0000
0001
0000
1000
0010
,
0100
0000
0100
0001
1000
0100
0010
0001
,
0000
1000
0001
1000
0001
0000
1000
0001
,
0000
0000
0100
0010
1000
0000
0001
1000
,
0000
0000
0100
0010
0001
0000
0000
0000
,
1000
0000
0001
0100
0010
0000
0010
1000
,
0001
0010
0100
1000
0000
0001
1000
0001
,
1000
0000
0010
0000
0100
0001
0000
1000
,
0000
0100
0010
0001
0000
1000
0001
1000
,
0001
0000
0101
0000
0000
1100
0000
0000
,
0000
0000
1000
0000
0001
0000
0000
0000
1000
0001
1000
0000
0000
0000
0000
0000
,
0001
0000
0100
0000
0010
1000
0010
1000
,
0000
0100
0010
0001
0000
1000
0001
1000
,
0001
0000
0100
0010
0000
0010
1000
0000
,
2002
0000
0000
3003
,
0011
0000
1100
0000
0001
0010
0100
0000
,
1000
0010
0100
0010
1000
0001
1000
0000
,
1100
0000
0011
0000
1000
0100
0010
0000
,
0001
0100
0010
0100
0001
1000
0001
0000
,
1000
0100
0010
0001
0100
0010
1000
0001
,
0010
0100
1000
0001
1000
0010
0100
0001
,
1001
1001
0000
0000
,
1000
0000
0100
0010
0000
0001
1000
0000
,
0010
0100
0001
1000
0000
0100
0010
0001
,
1000
0000
0010
0100
0000
0001
1000
0100
,
0010
0001
1000
0001
0000
1000
0001
1000
,
0001
0000
1000
0001
0000
0000
0100
0010
,
1000
0000
0001
1000
0000
0000
0100
0010
,
0001
0000
0000
0000
1000
0000
0001
0100
,
0010
0000
0010
1000
0001
0010
0100
1000
,
0000
0001
1000
0001
1000
0000
0001
1000
,
0000
0000
0010
0100
0001
0000
1000
0001
,
0000
0000
0010
0100
1000
0000
0000
0000
,
0001
1000
0010
0000
0100
0001
1000
0000
,
0100
0010
0001
0100
1000
0100
0001
1000
,
0001
1000
0100
0000
0010
0001
1000
0000
,
0010
0100
0001
1000
0100
0010
0001
0000
,
1000
0010
0001
0010
1000
0001
1000
0000
,
0001
0100
1000
0100
0001
1000
0001
0000
,
1001
1001
0000
0000
,
0000
0000
0220
0000
,
0000
0000
0000
0000
,
0000
0000
0000
0000
,
0000
0000
0000
0000
,
0030
0000
0000
0000
,
0300
0000
0000
0000
;

//---------------dance-single - ----------------
#NOTEDATA:;
#CHARTNAME:;
#STEPSTYPE:dance-single;
#DESCRIPTION:;
#CHARTSTYLE:;
#DIFFICULTY:Hard;
#METER:1;
#RADARVALUES:0.078146,0.120251,0.000000,0.028294,0.000000,58.000000,58.000000,0.000000,3.000000,0.000000,0.000000,0.000000,0.000000,0.000000,0.078146,0.120251,0.000000,0.028294,0.000000,58.000000,58.000000,0.000000,3.000000,0.000000,0.000000,0.000000,0.000000,0.000000;
#CREDIT:;
#DISPLAYBPM:130.000000;
#NOTES:
0000
0000
0000
0000
,
0000
0000
0000
0000
,
0000
0000
0000
0000
,
0000
0000
0000
0000
,
1000
0000
0000
0000
,
0001
0000
0000
0000
,
1000
0000
0001
0000
,
0010
0000
0100
0000
,
0000
0000
1000
0000
,
0000
0000
0001
0000
,
0000
0000
1000
0000
,
0010
0000
0100
0000
,
0001
0000
0000
0000
,
1000
0000
1000
0000
,
0001
0000
0001
0000
,
2000
0000
0000
0000
,
3000
0000
0000
0000
,
0010
0000
0010
0000
,
0100
0000
0100
0000
,
0020
0000
0000
0000
,
0030
0000
0000
0000
,
1000
0000
0001
0000
,
1000
0000
0000
0000
,
0010
0000
0100
0000
,
0010
0000
0000
0000
,
1000
0000
0001
0000
,
1000
0000
0000
0000
,
0001
0001
0000
0000
,
1000
0000
0000
0000
,
0100
0000
0000
0000
,
0010
0000
0000
0000
,
0001
0000
0000
0000
,
1000
0000
0000
0000
,
0001
0000
0000
0000
,
1000
0000
0001
0000
,
0010
0000
0100
0000
,
0000
0000
1000
0000
,
0000
0000
0001
0000
,
0000
0000
1000
0000
,
0001
0000
1000
0000
,
0001
0000
0000
0000
,
0100
0000
0010
0000
,
0100
0000
0000
0000
,
0001
0000
1000
0000
,
0001
0000
0000
0000
,
1000
1000
0000
0000
,
0000
0000
0002
0000
,
0000
0000
0000
0000
,
0000
0000
0000
0000
,
0000
0000
0000
0000
,
0000
0000
0000
0000
,
0003
0000
0000
0000
;

//---------------dance-single - ----------------
#NOTEDATA:;
#CHARTNAME:;
#STEPSTYPE:dance-single;
#DESCRIPTION:;
#CHARTSTYLE:;
#DIFFICULTY:Medium;
#METER:1;
#RADARVALUES:0.078146,0.120251,0.000000,0.028294,0.000000,58.000000,58.000000,0.000000,3.000000,0.000000,0.000000,0.000000,0.000000,0.000000,0.078146,0.120251,0.000000,0.028294,0.000000,58.000000,58.000000,0.000000,3.000000,0.000000,0.000000,0.000000,0.000000,0.000000;
#CREDIT:;
#DISPLAYBPM:130.000000;
#NOTES:
// measure 0
0000
0000
0000
0000
,  // measure 1
0000
0000
0000
0000
,  // measure 2
0000
0000
0000
0000
,  // measure 3
0000
0000
0000
0000
,  // measure 4
1000
0000
0000
0000
,  // measure 5
0001
0000
0000
0000
,  // measure 6
1000
0000
0001
0000
,  // measure 7
0001
0000
1000
0000
,  // measure 8
0000
0000
1000
0000
,  // measure 9
0000
0000
0001
0000
,  // measure 10
0000
0000
1000
0000
,  // measure 11
0001
0000
1000
0000
,  // measure 12
0001
0000
0000
0000
,  // measure 13
1000
0000
1000
0000
,  // measure 14
0001
0000
0001
0000
,  // measure 15
2000
0000
0000
0000
,  // measure 16
3000
0000
0000
0000
,  // measure 17
0001
0000
0001
0000
,  // measure 18
1000
0000
1000
0000
,  // measure 19
0002
0000
0000
0000
,  // measure 20
0003
0000
0000
0000
,  // measure 21
1000
0000
0001
0000
,  // measure 22
1000
0000
0000
0000
,  // measure 23
0001
0000
1000
0000
,  // measure 24
0001
0000
0000
0000
,  // measure 25
1000
0000
0001
0000
,  // measure 26
1000
0000
0000
0000
,  // measure 27
0001
0001
0000
0000
,  // measure 28
1000
0000
0000
0000
,  // measure 29
1000
0000
0000
0000
,  // measure 30
0001
0000
0000
0000
,  // measure 31
0001
0000
0000
0000
,  // measure 32
1000
0000
0000
0000
,  // measure 33
0001
0000
0000
0000
,  // measure 34
1000
0000
0001
0000
,  // measure 35
0001
0000
1000
0000
,  // measure 36
0000
0000
1000
0000
,  // measure 37
0000
0000
0001
0000
,  // measure 38
0000
0000
1000
0000
,  // measure 39
0001
0000
1000
0000
,  // measure 40
0001
0000
0000
0000
,  // measure 41
1000
0000
0001
0000
,  // measure 42
1000
0000
0000
0000
,  // measure 43
0001
0000
1000
0000
,  // measure 44
0001
0000
0000
0000
,  // measure 45
1000
1000
0000
0000
,  // measure 46
0000
0000
0002
0000
,  // measure 47
0000
0000
0000
0000
,  // measure 48
0000
0000
0000
0000
,  // measure 49
0000
0000
0000
0000
,  // measure 50
0000
0000
0000
0000
,  // measure 51
0003
0000
0000
0000
;
