#VERSION:0.83;
#TITLE:MY GENERATION (Fat Beat Mix);
#SUBTITLE:;
#ARTIST:CAPTAIN JACK;
#TITLETRANSLIT:;
#SUBTITLETRANSLIT:;
#ARTISTTRANSLIT:;
#GENRE:;
#ORIGIN:;
#CREDIT:BadWolf;
#BANNER:MY GENERATION (Fat Beat Mix).PNG;
#BACKGROUND:MY GENERATION (Fat Beat Mix)-bg.PNG;
#PREVIEWVID:;
#JACKET:;
#CDIMAGE:;
#DISCIMAGE:;
#LYRICSPATH:;
#CDTITLE:cdtitle.png;
#MUSIC:MY GENERATION (Fat Beat Mix).ogg;
#OFFSET:-0.140000;
#SAMPLESTART:44.012310;
#SAMPLELENGTH:13.588112;
#SELECTABLE:YES;
#BPMS:0.000=141.300;
#STOPS:;
#DELAYS:;
#WARPS:;
#TIMESIGNATURES:0.000=4=4;
#TICKCOUNTS:0.000=4;
#COMBOS:0.000=1;
#SPEEDS:0.000=1.000=0.000=0;
#SCROLLS:0.000=1.000;
#FAKES:;
#LABELS:0.000=Song Start;
#BGCHANGES:-0.283=Various - My Generation_0001.WMV=1.000=0=0=1===CrossFade_Fastest==,
99999=-nosongbg-=1.000=0=0=0 // don't automatically add -songbackground-
;
#KEYSOUNDS:;
#ATTACKS:
;

//---------------dance-single - ----------------
#NOTEDATA:;
#CHARTNAME:;
#STEPSTYPE:dance-single;
#DESCRIPTION:;
#CHARTSTYLE:;
#DIFFICULTY:Edit;
#METER:10;
#RADARVALUES:0.711819,0.966961,0.237812,0.022649,0.577544,440.000000,419.000000,21.000000,2.000000,0.000000,0.000000,0.000000,0.000000,0.000000,0.711819,0.966961,0.237812,0.022649,0.577544,440.000000,419.000000,21.000000,2.000000,0.000000,0.000000,0.000000,0.000000,0.000000;
#CREDIT:;
#NOTES:
0000
0000
0000
0000
,
0000
0000
0000
0000
,
0000
0000
0000
0000
,
0000
0000
0000
0000
,
0000
0000
0000
0000
,
1000
0100
0000
0010
0001
0000
0100
0010
0000
0010
1000
0000
0001
0000
0010
0000
,
0100
1000
0000
0010
0100
0000
0001
1000
0000
1000
0100
0000
0010
0000
0001
0000
,
1000
0010
0000
0100
0001
0000
0010
0100
0000
0100
1000
0000
0001
0000
0100
0000
,
0010
1000
0000
0100
0010
0000
0001
1000
0000
1000
0010
0000
0100
0000
0001
0000
,
1000
0100
0000
0010
0100
0000
1000
0100
0000
0010
0001
0000
1000
0000
0001
0000
,
1000
0010
0000
0100
0010
0000
1000
0010
0000
0100
0001
0000
1000
0000
0001
0000
,
0010
0100
0000
0010
0001
0000
0010
0100
0000
0010
0001
0000
0010
0000
0100
0000
,
1000
0001
0000
1000
0001
0000
1000
0001
0000
0001
1000
0000
0001
0000
1000
0000
,
0001
0100
0000
0010
0100
0000
0001
0100
0000
0010
1000
0000
0001
0000
1000
0000
,
0001
0010
0000
0100
0010
0000
0001
0010
0000
0100
1000
0000
0001
0000
1000
0000
,
0010
0100
0000
0010
1000
0000
0010
0100
0000
0010
1000
0000
0010
0000
0100
0000
,
0001
1000
0000
0001
1000
0000
0001
1000
0000
1000
0001
0000
1000
0000
0001
0000
,
0011
0000
0110
0100
1000
0001
1001
0000
,
1010
0000
0110
0100
0001
1000
1001
0000
,
0101
0000
0110
0010
1000
0001
1001
0000
,
1100
1000
1100
0000
0101
0001
0101
0000
,
1100
0100
0010
0100
0001
0100
0010
0000
,
0101
0100
0010
0100
1000
0100
0010
0000
,
1010
0010
0100
0010
0001
0010
0100
0000
,
0011
0001
0011
0000
1010
1000
1010
0000
,
2002
0000
0000
3003
,
1000
0000
0100
0000
0010
0000
0100
0000
1000
0001
0000
0001
0100
0000
0001
0000
,
0001
0000
0010
0000
0100
0000
0010
0000
0001
1000
0000
1000
0010
0000
1000
0000
,
1000
0000
0100
0000
0010
0000
0001
0000
0100
0010
0000
0010
1000
0000
0001
0000
,
0001
1000
0100
0000
0010
0000
0100
0000
1000
0001
0000
1000
0001
0000
1000
0000
,
0001
0000
0100
0000
0010
0000
0100
0000
0001
1000
0000
1000
0100
0000
1000
0000
,
1000
0000
0010
0000
0100
0000
0010
0000
1000
0001
0000
0001
0010
0000
0001
0000
,
0001
0000
0100
0000
0010
0000
1000
0000
0100
0010
0000
0010
0001
0000
1000
0000
,
1000
0001
0100
0000
0010
0000
0100
0000
0001
1000
0000
0001
1000
0000
0001
0000
,
1000
0010
0100
0010
0001
0010
0100
0001
,
0001
0010
0100
0010
1000
0010
0100
1000
,
1000
0010
0001
0010
1000
0100
0010
0001
,
0001
0000
0100
0000
1000
0000
0100
0000
0001
1000
0000
0001
1000
0000
0001
0000
,
0001
0100
0010
0100
1000
0100
0010
1000
,
1000
0100
0010
0100
0001
0100
0010
0001
,
0001
0100
1000
0100
0001
0010
0100
1000
,
1000
0000
0010
0000
0001
0000
0010
0000
1000
0001
0000
1000
0001
0000
1000
0000
,
1000
0000
0100
0000
0010
0000
0001
0000
0100
0010
0000
1000
0010
0000
1000
0000
,
1000
0000
0001
0000
0010
0000
0100
0000
1000
0010
0000
0010
0100
0000
0001
0000
,
0001
0000
0010
0000
0100
0000
1000
0000
0010
0100
0000
0001
0100
0000
0001
0000
,
0001
0000
1000
0000
0100
0000
0010
0000
0001
0100
0000
0100
0010
0000
1000
0000
,
1000
0000
0100
0000
0001
0000
1000
0000
0010
0000
0001
0000
1000
0000
0001
1000
,
0001
0000
0100
0000
1000
0000
0001
0000
0010
0000
1000
0000
0001
0000
1000
0001
,
1000
0100
1000
0100
1000
0100
1000
0100
0010
0001
0010
0001
0010
0001
0010
0001
,
1000
0100
0010
0001
1000
0100
0010
0001
0100
0010
1000
0001
0010
0100
1000
0001
,
1000
1000
0010
0010
0100
0100
0001
0001
,
1000
0100
0010
0001
0100
0010
1000
0001
0010
0100
1000
0001
1000
0000
0000
0000
;

//---------------dance-single - ----------------
#NOTEDATA:;
#CHARTNAME:;
#STEPSTYPE:dance-single;
#DESCRIPTION:;
#CHARTSTYLE:;
#DIFFICULTY:Challenge;
#METER:9;
#RADARVALUES:0.637401,0.673943,0.317083,0.022649,0.441651,394.000000,366.000000,28.000000,2.000000,0.000000,0.000000,0.000000,0.000000,0.000000,0.637401,0.673943,0.317083,0.022649,0.441651,394.000000,366.000000,28.000000,2.000000,0.000000,0.000000,0.000000,0.000000,0.000000;
#CREDIT:;
#NOTES:
0000
0000
0000
0000
,
0000
0000
0000
0000
,
0000
0000
0000
0000
,
0000
0000
0000
0000
,
0000
0000
0000
0000
,
1000
0010
0000
1000
0010
0000
0100
0000
0001
0000
1000
0000
0100
0000
0010
0000
,
0001
0100
0000
0001
0100
0000
0010
0000
1000
0000
0001
0000
0010
0000
0100
0000
,
1000
0001
0000
1000
0001
0000
0100
0000
0010
0000
1000
0000
0100
0000
0010
0000
,
0001
1000
0000
0001
1000
0000
0010
0100
0000
0010
0100
0000
0001
0000
1000
0000
,
0001
0010
0100
0010
0001
1000
1001
0000
,
1000
0010
0100
0010
1000
0001
1001
0000
,
0001
0000
1000
0000
0010
0000
0100
0001
0000
0100
0001
0000
1000
0000
0000
0000
,
0010
0000
0100
0000
0001
0000
1000
0100
0000
1000
0100
0000
0010
0000
0000
0000
,
0001
0000
1000
0000
0010
0000
1000
0000
0001
1000
0001
0000
0010
0000
0100
0000
,
1000
0000
0001
0000
0100
0000
0001
0000
1000
0001
1000
0000
0100
0000
0010
0000
,
0001
0000
0001
0000
1000
0000
1000
0000
0010
0100
0010
0000
1000
0000
0001
0000
,
0010
0000
0100
0000
1000
0000
0001
0000
1000
0001
1000
0000
1001
0000
0000
0000
,
1010
1010
0011
1010
,
0101
0101
1100
0101
,
1010
1010
0011
1010
,
1000
0100
0010
0001
0010
0100
1000
0000
,
0011
0011
1010
0011
,
1100
1100
0101
1100
,
0011
0011
1010
0011
,
0001
0010
0100
1000
0100
0010
0001
0000
,
2002
0000
0000
3003
,
1000
0000
0000
1000
0010
0000
0000
0010
0001
0000
0000
0001
0010
0000
0000
0010
,
1000
0000
0000
1000
0100
0000
0000
0100
0010
0000
0000
0010
0001
0000
0000
0001
,
0100
0000
0000
0100
0010
0000
0000
0010
1000
0000
0000
1000
0001
0000
0000
0001
,
1000
0000
0000
1000
0100
0000
0000
0100
0001
0000
0000
0001
0100
0000
1000
0000
,
0001
0000
0000
0001
0100
0000
0000
0100
1000
0000
0000
1000
0100
0000
0000
0100
,
0001
0000
0000
0001
0010
0000
0000
0010
0100
0000
0000
0100
1000
0000
0000
1000
,
0010
0000
0000
0010
0100
0000
0000
0100
0001
0000
0000
0001
1000
0000
0000
1000
,
0001
0000
0000
0001
0010
0000
0000
0010
1000
0000
0000
1000
0010
0000
0001
0000
,
1000
0010
0001
0010
0100
0010
1000
0100
,
0010
0100
1000
0010
0001
0010
1000
0001
,
0001
0010
1000
0010
0100
0010
0001
0100
,
0010
0100
0001
0010
1000
0010
0001
1000
,
1000
0000
0010
0000
0100
0000
0001
0000
1000
0000
0100
0000
0010
0000
0001
1000
,
0001
0000
0100
0000
0010
0000
1000
0000
0001
0000
0010
0000
0100
0000
1000
0001
,
1000
0000
0010
0000
0001
0000
0010
0000
0100
0000
0010
0000
1000
0000
0001
1000
,
0001
0000
0010
0000
1000
0000
0010
0000
0100
0000
0000
0010
0000
0000
0001
0000
,
1000
0010
0000
1000
0010
0000
0100
0000
0001
0000
1000
0000
0100
0000
0010
0000
,
0001
0100
0000
0001
0100
0000
0010
0000
1000
0000
0001
0000
0010
0000
0100
0000
,
1000
0001
0000
1000
0001
0000
0100
0000
0010
0000
1000
0000
0100
0000
0010
0000
,
0001
1000
0000
0001
1000
0000
0010
0100
0000
0010
0100
0000
0001
0000
1000
0000
,
0001
0010
0000
0001
0010
0000
0100
0000
1000
0000
0001
0000
0100
0000
0010
0000
,
1000
0100
0000
1000
0100
0000
0010
0000
0001
0000
1000
0000
0010
0000
0100
0000
,
0001
1000
0000
0001
1000
0000
0100
0000
0010
0000
0001
0000
0100
0000
0010
0000
,
1000
0001
0000
1000
0001
0000
0010
0100
0000
0010
0100
0000
1000
0000
0001
0000
,
1000
0001
1000
0001
0010
0100
0010
0100
,
1000
0001
1000
0001
1000
0001
1000
0001
1000
0001
1000
0001
1000
0000
0000
0000
;

//---------------dance-single - ----------------
#NOTEDATA:;
#CHARTNAME:;
#STEPSTYPE:dance-single;
#DESCRIPTION:;
#CHARTSTYLE:;
#DIFFICULTY:Hard;
#METER:8;
#RADARVALUES:0.540335,0.527433,0.509597,0.033973,0.288772,334.000000,289.000000,45.000000,3.000000,0.000000,0.000000,0.000000,0.000000,0.000000,0.540335,0.527433,0.509597,0.033973,0.288772,334.000000,289.000000,45.000000,3.000000,0.000000,0.000000,0.000000,0.000000,0.000000;
#CREDIT:;
#NOTES:
0000
0000
0000
0000
,
0000
0000
0000
0000
,
0000
0000
0000
0000
,
0000
0000
0000
0000
,
0000
0000
0000
0000
,
1000
0000
1100
0000
0011
0000
0001
1000
,
0001
0000
0101
0000
1010
0000
1000
0001
,
1000
0000
1010
0000
0101
0000
0001
1000
,
0002
0000
0000
0003
,
1000
0100
0010
0000
0100
1000
0001
0000
,
0100
0010
1000
0001
0010
0100
1000
0000
,
0010
0000
0100
0000
0001
0000
1000
0010
0000
0100
0001
0000
1000
0000
0000
0000
,
0100
0000
0010
0000
0001
0000
0100
0010
0000
1000
0010
0000
1000
0000
0000
0000
,
0001
0000
1000
0000
0001
0000
0000
0000
0010
0100
0010
0000
0001
0000
1000
0000
,
0010
0000
0100
0000
0001
0000
1000
0100
0000
0010
0001
0000
1000
0000
0000
0000
,
0001
0000
0100
0000
0010
0000
1000
0001
0000
1000
0010
0000
0100
0000
0000
0000
,
0001
0000
1000
0001
1000
0000
0000
0000
0100
0000
0010
0000
0001
0000
0000
0000
,
1010
1010
0011
1010
,
0101
0101
1100
0101
,
1010
1010
0011
1010
,
1000
0100
0010
0001
0010
0100
1000
0000
,
0011
0011
1010
0011
,
1100
1100
0101
1100
,
0011
0011
1010
0011
,
0001
0010
0100
1000
0100
0010
0001
0000
,
2002
0000
0000
3003
,
1000
0000
0000
1000
0010
0000
0000
0010
0100
0000
0000
0100
0001
0000
0000
0001
,
1000
0000
0000
1000
0100
0000
0000
0100
0010
0000
0000
0010
0001
0000
0000
0000
,
1000
0010
1000
0000
0001
0100
0001
0000
,
1000
0100
0010
0001
0010
0100
1000
0000
,
0001
0000
0000
0001
0100
0000
0000
0100
0010
0000
0000
0010
1000
0000
0000
1000
,
0001
0000
0000
0001
0010
0000
0000
0010
0100
0000
0000
0100
1000
0000
0000
0000
,
0001
0100
0001
0000
1000
0010
1000
0000
,
0001
0010
0100
1000
0100
0010
0001
0000
,
1000
0100
0010
0000
0011
0000
1001
0000
,
0001
0010
0100
0000
1100
0000
1001
0000
,
1000
0010
0100
0000
0101
0000
1001
0000
,
0001
0100
0010
0000
1010
0000
1001
0000
,
1000
0100
0010
0100
1000
0000
1010
0000
,
0001
0100
0010
0100
0001
0000
0101
0000
,
1000
0100
0010
0001
1000
0000
1001
0000
,
0001
0000
0010
0000
0100
0000
1000
0000
0001
0000
0000
1000
0000
0000
0001
0000
,
1000
0000
0000
1000
0010
0000
0000
0010
0100
0000
0000
0100
0001
0000
0000
0000
,
0010
0000
0000
0010
0100
0000
0000
0100
1000
0000
0000
1000
0001
0000
1000
0000
,
0001
0000
0000
0001
0100
0000
0000
0100
0010
0000
0000
0010
1000
0000
0000
0000
,
0100
0000
0000
0100
0010
0000
0000
0010
0001
0000
0000
0001
1000
0000
0001
0000
,
1000
0000
0000
1000
0010
0000
0000
0010
0001
0000
0000
0001
0010
0000
0000
0010
,
1000
0000
0000
1000
0001
0000
0000
0001
1000
0000
0000
1000
0001
0000
1000
0000
,
0001
0000
0000
0001
0100
0000
0000
0100
1000
0000
0000
1000
0100
0000
0000
0100
,
0001
0000
0000
0001
1000
0000
0000
1000
0001
0000
0000
0001
1000
0000
0001
0000
,
1000
1100
0101
0011
,
1000
0100
0010
0001
0100
0010
1000
0000
;

//---------------dance-single - ----------------
#NOTEDATA:;
#CHARTNAME:;
#STEPSTYPE:dance-single;
#DESCRIPTION:;
#CHARTSTYLE:;
#DIFFICULTY:Medium;
#METER:6;
#RADARVALUES:0.440033,0.527433,0.588868,0.056622,0.000000,272.000000,220.000000,52.000000,5.000000,0.000000,0.000000,0.000000,0.000000,0.000000,0.440033,0.527433,0.588868,0.056622,0.000000,272.000000,220.000000,52.000000,5.000000,0.000000,0.000000,0.000000,0.000000,0.000000;
#CREDIT:;
#NOTES:
0000
0000
0000
0000
,
0000
0000
0000
0000
,
0000
0000
0000
0000
,
0000
0000
0000
0000
,
0000
0000
0000
0000
,
1000
0000
1000
0000
1000
0000
0001
1000
,
0010
0000
0010
0000
0010
0000
0100
0001
,
1000
0000
1000
0000
1000
0000
0100
0010
,
0002
0000
0000
0003
,
1000
0000
1010
0000
1000
0001
1000
0000
,
0001
0000
0101
0000
0001
1000
0001
0000
,
1000
0100
0010
0000
0001
1000
0001
0000
,
0100
0010
1000
0000
0001
1000
0001
0000
,
1010
0010
0100
0001
,
1100
0100
0010
0001
,
1000
0010
1000
0010
0100
0001
0100
0000
,
0010
1000
0010
1000
0001
1000
0001
0000
,
1100
1100
0101
0101
,
1010
1010
0011
0011
,
1100
1100
0101
0101
,
1001
0110
1001
0000
,
0011
0011
1010
1010
,
0101
0101
1100
1100
,
0011
0011
1010
1010
,
1001
0110
1001
0000
,
2002
0000
0000
3003
,
1000
0000
0100
0000
0010
0000
0001
1000
,
0001
0000
0010
0000
0100
0000
1000
0001
,
1000
0000
0010
0000
0100
0000
0001
1000
,
0001
0000
0100
0000
0010
1000
0010
1000
,
0001
0000
0010
0000
0100
0000
1000
0001
,
1000
0000
0100
0000
0010
0000
0001
1000
,
0001
0000
0100
0000
0010
0000
1000
0001
,
1000
0000
0010
0000
0100
0001
0100
0001
,
1000
0000
1100
0000
0011
0000
0001
1000
,
0001
0000
0101
0000
1010
0000
1000
0001
,
1000
0000
1010
0000
0101
0000
0001
1000
,
0001
0000
0011
0000
1100
0000
1000
0001
,
1000
0000
1100
0000
0101
0000
0001
1000
,
0001
0000
0011
0000
1010
0000
1000
0001
,
1000
0000
1010
0000
0011
0000
0001
1000
,
0001
0101
1100
0000
,
1000
0000
0100
0000
0010
0000
0100
1000
,
0001
0000
0100
0000
0010
0000
0100
0001
,
1000
0000
0100
0000
0010
0000
0001
1000
,
0010
0000
0100
0000
0001
0000
1000
0001
,
0010
0000
0100
0000
1000
0000
0001
1000
,
0001
0000
0100
0000
0010
0000
1000
0001
,
1000
0100
1000
0100
0010
0001
1000
0000
,
0001
0100
0001
0100
0010
1000
0001
0000
,
1000
0001
1000
0001
,
2002
0000
0000
3003
;

//---------------dance-single - ----------------
#NOTEDATA:;
#CHARTNAME:;
#STEPSTYPE:dance-single;
#DESCRIPTION:;
#CHARTSTYLE:;
#DIFFICULTY:Easy;
#METER:4;
#RADARVALUES:0.317083,0.468830,0.260461,0.090595,0.000000,196.000000,173.000000,23.000000,8.000000,0.000000,0.000000,0.000000,0.000000,0.000000,0.317083,0.468830,0.260461,0.090595,0.000000,196.000000,173.000000,23.000000,8.000000,0.000000,0.000000,0.000000,0.000000,0.000000;
#CREDIT:;
#NOTES:
0000
0000
0000
0000
,
0000
0000
0000
0000
,
0000
0000
0000
0000
,
0000
0000
0000
0000
,
0000
0000
0000
0000
,
1000
1000
1000
1000
,
0010
0010
0100
0100
,
0001
0001
0001
0001
,
2002
0000
0000
3003
,
1000
0100
0010
0001
,
0100
0010
1000
0001
,
0010
0100
1000
0001
,
1000
0010
0100
0001
,
1000
1000
0001
0001
,
1000
0100
0010
0001
,
0100
0100
0010
0010
,
1000
0001
0010
0100
,
1000
1000
0101
0101
,
0001
0001
1010
1010
,
1000
1000
0011
0011
,
1001
0110
1001
0000
,
0001
0001
1100
1100
,
1000
1000
0011
0011
,
0001
0001
1010
1010
,
1001
0110
1001
0000
,
2002
0000
0000
3003
,
1000
0100
0010
0001
,
1000
0010
0001
0010
,
1000
0100
0001
0100
,
1000
0010
0100
0001
,
0010
0100
1000
0001
,
0100
0010
1000
0001
,
1000
0100
0010
0001
,
1000
0010
0100
0001
,
1000
1000
0001
0001
,
0010
0100
1000
0001
,
0100
0100
0010
0010
,
1000
0100
0010
0001
,
1000
0010
0001
0010
,
1000
1000
0001
0001
,
1000
0100
0001
0100
,
1000
0001
1001
0000
,
1000
0001
0100
0010
,
1000
0001
0010
0100
,
1000
0010
0100
0001
,
1000
0100
0010
0001
,
0100
0010
1000
0001
,
0010
0100
1000
0001
,
1000
0010
0100
0001
,
1000
0100
0010
0001
,
2002
0000
0000
3003
,
0220
0000
0000
0330
;

//---------------dance-single - ----------------
#NOTEDATA:;
#CHARTNAME:;
#STEPSTYPE:dance-single;
#DESCRIPTION:;
#CHARTSTYLE:;
#DIFFICULTY:Beginner;
#METER:2;
#RADARVALUES:0.317083,0.468830,0.260461,0.090595,0.000000,196.000000,173.000000,23.000000,8.000000,0.000000,0.000000,0.000000,0.000000,0.000000,0.317083,0.468830,0.260461,0.090595,0.000000,196.000000,173.000000,23.000000,8.000000,0.000000,0.000000,0.000000,0.000000,0.000000;
#CREDIT:;
#NOTES:
// measure 0
0000
0000
0000
0000
,  // measure 1
0000
0000
0000
0000
,  // measure 2
0000
0000
0000
0000
,  // measure 3
0000
0000
0000
0000
,  // measure 4
0000
0000
0000
0000
,  // measure 5
1000
1000
1000
1000
,  // measure 6
0001
0001
1000
1000
,  // measure 7
0001
0001
0001
0001
,  // measure 8
2002
0000
0000
3003
,  // measure 9
1000
1000
0001
0001
,  // measure 10
1000
0001
1000
0001
,  // measure 11
0001
1000
1000
0001
,  // measure 12
1000
0001
1000
0001
,  // measure 13
1000
1000
0001
0001
,  // measure 14
1000
1000
0001
0001
,  // measure 15
1000
1000
0001
0001
,  // measure 16
1000
0001
0001
1000
,  // measure 17
1000
1000
1001
1001
,  // measure 18
0001
0001
1001
1001
,  // measure 19
1000
1000
1001
1001
,  // measure 20
1001
1001
1001
0000
,  // measure 21
0001
0001
1001
1001
,  // measure 22
1000
1000
1001
1001
,  // measure 23
0001
0001
1001
1001
,  // measure 24
1001
1001
1001
0000
,  // measure 25
2002
0000
0000
3003
,  // measure 26
1000
1000
0001
0001
,  // measure 27
1000
0001
0001
0001
,  // measure 28
1000
1000
0001
1000
,  // measure 29
1000
0001
1000
0001
,  // measure 30
0001
1000
1000
0001
,  // measure 31
1000
0001
1000
0001
,  // measure 32
1000
1000
0001
0001
,  // measure 33
1000
0001
1000
0001
,  // measure 34
1000
1000
0001
0001
,  // measure 35
0001
1000
1000
0001
,  // measure 36
1000
1000
0001
0001
,  // measure 37
1000
1000
0001
0001
,  // measure 38
1000
0001
0001
0001
,  // measure 39
1000
1000
0001
0001
,  // measure 40
1000
1000
0001
1000
,  // measure 41
1000
0001
1001
0000
,  // measure 42
1000
0001
1000
0001
,  // measure 43
1000
0001
0001
1000
,  // measure 44
1000
0001
1000
0001
,  // measure 45
1000
1000
0001
0001
,  // measure 46
1000
0001
1000
0001
,  // measure 47
0001
1000
1000
0001
,  // measure 48
1000
0001
1000
0001
,  // measure 49
1000
1000
0001
0001
,  // measure 50
2002
0000
0000
3003
,  // measure 51
2002
0000
0000
3003
;
