#VERSION:0.83;
#TITLE:MOONLIGHT SHADOW (New Vocal Version) (from NonStop MegaMix);
#SUBTITLE:;
#ARTIST:MISSING HEART;
#TITLETRANSLIT:;
#SUBTITLETRANSLIT:;
#ARTISTTRANSLIT:;
#GENRE:;
#ORIGIN:;
#CREDIT:BadWolf;
#BANNER:MOONLIGHT SHADOW (New Vocal Version).PNG;
#BACKGROUND:MOONLIGHT SHADOW (New Vocal Version)-bg.PNG;
#PREVIEWVID:;
#JACKET:;
#CDIMAGE:;
#DISCIMAGE:;
#LYRICSPATH:;
#CDTITLE:cdtitle.png;
#MUSIC:MOONLIGHT SHADOW (New Vocal Version).ogg;
#OFFSET:-0.320000;
#SAMPLESTART:43.160397;
#SAMPLELENGTH:13.654285;
#SELECTABLE:YES;
#BPMS:0.000=140.000;
#STOPS:;
#DELAYS:;
#WARPS:;
#TIMESIGNATURES:0.000=4=4;
#TICKCOUNTS:0.000=4;
#COMBOS:0.000=1;
#SPEEDS:0.000=1.000=0.000=0;
#SCROLLS:0.000=1.000;
#FAKES:;
#LABELS:0.000=Song Start;
#BGCHANGES:-0.700=MOONLIGHT SHADOW (New Vocal Version).mp4=1.000=0=0=1===CrossFade_Fastest==,
216.000=flash=0.000=0=0=1===CrossFade_Fastest=#000000=,
99999=-nosongbg-=1.000=0=0=0 // don't automatically add -songbackground-
;
#KEYSOUNDS:;
#ATTACKS:
;

//---------------dance-single - ----------------
#NOTEDATA:;
#CHARTNAME:;
#STEPSTYPE:dance-single;
#DESCRIPTION:;
#CHARTSTYLE:;
#DIFFICULTY:Edit;
#METER:10;
#RADARVALUES:0.679151,0.845520,0.021271,0.021271,0.595586,447.000000,445.000000,2.000000,2.000000,0.000000,0.000000,0.000000,0.000000,0.000000,0.679151,0.845520,0.021271,0.021271,0.595586,447.000000,445.000000,2.000000,2.000000,0.000000,0.000000,0.000000,0.000000,0.000000;
#CREDIT:;
#NOTES:
0000
0000
0000
0000
,
0000
0000
0000
0000
,
0000
0000
0000
0000
,
0000
0000
0000
0000
,
0000
0000
0000
0000
,
0000
0000
0000
0000
,
0000
0000
0000
0000
,
0000
0000
0000
0000
,
0000
0000
0000
0000
0000
0000
1000
0001
,
1000
0100
0010
0000
0001
0000
0100
0000
0010
0000
1000
0000
0001
0000
0100
0000
,
0001
0010
0100
0000
1000
0000
0010
0000
0100
0000
0001
0000
1000
0000
0100
0000
,
1000
0010
1000
0000
0001
0000
0100
0000
0001
0010
0001
0000
1000
0000
0100
0000
,
1000
0001
0100
0000
0010
1000
0001
0000
0010
0001
1000
0000
0100
1000
0001
0000
,
1000
0010
0100
0000
0001
0000
1000
0000
0100
0000
0001
0000
0100
0000
1000
0000
,
0001
0100
0010
0000
1000
0000
0001
0000
0010
0000
1000
0000
0010
0000
0001
0000
,
0100
0010
0100
0000
0001
0000
1000
0000
0100
0010
0100
0000
1000
0000
0001
0000
,
1000
0001
0100
0000
0001
1000
0010
0000
0100
0001
1000
0000
0010
1000
0001
0000
,
1000
0100
0010
0100
0001
0100
0010
0001
,
1000
0010
0001
0010
1000
0001
0010
0100
,
1000
0010
1000
0010
0000
0100
0001
1000
0001
0010
0100
1000
0000
0001
1000
0001
,
0100
0010
0100
0010
0000
1000
0100
0010
0001
1000
0001
1000
0010
0100
0010
0100
,
0001
0010
0100
0010
1000
0010
0100
1000
,
0001
0100
1000
0100
0001
1000
0100
0010
,
0001
0100
0001
0100
0000
0010
1000
0001
1000
0100
0010
0001
0000
1000
0001
1000
,
0010
0100
0010
0100
0000
0001
0010
0100
1000
0001
1000
0001
0100
0010
0100
0010
,
1000
0100
0010
0010
0100
1000
0001
0100
,
0001
0010
0100
0100
0010
0001
1000
0010
,
1000
0001
1000
0000
0100
0000
0010
0001
0000
0001
1000
0000
0010
0000
0100
0000
,
0001
0010
0100
0000
1000
0010
0100
0000
0001
1000
0100
0000
0010
0001
1000
0000
,
0001
0100
0010
0010
0100
0001
1000
0100
,
1000
0010
0100
0100
0010
1000
0001
0010
,
0001
1000
0001
0000
0100
0000
0010
1000
0000
1000
0001
0000
0010
0000
0100
0000
,
1000
0010
0100
0000
0001
0010
0100
0000
1000
0001
0100
0000
0010
1000
0001
0000
,
1000
0010
0100
0010
0001
0010
0100
0001
,
1000
0100
0001
0100
1000
0001
0100
0010
,
1000
0100
1000
0100
0000
0010
0001
1000
0001
0100
0010
1000
0000
0001
1000
0001
,
0010
0100
0010
0100
0000
1000
0010
0100
0001
1000
0001
1000
0100
0010
0100
0010
,
0001
0100
0010
0100
1000
0100
0010
1000
,
0001
0010
1000
0010
0001
1000
0010
0100
,
0001
0010
0001
0010
0000
0100
1000
0001
1000
0010
0100
0001
0000
1000
0001
1000
,
0100
0010
0100
0010
0000
0001
0100
0010
1000
0001
1000
0001
0010
0100
0010
0100
,
1000
0000
0010
0000
0001
0000
0010
0000
1000
0000
0100
0000
0001
0000
0100
1000
,
0001
0000
0010
0000
1000
0000
0010
0000
0001
0000
0100
0000
1000
0000
0100
0001
,
1000
0000
0010
0000
1000
0000
0001
0100
0010
0000
1000
0000
0001
0000
0010
0100
,
1000
0000
0010
0000
0001
0000
0010
0000
1000
0100
1000
0100
0010
0001
0010
0001
,
1000
0010
0100
0100
0010
1000
0001
0010
,
0001
0100
0010
0010
0100
0001
1000
0100
,
1000
0001
1000
0000
0010
0000
0100
0001
0000
0001
1000
0000
0100
0000
0010
0000
,
0001
0100
0010
0000
1000
0100
0010
0000
0001
1000
0010
0000
0100
0001
1000
0000
,
0001
0010
0100
0100
0010
0001
1000
0010
,
1000
0100
0010
0010
0100
1000
0001
0100
,
0001
1000
0001
0000
0010
0000
0100
1000
0000
1000
0001
0000
0100
0000
0010
0000
,
1000
1001
0220
0000
,
0330
0000
0000
0000
;

//---------------dance-single - ----------------
#NOTEDATA:;
#CHARTNAME:;
#STEPSTYPE:dance-single;
#DESCRIPTION:;
#CHARTSTYLE:;
#DIFFICULTY:Challenge;
#METER:8;
#RADARVALUES:0.515061,0.563680,0.202074,0.042542,0.074448,339.000000,320.000000,19.000000,4.000000,0.000000,0.000000,0.000000,0.000000,0.000000,0.515061,0.563680,0.202074,0.042542,0.074448,339.000000,320.000000,19.000000,4.000000,0.000000,0.000000,0.000000,0.000000,0.000000;
#CREDIT:;
#NOTES:
0000
0000
0000
0000
,
0000
0000
0000
0000
,
0000
0000
0000
0000
,
0000
0000
0000
0000
,
0000
0000
0000
0000
,
0000
0000
0000
0000
,
0000
0000
0000
0000
,
0000
0000
0000
0000
,
0000
0000
0000
0000
,
1000
0010
0100
0010
1000
0010
0001
0010
,
0100
0001
1000
0100
0010
0001
1000
0000
,
0010
0100
0001
1000
0100
0000
0010
0001
,
1000
0000
0000
0000
1001
0000
0000
0000
0001
0100
0001
0000
1000
0010
1000
0000
,
0001
0100
0010
0100
0001
0100
1000
0100
,
0010
1000
0001
0010
0100
1000
0001
0000
,
0100
0010
1000
0001
0010
0000
0100
1000
,
0001
0000
0000
0000
1001
0000
0000
0000
1000
0010
1000
0000
0001
0100
0001
0000
,
1000
0010
0001
0010
1000
0001
1000
0000
,
0001
0010
0100
1000
0001
0000
1000
0000
,
1010
0000
0010
0100
0001
0000
1000
0100
,
0010
0001
0010
0100
1000
0000
0010
1000
,
0001
0010
0100
0010
1000
0010
0100
0010
,
0001
0100
0010
1000
0001
0000
1000
0100
,
0010
0000
0010
0001
1000
0010
0001
0010
,
1000
1100
0101
0011
,
1000
0001
0100
0001
1000
0100
0010
0001
,
0010
0100
1000
0001
1000
0010
1000
0001
,
0010
0100
1000
0000
0001
0000
1000
0000
0010
0000
0100
0000
0001
0000
1000
0000
,
0100
0000
0010
0000
0001
0000
1000
0000
0001
0100
0001
0000
1000
0010
1000
0000
,
0001
1000
0100
1000
0001
0100
0010
1000
,
0010
0100
0001
1000
0001
0010
0001
1000
,
0010
0100
0001
0000
1000
0000
0001
0000
0010
0000
0100
0000
1000
0000
0001
0000
,
0100
0000
0010
0000
1000
0000
0001
0000
1000
0100
1000
0000
0001
0010
0001
0000
,
1000
0100
0010
0100
0001
0100
0010
0100
,
1000
0010
0100
0001
1000
0000
0001
0000
,
1010
0000
0010
0100
0001
0000
1000
0100
,
0010
0001
0010
0100
1000
0000
0010
1000
,
0001
0010
0100
0010
1000
0010
0100
0010
,
0001
0100
0010
1000
0001
0000
1000
0100
,
0010
0000
0010
0001
1000
0010
0001
0010
,
1000
1100
0101
0011
,
1000
1100
0011
1001
,
1001
0000
0101
0000
1010
0000
0001
0010
,
0100
0010
0001
1000
0001
0100
0001
1000
,
0100
0011
1100
1001
,
0001
1000
0010
1000
0001
0010
0100
1000
,
0100
0010
0001
1000
0001
0100
0001
1000
,
0100
0010
0001
0000
1000
0000
0001
0000
0100
0000
0010
0000
1000
0000
0001
0000
,
0010
0000
0100
0000
1000
0000
0001
0000
1000
0010
1000
0000
0001
0100
0001
0000
,
1000
0001
0010
0001
1000
0010
0100
0001
,
0100
0010
1000
0001
1000
0100
1000
0001
,
0100
0010
1000
0000
0001
0000
1000
0000
0100
0000
0010
0000
0001
0000
1000
0000
,
0020
0230
0302
2000
,
3003
0000
0000
0000
;

//---------------dance-single - ----------------
#NOTEDATA:;
#CHARTNAME:;
#STEPSTYPE:dance-single;
#DESCRIPTION:;
#CHARTSTYLE:;
#DIFFICULTY:Hard;
#METER:7;
#RADARVALUES:0.422380,0.479128,0.297793,0.085084,0.005318,278.000000,250.000000,28.000000,8.000000,0.000000,0.000000,0.000000,0.000000,0.000000,0.422380,0.479128,0.297793,0.085084,0.005318,278.000000,250.000000,28.000000,8.000000,0.000000,0.000000,0.000000,0.000000,0.000000;
#CREDIT:;
#NOTES:
0000
0000
0000
0000
,
0000
0000
0000
0000
,
0000
0000
0000
0000
,
0000
0000
0000
0000
,
0000
0000
0000
0000
,
0000
0000
0000
0000
,
0000
0000
0000
0000
,
0000
0000
0000
0000
,
0000
0000
0000
0000
0000
0000
1000
0001
,
2000
0000
0000
3010
0100
0001
1000
0100
,
0010
0000
0001
1000
0001
0000
0000
0000
,
1000
0010
0001
0010
1000
0000
0001
0010
,
0100
0110
1001
0110
,
1000
0000
0001
0000
1000
0010
0100
0010
,
1000
0000
0001
0010
0100
0000
0000
0000
,
1000
0010
0001
0010
1000
0000
0001
0010
,
0100
0110
1001
0110
,
1000
0000
0000
0000
0001
0000
0000
1000
0001
0000
1000
0000
0010
0000
0000
0000
,
1000
0100
0010
0001
1000
0000
0000
0000
,
0202
0303
2020
3030
,
0001
0010
0100
1000
0001
0000
1000
0001
,
1000
0000
0010
0100
0001
1000
0100
0010
,
0001
0100
1000
0100
0001
0000
1000
0100
,
0010
0000
0001
0100
0010
0100
0001
1000
,
0001
1001
0110
1001
,
1000
0000
0001
1000
0100
1000
0001
1000
,
0010
0000
0100
0001
1000
0000
0001
0000
,
1000
0100
0001
0100
1000
0000
0010
0100
,
0001
0000
1001
0000
0110
0000
1000
0001
,
1000
0000
0010
0000
0100
0001
1000
0100
,
0010
0000
0001
1000
0010
0000
0100
0000
,
0001
0010
1000
0010
0001
0000
0100
0010
,
1000
1001
0110
1001
,
1000
0000
0110
0000
0001
1000
0010
1000
,
0001
0010
0100
1000
0001
0000
1000
0000
,
0010
0100
0001
1000
0100
0000
0010
0001
,
1000
0010
0100
0001
1000
0000
0001
1000
,
0001
0000
0110
0000
1000
0001
0010
0001
,
1000
0100
0010
0001
1000
0000
0010
0100
,
0001
1000
0100
0010
0001
0010
0100
1000
,
0001
1001
0110
1001
,
1000
1100
0001
0101
,
1000
0000
1010
0000
0001
0000
1000
0001
,
1000
0000
0110
0000
0001
1000
0100
0000
,
0010
0001
1000
0000
1001
0000
0000
0000
,
0001
0000
1000
0001
0010
0001
1000
0001
,
0100
0000
0010
1000
0001
0000
1000
0000
,
0001
0010
1000
0010
0001
0000
0100
0010
,
1000
0000
1001
0000
0110
0000
0001
1000
,
0001
0000
0100
0000
0010
1000
0001
0010
,
0100
0000
1000
0001
0100
0000
0010
0000
,
1000
0100
0001
0100
1000
0000
0010
0100
,
0001
2000
3002
2000
,
3003
0000
0000
0000
;

//---------------dance-single - ----------------
#NOTEDATA:;
#CHARTNAME:;
#STEPSTYPE:dance-single;
#DESCRIPTION:;
#CHARTSTYLE:;
#DIFFICULTY:Medium;
#METER:5;
#RADARVALUES:0.350970,0.450944,0.233980,0.031906,0.000000,231.000000,209.000000,22.000000,3.000000,0.000000,0.000000,0.000000,0.000000,0.000000,0.350970,0.450944,0.233980,0.031906,0.000000,231.000000,209.000000,22.000000,3.000000,0.000000,0.000000,0.000000,0.000000,0.000000;
#CREDIT:;
#NOTES:
0000
0000
0000
0000
,
0000
0000
0000
0000
,
0000
0000
0000
0000
,
0000
0000
0000
0000
,
0000
0000
0000
0000
,
0000
0000
0000
0000
,
0000
0000
0000
0000
,
0000
0000
0000
0000
,
0000
0000
0000
0000
,
1000
0000
0010
0000
1000
0001
1000
0000
,
0001
0000
0010
0000
0001
1000
0001
0000
,
1000
0100
0010
0001
,
1000
0001
1001
1001
,
1000
0000
0100
0000
1000
0001
1000
0000
,
0001
0000
0100
0000
0001
1000
0001
0000
,
1000
0010
0100
0001
,
1000
0001
1001
1001
,
1000
1000
0100
0100
,
0010
0010
0001
0001
,
1000
0100
0010
0100
1000
0000
1001
0000
,
0001
0010
0100
0010
0001
0000
1001
0000
,
1000
1000
0010
0010
,
0100
0100
0001
0001
,
1000
0010
0100
0010
1000
0000
1001
0000
,
0001
0100
0010
0100
0001
0000
1001
0000
,
1000
0000
0100
0000
1000
0001
1000
0000
,
0001
0000
0100
0000
0001
1000
0001
0000
,
1000
0010
0100
0001
,
1000
0001
1001
1001
,
1000
0000
0010
0000
1000
0001
1000
0000
,
0001
0000
0010
0000
0001
1000
0001
0000
,
1000
0100
0010
0001
,
1000
0001
1001
1001
,
1000
1000
0010
0010
,
0100
0100
0001
0001
,
1000
0010
0100
0010
1000
0000
1001
0000
,
0001
0100
0010
0100
0001
0000
1001
0000
,
1000
1000
0100
0100
,
0010
0010
0001
0001
,
1000
0100
0010
0100
1000
0000
1001
0000
,
0001
0010
0100
0010
0001
0000
1001
0000
,
1000
0100
0010
0000
0001
0010
0100
0000
,
1001
1001
0110
1001
,
1000
0001
0100
0000
0001
1000
0010
0000
,
1000
0100
0010
0000
0001
0010
0100
0000
,
1000
0000
0010
0000
1000
0001
1000
0000
,
0001
0000
0010
0000
0001
1000
0001
0000
,
1000
0100
0010
0001
,
1000
0001
1001
1001
,
1000
0000
0100
0000
1000
0001
1000
0000
,
0001
0000
0100
0000
0001
1000
0001
0000
,
1000
0010
0100
0001
,
2000
3002
2003
0000
,
3000
0000
0000
0000
;

//---------------dance-single - ----------------
#NOTEDATA:;
#CHARTNAME:;
#STEPSTYPE:dance-single;
#DESCRIPTION:;
#CHARTSTYLE:;
#DIFFICULTY:Easy;
#METER:3;
#RADARVALUES:0.238538,0.281840,0.148897,0.063813,0.000000,157.000000,143.000000,14.000000,6.000000,0.000000,0.000000,0.000000,0.000000,0.000000,0.238538,0.281840,0.148897,0.063813,0.000000,157.000000,143.000000,14.000000,6.000000,0.000000,0.000000,0.000000,0.000000,0.000000;
#CREDIT:;
#NOTES:
0000
0000
0000
0000
,
0000
0000
0000
0000
,
0000
0000
0000
0000
,
0000
0000
0000
0000
,
0000
0000
0000
0000
,
0000
0000
0000
0000
,
0000
0000
0000
0000
,
0000
0000
0000
0000
,
0000
0000
0000
0000
,
1000
0001
1000
0001
,
0100
0010
0100
0000
,
0001
1000
1001
0000
,
1000
0001
1001
0000
,
0001
1000
0001
1000
,
0010
0100
0010
0000
,
1000
0001
1001
0000
,
0001
1000
1001
0000
,
1000
0100
0010
0001
,
0010
0100
1000
0000
,
0020
0000
0230
0000
,
0301
1000
0001
0000
,
1000
0100
0010
0001
,
0010
0100
1000
0000
,
0010
0010
0100
0100
,
0001
1000
0001
0000
,
1000
0001
1000
0001
,
0100
0010
0100
0000
,
0001
1000
1001
0000
,
1000
0001
1001
0000
,
0001
1000
0001
1000
,
0010
0100
0010
0000
,
1000
0001
1001
0000
,
0001
1000
1001
0000
,
1000
0100
0010
0001
,
0010
0100
1000
0000
,
0020
0000
0230
0000
,
0301
1000
0001
0000
,
1000
0100
0010
0001
,
0010
0100
1000
0010
,
0100
0001
1000
0100
,
0010
0001
1000
0000
,
0001
0001
1000
1000
,
0010
0010
0100
0100
,
0001
1000
1001
0000
,
1000
0001
1001
0000
,
1000
0001
1000
0001
,
0100
0010
0100
0000
,
0001
1000
1001
0000
,
1000
0001
1001
0000
,
0001
1000
0001
1000
,
0010
0100
0010
0000
,
1000
0001
1001
0000
,
0220
0000
0000
0000
,
0330
0000
0000
0000
;

//---------------dance-single - ----------------
#NOTEDATA:;
#CHARTNAME:;
#STEPSTYPE:dance-single;
#DESCRIPTION:;
#CHARTSTYLE:;
#DIFFICULTY:Beginner;
#METER:2;
#RADARVALUES:0.238538,0.281840,0.148897,0.063813,0.000000,157.000000,143.000000,14.000000,6.000000,0.000000,0.000000,0.000000,0.000000,0.000000,0.238538,0.281840,0.148897,0.063813,0.000000,157.000000,143.000000,14.000000,6.000000,0.000000,0.000000,0.000000,0.000000,0.000000;
#CREDIT:;
#NOTES:
// measure 0
0000
0000
0000
0000
,  // measure 1
0000
0000
0000
0000
,  // measure 2
0000
0000
0000
0000
,  // measure 3
0000
0000
0000
0000
,  // measure 4
0000
0000
0000
0000
,  // measure 5
0000
0000
0000
0000
,  // measure 6
0000
0000
0000
0000
,  // measure 7
0000
0000
0000
0000
,  // measure 8
0000
0000
0000
0000
,  // measure 9
1000
0001
1000
0001
,  // measure 10
1000
0001
1000
0000
,  // measure 11
0001
1000
1001
0000
,  // measure 12
1000
0001
1001
0000
,  // measure 13
0001
1000
0001
1000
,  // measure 14
0001
1000
0001
0000
,  // measure 15
1000
0001
1001
0000
,  // measure 16
0001
1000
1001
0000
,  // measure 17
1000
1000
0001
0001
,  // measure 18
0001
1000
1000
0000
,  // measure 19
0002
0000
2003
0000
,  // measure 20
3001
1000
0001
0000
,  // measure 21
1000
1000
0001
0001
,  // measure 22
0001
1000
1000
0000
,  // measure 23
0001
0001
1000
1000
,  // measure 24
0001
1000
0001
0000
,  // measure 25
1000
0001
1000
0001
,  // measure 26
1000
0001
1000
0000
,  // measure 27
0001
1000
1001
0000
,  // measure 28
1000
0001
1001
0000
,  // measure 29
0001
1000
0001
1000
,  // measure 30
0001
1000
0001
0000
,  // measure 31
1000
0001
1001
0000
,  // measure 32
0001
1000
1001
0000
,  // measure 33
1000
1000
0001
0001
,  // measure 34
0001
1000
1000
0000
,  // measure 35
0002
0000
2003
0000
,  // measure 36
3001
1000
0001
0000
,  // measure 37
1000
1000
0001
0001
,  // measure 38
0001
1000
1000
0001
,  // measure 39
1000
0001
1000
1000
,  // measure 40
0001
0001
1000
0000
,  // measure 41
0001
0001
1000
1000
,  // measure 42
0001
0001
1000
1000
,  // measure 43
0001
1000
1001
0000
,  // measure 44
1000
0001
1001
0000
,  // measure 45
1000
0001
1000
0001
,  // measure 46
1000
0001
1000
0000
,  // measure 47
0001
1000
1001
0000
,  // measure 48
1000
0001
1001
0000
,  // measure 49
0001
1000
0001
1000
,  // measure 50
0001
1000
0001
0000
,  // measure 51
1000
0001
1001
0000
,  // measure 52
2002
0000
0000
0000
,  // measure 53
3003
0000
0000
0000
;
