#TITLE:MAGIC & LOVE;
#SUBTITLE:;
#ARTIST:DJ Genki feat. Yukacco;
#TITLETRANSLIT:;
#SUBTITLETRANSLIT:;
#ARTISTTRANSLIT:;
#GENRE:;
#CREDIT:BadWolf;
#BANNER:MAGIC & LOVE.png;
#BACKGROUND:MAGIC & LOVE-bg.png;
#LYRICSPATH:;
#CDTITLE:cdtitle.png;
#MUSIC:MAGIC & LOVE.ogg;
#OFFSET:0.000000;
#SAMPLESTART:64.689507;
#SAMPLELENGTH:10.540543;
#SELECTABLE:YES;
#BPMS:0.000000=185.000000
;
#STOPS:
;
#KEYSOUNDS:;
#ATTACKS:;

//---------------dance-single - ----------------
#NOTES:
     dance-single:
     :
     Hard:
     14:
     0.745329,0.816411,0.465517,0.017567,0.298633,594.000000,541.000000,53.000000,2.000000,0.000000,0.000000,0.745329,0.816411,0.465517,0.017567,0.298633,594.000000,541.000000,53.000000,2.000000,0.000000,0.000000:
0000
0000
0000
0000
,
0000
0000
0000
0000
,
0000
0000
0000
0000
,
0000
0000
0000
0000
,
0000
0000
0000
0000
,
0000
0000
0000
0000
,
0000
0000
0000
0000
,
0000
0000
0000
0000
,
0001
0000
0000
0000
0101
0000
0000
0000
1100
0000
0000
0000
1000
0001
1000
0001
,
1000
0000
0010
0000
0100
0000
0001
0000
1000
0000
0000
0010
0000
0000
0001
0000
,
0010
0000
1000
0000
0001
0000
0010
0000
0100
0000
0000
1000
0000
0000
0001
1000
,
0001
0000
0100
0000
0010
0000
1000
0000
0001
0000
0000
0100
0000
0000
1000
0000
,
0100
0000
0001
0000
1000
0000
0001
0000
1000
0100
1000
0100
0010
0001
0010
0001
,
1000
0000
0010
0000
0001
0000
0010
0000
1000
0000
0000
0001
0000
0000
0100
0000
,
0010
0000
1000
0000
0001
0000
0010
0000
0100
0000
0000
1000
0001
1000
0001
1000
,
0001
0000
1000
1010
0000
0001
0010
0100
,
1000
0000
0001
0101
0000
1000
0100
0010
,
0001
0101
1100
1001
,
1000
0010
0100
0010
1000
0001
0010
0000
,
0001
0100
1000
0000
1000
0100
0001
0000
,
1000
0100
0010
0100
0001
0100
0010
0000
,
0001
1000
0010
0000
1000
1001
0000
0110
,
0000
0001
1000
0000
0001
0010
0100
0000
,
1000
0010
0001
0000
0010
1000
0001
1001
,
0000
1000
0001
0000
1000
0100
0000
0101
,
0000
0000
0001
0000
0000
0000
1001
0000
0000
0000
1000
0000
0001
1000
0001
1000
,
0001
0010
0100
0010
0001
1000
0010
0000
,
1000
0100
0001
0000
0001
0100
1000
0000
,
0001
0100
0010
0100
1000
0100
0010
0000
,
1000
0001
0010
0000
0001
1001
0000
0110
,
0000
1000
0001
0000
1000
0001
0100
0000
,
0010
0000
1000
0000
0001
0000
0010
0000
0100
0000
1000
0000
0001
1000
0001
1000
,
0001
0000
0101
0000
1000
0001
1001
0000
,
0010
0000
0100
0000
0010
0000
0110
0000
0000
0000
1000
0000
0001
0000
1000
0001
,
1000
0000
0001
0010
0100
0000
1010
0000
,
1001
0000
1000
0100
0001
0100
1000
0000
,
1001
0000
0001
0100
0010
0000
1100
0000
,
1001
0000
1000
0010
0001
0010
1000
0000
,
1001
0000
1000
0100
0010
0000
0101
0000
,
1001
0000
0000
0000
0001
0000
0010
0000
1000
0000
0010
0000
0001
1000
0001
1000
,
0001
0000
0101
0000
1000
0100
0000
0110
,
0000
0010
0001
0000
1000
0001
0000
1001
,
0000
1000
0010
0001
0010
0100
0010
1000
,
0000
0000
0001
0010
0100
0000
1000
0000
0000
0000
0001
0000
1000
0000
1001
0000
,
0001
0100
0010
0100
1000
0100
0010
0100
,
0001
0010
0100
0010
1000
0010
0100
0010
,
0001
0100
0001
0000
0100
0000
0010
0000
1000
0100
1000
0000
0100
0000
0010
0000
,
0001
1000
0001
0000
0100
0000
0010
0000
1000
0000
0001
0000
1000
0001
1000
0001
,
1000
0000
0000
0000
1100
0000
0000
0000
0101
0000
0000
0000
0001
1000
0001
1000
,
0001
0000
0010
0100
1000
0001
0000
1001
,
0000
1000
0010
0000
1000
0001
0000
0101
,
0000
0100
0010
1000
0001
0010
0100
0000
,
1000
0000
1010
0000
0010
0100
0001
1000
,
0001
0000
1000
0100
1000
0000
0001
0000
0000
0000
1000
0000
0001
1000
0001
1000
,
0001
0000
0101
0000
0100
0010
1000
0001
,
0010
0000
0100
0000
1000
0000
0001
0000
0100
0000
0010
0000
1000
0001
1000
0001
,
1000
0000
1100
0000
0001
0100
0000
0110
,
0000
0000
1000
0000
0100
0000
0010
0000
0001
0000
1000
0000
0001
0000
1000
0001
,
1000
0000
1010
0000
0001
0100
0000
0110
,
0000
0010
0100
0001
1000
0100
0010
0001
,
1000
0000
1010
0000
0010
0100
0001
1000
,
1001
0000
0000
0000
0000
0000
0110
0000
0000
0000
0001
0000
1000
0001
1000
0001
,
1000
0000
1010
0000
0010
0100
0001
1000
,
0100
0000
0010
0000
0001
0000
1000
0000
0010
0000
0100
0000
0001
1000
0001
1000
,
0001
0000
0011
0000
1000
0010
0000
0110
,
0000
0000
0001
0000
0010
0000
0100
0000
1000
0000
0001
0000
1000
0001
1000
0001
,
1000
0000
0100
0000
0010
0000
0001
0000
1000
0001
1000
0000
0001
1000
0001
1000
,
0001
0000
0100
0000
0010
0000
1000
0000
0001
0000
0000
0100
0000
0000
1000
0000
,
0100
0000
0001
0000
1000
0000
0100
0000
0010
0000
0000
0001
0000
0000
1000
0001
,
1000
0000
0010
0000
0100
0000
0001
0000
1000
0000
0000
0010
0000
0000
0001
0000
,
0010
0000
1000
0000
0001
0000
1000
0000
0001
0010
0001
0010
0100
1000
0100
1000
,
0001
0000
0100
0000
1000
0000
0100
0000
0001
0000
0000
1000
0000
0000
0010
0000
,
0100
0000
0001
0000
1000
0000
0100
0000
0010
0000
0000
0001
1000
0001
1000
0001
,
1000
0000
0001
0101
0000
1000
0100
0010
,
0001
0000
1000
1010
0000
0001
0010
0100
,
1000
0000
0010
0000
0100
0000
0001
0000
1000
0000
0000
0010
0000
0000
0001
0000
,
0010
0000
1000
0000
0001
0000
0010
0000
0100
0000
0000
1000
0000
0000
0001
1000
,
0001
0000
0100
0000
0010
0000
1000
0000
0001
0000
0000
0100
0000
0000
1000
0000
,
0100
0000
0001
0000
1000
0000
0001
0000
1000
0100
1000
0100
0010
0001
0010
0001
,
1000
0000
0010
0000
0001
0000
0010
0000
1000
0000
0000
0001
0000
0000
0100
0000
,
0010
0000
1000
0000
0001
0000
0010
0000
0100
0000
0000
1000
0001
1000
0001
1000
,
0001
0000
1000
1010
0000
0001
0010
0100
,
1000
0000
0001
0101
0000
1000
0100
0010
,
0001
0000
0101
0101
0000
1100
0000
2002
,
0000
0000
3003
0000
;

//---------------dance-single - ----------------
#NOTES:
     dance-single:
     :
     Easy:
     3:
     0.122967,0.257846,0.000000,0.035133,0.000000,98.000000,98.000000,0.000000,4.000000,0.000000,0.000000,0.122967,0.257846,0.000000,0.035133,0.000000,98.000000,98.000000,0.000000,4.000000,0.000000,0.000000:
0000
0000
0000
0000
,
0000
0000
0000
0000
,
0000
0000
0000
0000
,
0000
0000
0000
0000
,
0000
0000
0000
0000
,
0000
0000
0000
0000
,
0000
0000
0000
0000
,
0000
0000
0000
0000
,
0001
0001
0001
0000
,
1000
0000
0000
0000
,
0001
0000
0000
0000
,
1000
0000
0001
0000
,
1000
0000
0000
0000
,
0010
0000
0000
0000
,
0100
0000
0000
0000
,
0010
0000
0100
0000
,
0010
0000
0000
0000
,
2000
0000
3000
0000
,
0001
0000
0000
0000
,
0100
0000
0000
0000
,
0010
0000
0000
0000
,
1000
0000
0000
0000
,
0001
0000
0000
0000
,
0010
0000
0000
0000
,
0100
0000
0000
0000
,
1000
0000
0000
0000
,
0010
0000
0000
0000
,
0100
0000
0000
0000
,
0001
0000
0000
0000
,
1000
0000
0000
0000
,
0100
0000
0000
0000
,
0010
0000
0000
0000
,
0001
0001
0001
0000
,
1000
1000
1000
0000
,
0001
0000
0000
0000
,
1000
0000
0000
0000
,
0001
0000
0000
0000
,
1000
0000
0000
0000
,
0010
0000
0000
0000
,
0100
0000
0000
0000
,
0010
0010
0010
0000
,
0100
0100
0100
0000
,
0001
0000
0000
0000
,
1000
0000
0000
0000
,
0002
0000
0000
0000
,
0003
0000
0000
0000
,
2000
0000
0000
0000
,
3000
0000
0000
0000
,
0001
0001
0001
0000
,
1000
0000
0000
0000
,
0010
0000
0000
0000
,
0100
0000
0000
0000
,
0010
0000
0100
0000
,
0010
0000
0000
0000
,
1000
0000
0000
0000
,
0001
0000
0000
0000
,
1000
0000
0001
0000
,
1000
0000
0000
0000
,
0100
0000
0000
0000
,
0010
0000
0000
0000
,
0100
0000
0010
0000
,
0100
0000
0000
0000
,
1000
0000
0000
0000
,
0001
0000
0000
0000
,
1000
0000
0001
0000
,
1000
0000
0000
0000
,
0001
0001
0001
0000
,
1000
0000
0000
0000
,
0001
0000
0000
0000
,
1000
0000
0001
0000
,
1000
0000
0000
0000
,
0010
0000
0000
0000
,
0100
0000
0000
0000
,
0010
0000
0100
0000
,
0010
0000
0000
0000
,
1000
0000
0000
0000
,
0001
0000
0000
0000
,
1000
0000
0001
0000
,
1000
0000
0000
0000
,
0100
0000
0000
0000
,
0010
0000
0000
0000
,
0100
0000
0010
0000
,
0100
0000
0000
0000
,
2000
0000
0000
0000
0000
0000
0000
3000
;

//---------------dance-single - ----------------
#NOTES:
     dance-single:
     :
     Beginner:
     1:
     0.122967,0.257846,0.000000,0.035133,0.000000,98.000000,98.000000,0.000000,4.000000,0.000000,0.000000,0.122967,0.257846,0.000000,0.035133,0.000000,98.000000,98.000000,0.000000,4.000000,0.000000,0.000000:
// measure 0
0000
0000
0000
0000
,  // measure 1
0000
0000
0000
0000
,  // measure 2
0000
0000
0000
0000
,  // measure 3
0000
0000
0000
0000
,  // measure 4
0000
0000
0000
0000
,  // measure 5
0000
0000
0000
0000
,  // measure 6
0000
0000
0000
0000
,  // measure 7
0000
0000
0000
0000
,  // measure 8
0001
0001
0001
0000
,  // measure 9
1000
0000
0000
0000
,  // measure 10
0001
0000
0000
0000
,  // measure 11
1000
0000
0001
0000
,  // measure 12
1000
0000
0000
0000
,  // measure 13
0001
0000
0000
0000
,  // measure 14
1000
0000
0000
0000
,  // measure 15
0001
0000
1000
0000
,  // measure 16
0001
0000
0000
0000
,  // measure 17
2000
0000
3000
0000
,  // measure 18
0001
0000
0000
0000
,  // measure 19
1000
0000
0000
0000
,  // measure 20
0001
0000
0000
0000
,  // measure 21
1000
0000
0000
0000
,  // measure 22
0001
0000
0000
0000
,  // measure 23
0001
0000
0000
0000
,  // measure 24
1000
0000
0000
0000
,  // measure 25
1000
0000
0000
0000
,  // measure 26
0001
0000
0000
0000
,  // measure 27
1000
0000
0000
0000
,  // measure 28
0001
0000
0000
0000
,  // measure 29
1000
0000
0000
0000
,  // measure 30
1000
0000
0000
0000
,  // measure 31
0001
0000
0000
0000
,  // measure 32
0001
0001
0001
0000
,  // measure 33
1000
1000
1000
0000
,  // measure 34
0001
0000
0000
0000
,  // measure 35
1000
0000
0000
0000
,  // measure 36
0001
0000
0000
0000
,  // measure 37
1000
0000
0000
0000
,  // measure 38
0001
0000
0000
0000
,  // measure 39
1000
0000
0000
0000
,  // measure 40
0001
0001
0001
0000
,  // measure 41
1000
1000
1000
0000
,  // measure 42
0001
0000
0000
0000
,  // measure 43
1000
0000
0000
0000
,  // measure 44
0002
0000
0000
0000
,  // measure 45
0003
0000
0000
0000
,  // measure 46
2000
0000
0000
0000
,  // measure 47
3000
0000
0000
0000
,  // measure 48
0001
0001
0001
0000
,  // measure 49
1000
0000
0000
0000
,  // measure 50
0001
0000
0000
0000
,  // measure 51
1000
0000
0000
0000
,  // measure 52
0001
0000
1000
0000
,  // measure 53
0001
0000
0000
0000
,  // measure 54
1000
0000
0000
0000
,  // measure 55
0001
0000
0000
0000
,  // measure 56
1000
0000
0001
0000
,  // measure 57
1000
0000
0000
0000
,  // measure 58
1000
0000
0000
0000
,  // measure 59
0001
0000
0000
0000
,  // measure 60
1000
0000
0001
0000
,  // measure 61
1000
0000
0000
0000
,  // measure 62
1000
0000
0000
0000
,  // measure 63
0001
0000
0000
0000
,  // measure 64
1000
0000
0001
0000
,  // measure 65
1000
0000
0000
0000
,  // measure 66
0001
0001
0001
0000
,  // measure 67
1000
0000
0000
0000
,  // measure 68
0001
0000
0000
0000
,  // measure 69
1000
0000
0001
0000
,  // measure 70
1000
0000
0000
0000
,  // measure 71
0001
0000
0000
0000
,  // measure 72
1000
0000
0000
0000
,  // measure 73
0001
0000
1000
0000
,  // measure 74
0001
0000
0000
0000
,  // measure 75
1000
0000
0000
0000
,  // measure 76
0001
0000
0000
0000
,  // measure 77
1000
0000
0001
0000
,  // measure 78
1000
0000
0000
0000
,  // measure 79
1000
0000
0000
0000
,  // measure 80
0001
0000
0000
0000
,  // measure 81
1000
0000
0001
0000
,  // measure 82
1000
0000
0000
0000
,  // measure 83
2000
0000
0000
0000
0000
0000
0000
3000
;
