#TITLE:ルパン三世のテーマ'78;
#SUBTITLE:;
#ARTIST:♪♪♪♪♪;
#TITLETRANSLIT:Lupin sansei no theme '78;
#SUBTITLETRANSLIT:;
#ARTISTTRANSLIT:;
#CREDIT:BadWolf;
#BANNER:Lupin sansei no theme '78.png;
#BACKGROUND:Lupin sansei no theme '78-bg.png;
#LYRICSPATH:;
#CDTITLE:cdtitle.png;
#MUSIC:Lupin sansei no theme '78.ogg;
#MUSICLENGTH:84.338;
#OFFSET:0.000;
#SAMPLESTART:14.895;
#SAMPLELENGTH:15.549;
#SELECTABLE:YES;
#BPMS:0.000=132.000,3.000=145.000,8.000=134.000,9.500=140.700,10.500=152.400,12.000=137.500,16.000=141.300,28.000=133.000,32.000=131.000,36.000=139.800,60.000=141.000,64.000=134.500,68.000=137.000,72.000=139.800,88.000=137.500,101.500=135.800,104.000=136.000,132.000=132.700,136.000=132.500,140.000=137.900,156.000=136.300,168.000=135.000,176.000=136.000,184.000=133.000;
#STOPS:;
#BGCHANGES:;

//---------------dance-single - Hard----------------
#NOTES:
     dance-single:
     Hard:
     challenge:
     8:
     0.571,0.591,0.130,0.142,0.539:
0000
0000
0000
0000
,
0000
0000
0000
0000
,
1000
0100
0000
0100
0010
0000
0010
0001
0000
0001
2000
0000
0000
0000
0000
0000
,
3010
0000
0000
0000
0000
0000
1000
0000
0001
0000
0000
0010
0100
0000
1000
0000
,
0001
1000
0000
0000
0000
0000
1000
0001
0000
0000
0000
0000
0000
0000
0000
0000
,
0100
0010
0000
0000
0000
0000
0010
0100
0000
0000
0000
0000
0000
0000
0000
0000
,
0001
1000
0000
0000
0000
0000
1000
0001
0000
0000
0000
0000
1000
0000
0001
0000
,
2002
0000
0000
0000
0000
0000
3003
0000
1000
0010
0000
0100
0000
0001
1000
0000
,
1001
0000
0000
0000
0001
0000
0000
0010
0100
0000
1000
0000
1001
0000
0000
0000
,
1000
0000
0000
0010
0000
0000
1000
0000
0000
0000
0001
0000
0000
0010
0000
0000
,
0100
0000
0000
1000
0000
0000
0001
0000
0000
0000
1000
0000
0010
1000
0000
0001
,
1000
0000
0000
0100
0000
0000
0010
0000
0000
0000
0001
0000
0100
0001
0000
1000
,
0100
0000
0000
0010
0000
0000
0001
0000
0000
0000
1000
0000
0010
0100
0000
0001
,
1000
0000
0000
0100
0000
0000
0010
0000
0000
0000
0001
0000
0000
0000
1000
0000
,
0001
0000
0000
0100
0000
0000
0010
0000
0000
0000
0000
0000
1000
0000
0001
0000
,
1000
0001
0000
0000
1000
0000
0000
0000
0001
0000
0010
0000
0000
0000
0100
0000
,
1000
0001
1000
0000
0000
0000
0000
0000
0010
0100
0000
0000
0100
0010
0000
0000
,
1000
0001
1000
0001
0000
1000
0000
0001
1000
0000
0000
0000
1001
0000
0000
0000
,
0001
0000
0000
0100
0000
0000
0001
0000
0000
0000
1000
0000
0000
0100
0000
0000
,
0010
0000
0000
0001
0000
0000
1000
0000
0000
0000
0001
0000
0100
0001
0000
1000
,
0001
0000
0000
0010
0000
0000
0100
0000
0000
0000
1000
0000
0010
1000
0000
0001
,
0010
0000
0000
0100
0000
0000
1000
0000
0000
0000
0001
0000
0100
0010
0000
1000
,
0010
0000
0100
0000
0001
1000
0001
1000
0001
0000
1000
0000
0100
0000
0001
0000
,
0100
0000
0000
1000
0000
0000
2002
0000
0000
0000
3003
0000
0001
0000
1000
0000
,
0020
0000
0000
0000
1030
0000
0000
0100
0010
0000
0001
0000
1000
0000
0000
0000
,
1001
0000
0000
0110
0000
0000
2002
0000
3003
0000
0000
1000
0001
0000
0000
0000
,
1000
0000
0001
0000
0100
0001
0000
0100
0010
0000
1000
0000
0100
0000
0010
0000
,
0001
0000
1000
0001
1000
0001
0000
0100
0010
0000
1000
0000
0001
0000
0010
0000
,
0100
0000
1000
0000
0010
0100
0010
0100
0010
0000
1000
0000
0100
0000
0010
0000
,
0100
0000
1000
0001
1000
0001
0000
0100
0010
0000
1000
0000
0100
0000
0010
0000
,
0001
0100
0010
1000
0000
0001
0010
0100
,
1000
0010
0100
0001
0000
1000
0100
0010
,
0200
0000
0000
1300
0010
0001
0010
1000
,
0001
1000
0000
0000
0000
0000
1000
0001
0000
0000
0000
0000
1000
0001
1000
0001
,
1000
0000
0000
0000
1001
0000
0000
0000
0001
0000
0000
0001
0100
0000
0010
0000
,
1000
0000
0000
0100
0000
0000
1000
0000
0000
0000
0001
0000
0000
0100
0000
0000
,
0010
0000
0000
1000
0000
0000
0001
0000
0000
0000
1000
0000
0100
1000
0000
0001
,
1000
0000
0000
0010
0000
0000
0100
0000
0000
0000
0001
0000
0010
0001
0000
1000
,
0010
0000
0000
0100
0000
0000
0001
0000
0000
0000
1000
0000
0100
0010
0000
0001
,
0010
0000
0100
0000
1000
0001
1000
0001
1000
0000
0001
0000
0100
0000
1000
0000
,
0100
0000
0000
0001
0000
0000
2002
0000
0000
0000
3003
0000
1000
0000
0001
0000
,
0020
0000
0000
0000
0031
0000
0000
0100
0010
0000
1000
0000
0001
0000
0000
0000
,
1000
0100
0010
0100
0001
0100
0010
0001
,
1000
0000
0010
0000
0001
0000
0000
0000
0010
1000
0001
0000
0010
0000
0100
0000
,
1000
0010
0001
0010
0100
0001
1000
0100
,
0010
0000
0001
0000
1000
0000
0010
0100
0010
0100
0001
0000
1000
0000
0001
0000
,
0010
0100
1000
0000
0000
0000
0000
0000
0010
0100
0000
0000
0100
0010
0000
0000
,
0000
0000
1000
0000
0001
1000
0000
1001
0000
0000
0000
0000
0000
0000
0000
0000
;

//---------------dance-single - Beginner----------------
#NOTES:
     dance-single:
     Beginner:
     hard:
     2:
     0.137,0.169,0.047,0.119,0.000:
0000
0000
0000
0000
,
0000
0000
0000
0000
,
0000
0000
0000
0000
,
0000
0000
0000
0000
,
1000
0000
0000
0000
,
0001
0000
0000
0000
,
1000
0000
0000
0000
,
0002
0000
0003
0000
,
1001
0000
0000
0000
,
1000
0000
1000
0000
,
1000
0000
1000
0000
,
0001
0000
0001
0000
,
0001
0000
0001
0000
,
0100
0000
0100
0000
,
0100
0000
0100
0000
,
0010
0000
0010
0000
,
1000
0000
0000
0000
,
0001
0000
0000
0000
,
1000
0000
1000
0000
,
0001
0000
0001
0000
,
0100
0000
0100
0000
,
0010
0000
0010
0000
,
1000
0000
1000
0000
,
0001
0000
0001
0000
,
0020
0000
0030
0000
,
0100
0000
0000
0000
,
2000
0000
3000
0000
,
0002
0000
0003
0000
,
0200
0000
0300
0000
,
0020
0000
0030
0000
,
2000
0000
3000
0000
,
0002
0000
0003
0000
,
0020
0000
0030
0000
,
0100
0000
0000
0000
,
1001
0000
0000
0000
,
1000
0000
1000
0000
,
1000
0000
1000
0000
,
0001
0000
0001
0000
,
0001
0000
0001
0000
,
0010
0000
0010
0000
,
0010
0000
0010
0000
,
0200
0000
0300
0000
,
1000
0000
0000
0000
,
0001
0000
1000
0000
,
0001
0000
0000
0000
,
1000
0000
0001
0000
,
1001
0000
0110
0000
,
0000
1000
0001
0000
;

//---------------dance-single - Copied from Beginner----------------
#NOTES:
     dance-single:
     Copied from Beginner:
     medium:
     1:
     0.137,0.169,0.047,0.119,0.000: // measure 1
0000
0000
0000
0000
,  // measure 2
0000
0000
0000
0000
,  // measure 3
0000
0000
0000
0000
,  // measure 4
0000
0000
0000
0000
,  // measure 5
1000
0000
0000
0000
,  // measure 6
0001
0000
0000
0000
,  // measure 7
1000
0000
0000
0000
,  // measure 8
0002
0000
0003
0000
,  // measure 9
1001
0000
0000
0000
,  // measure 10
1000
0000
1000
0000
,  // measure 11
1000
0000
1000
0000
,  // measure 12
0001
0000
0001
0000
,  // measure 13
0001
0000
0001
0000
,  // measure 14
1000
0000
1000
0000
,  // measure 15
1000
0000
1000
0000
,  // measure 16
0001
0000
0001
0000
,  // measure 17
1000
0000
0000
0000
,  // measure 18
0001
0000
0000
0000
,  // measure 19
1000
0000
1000
0000
,  // measure 20
0001
0000
0001
0000
,  // measure 21
1000
0000
1000
0000
,  // measure 22
0001
0000
0001
0000
,  // measure 23
1000
0000
1000
0000
,  // measure 24
0001
0000
0001
0000
,  // measure 25
0002
0000
0003
0000
,  // measure 26
1000
0000
0000
0000
,  // measure 27
2000
0000
3000
0000
,  // measure 28
0002
0000
0003
0000
,  // measure 29
2000
0000
3000
0000
,  // measure 30
0002
0000
0003
0000
,  // measure 31
2000
0000
3000
0000
,  // measure 32
0002
0000
0003
0000
,  // measure 33
0002
0000
0003
0000
,  // measure 34
1000
0000
0000
0000
,  // measure 35
1001
0000
0000
0000
,  // measure 36
1000
0000
1000
0000
,  // measure 37
1000
0000
1000
0000
,  // measure 38
0001
0000
0001
0000
,  // measure 39
0001
0000
0001
0000
,  // measure 40
0001
0000
0001
0000
,  // measure 41
0001
0000
0001
0000
,  // measure 42
2000
0000
3000
0000
,  // measure 43
1000
0000
0000
0000
,  // measure 44
0001
0000
1000
0000
,  // measure 45
0001
0000
0000
0000
,  // measure 46
1000
0000
0001
0000
,  // measure 47
1001
0000
1001
0000
,  // measure 48
0000
1000
0001
0000
;
