#VERSION:0.83;
#TITLE:Licky Licky;
#SUBTITLE:;
#ARTIST:Crispy;
#TITLETRANSLIT:;
#SUBTITLETRANSLIT:;
#ARTISTTRANSLIT:;
#GENRE:;
#ORIGIN:;
#CREDIT:BadWolf;
#BANNER:Licky Licky.png;
#BACKGROUND:Licky Licky-bg.png;
#PREVIEWVID:;
#JACKET:Licky Licky-jacket.png;
#CDIMAGE:;
#DISCIMAGE:;
#LYRICSPATH:;
#CDTITLE:cdtitle.png;
#MUSIC:Licky Licky.ogg;
#OFFSET:0.000000;
#SAMPLESTART:57.687614;
#SAMPLELENGTH:14.436092;
#SELECTABLE:YES;
#BPMS:0.000=133.000;
#STOPS:;
#DELAYS:;
#WARPS:;
#TIMESIGNATURES:0.000=4=4;
#TICKCOUNTS:0.000=4;
#COMBOS:0.000=1;
#SPEEDS:0.000=1.000=0.000=0;
#SCROLLS:0.000=1.000;
#FAKES:;
#LABELS:0.000=Song Start;
#BGCHANGES:0.000=Licky Licky.mp4=1.000=0=0=1===CrossFade_Fastest==,
228.000=Licky Licky-bg.png=1.000=0=0=1===CrossFade_Fastest==,
99999=-nosongbg-=1.000=0=0=0 // don't automatically add -songbackground-
;
#KEYSOUNDS:;
#ATTACKS:
;

//---------------dance-single - ----------------
#NOTEDATA:;
#CHARTNAME:;
#STEPSTYPE:dance-single;
#DESCRIPTION:;
#CHARTSTYLE:;
#DIFFICULTY:Edit;
#METER:9;
#RADARVALUES:0.582770,0.892247,0.227687,0.094869,0.303582,430.000000,406.000000,24.000000,10.000000,0.000000,0.000000,0.000000,0.000000,0.000000,0.582770,0.892247,0.227687,0.094869,0.303582,430.000000,406.000000,24.000000,10.000000,0.000000,0.000000,0.000000,0.000000,0.000000;
#CREDIT:;
#NOTES:
0000
0000
0000
0000
,
0000
0000
0000
0000
,
0000
0000
0000
0000
,
0000
0000
0000
0000
,
1000
0100
1000
0100
0010
0001
1000
0000
,
0010
0100
0001
0100
0010
1000
0100
1000
,
0002
0000
0000
0103
0020
0000
2030
0000
,
3200
0000
0310
0001
1000
0000
0000
0000
,
0001
0100
0001
0100
0010
1000
0001
0000
,
0010
0100
1000
0100
0010
0001
0100
0001
,
2000
0000
0000
3100
0020
0000
0032
0000
,
0203
0000
0310
1000
0002
0000
1003
0000
,
1001
0100
0010
0001
0000
0000
0000
0000
,
1001
0010
0100
1000
0000
0001
0001
1000
,
1001
0100
0010
0001
0000
0000
0000
0000
,
1001
0010
0100
1000
0000
0000
0000
0001
,
1001
1010
0011
1001
,
1000
0010
0100
1000
0100
0010
1000
0001
,
1001
0011
1010
1001
,
0001
0000
0010
0000
0100
0000
1000
0000
0010
0000
0100
0001
1000
0000
0001
0000
,
1001
1100
0101
1001
,
1000
0100
0010
1000
0010
0100
1000
0001
,
1001
0101
1100
1001
,
0001
0000
0100
0000
0010
0000
1000
0000
0100
0000
0010
0001
1000
0000
0001
0000
,
0100
0000
0010
0000
0100
0000
0001
1000
0000
0100
0000
1000
0000
0001
1000
0000
,
0100
0000
0010
0000
0100
0000
1000
0001
0000
0100
0000
0001
0000
1000
0001
0000
,
1000
0000
0100
0000
0010
0000
0001
1000
0000
0010
0000
1000
0000
0001
0100
0000
,
0001
0000
0010
0000
0100
0000
1000
0001
0000
0100
0000
0001
0000
1000
0010
0000
,
1000
0000
0001
0000
0010
0000
0100
1000
0000
0010
0000
0100
0000
0010
1000
0010
,
1000
0000
0100
0000
0010
0000
0001
1000
0000
0010
0000
0100
0000
0001
1000
0001
,
1000
0010
1000
0010
0100
0010
0100
0010
0100
0001
0100
0001
0010
0001
0010
0001
,
1000
0100
1000
0100
0010
0001
0010
0001
1000
0010
1000
0010
0100
0001
0010
0100
,
1000
1000
0001
0001
0100
0010
1000
0001
,
0010
0010
0100
0100
1000
0010
0100
0001
,
1000
0000
0001
0010
1000
0000
0011
0000
,
1000
0000
0010
0000
0100
0000
0001
0000
1000
0100
0010
0001
1000
0000
0001
1000
,
0001
0001
1000
1000
0010
0100
0001
1000
,
0100
0100
0010
0010
0001
0100
0010
1000
,
0001
0000
1000
0010
0001
0000
1010
0000
,
0001
0000
0010
0000
0100
0000
1000
0000
0001
0100
0010
1000
0001
0000
1000
0001
,
1000
1000
0100
0100
1000
0010
0001
0010
,
0100
0100
0001
0001
0010
0100
1000
0001
,
1000
0000
0001
0100
1000
0000
0101
0000
,
1000
0000
0100
0000
0010
0000
0001
0000
1000
0001
0100
0001
1000
0000
0001
1000
,
0001
0001
0100
0100
0001
0010
1000
0010
,
0100
0100
1000
1000
0010
0100
0001
1000
,
0001
0000
1000
0100
0001
0000
1100
0000
,
0001
0000
0100
0000
0010
0000
1000
0000
0001
1000
0100
1000
0001
0000
1000
0001
,
1000
1000
0010
0100
0100
0001
1000
0100
,
0010
0010
0001
0100
1000
0100
0001
1000
,
0001
0001
0010
0100
0100
1000
0001
0100
,
0010
0010
1000
0100
0001
0100
1000
0001
,
0100
0100
0010
1000
0001
0001
1000
0100
,
0010
0010
0100
1000
0010
0001
0010
1000
,
0001
0010
0100
1000
0001
0100
0010
1000
,
0001
1000
0001
1000
0100
0010
0100
0010
0001
1000
0001
1000
0001
0010
0100
1000
,
0002
0000
0000
0000
,
0003
0000
0000
0000
;

//---------------dance-single - ----------------
#NOTEDATA:;
#CHARTNAME:;
#STEPSTYPE:dance-single;
#DESCRIPTION:;
#CHARTSTYLE:;
#DIFFICULTY:Challenge;
#METER:8;
#RADARVALUES:0.437755,0.513718,0.085383,0.037948,0.014230,323.000000,314.000000,9.000000,4.000000,0.000000,0.000000,0.000000,0.000000,0.000000,0.437755,0.513718,0.085383,0.037948,0.014230,323.000000,314.000000,9.000000,4.000000,0.000000,0.000000,0.000000,0.000000,0.000000;
#CREDIT:;
#NOTES:
0000
0000
0000
0000
,
0000
0000
0000
0000
,
0000
0000
0000
0000
,
0000
0000
0000
0000
,
0000
0000
0000
0000
,
0000
0000
0000
0000
,
0000
0000
0000
0000
,
0000
0000
0000
0000
,
1000
0100
0010
0100
1000
0001
1000
0000
,
0010
0100
0001
0100
0010
1000
0001
1000
,
0020
0000
0230
0302
,
1003
1100
0001
0101
,
1000
0100
0010
0001
0000
0000
0000
0000
,
0001
0010
0100
1000
0000
1000
1000
0001
,
1000
0100
0010
0001
0000
0000
0000
0000
,
0001
0010
0100
1000
0000
0000
0000
0001
,
1000
1010
0011
1010
,
1000
0000
0100
0010
0100
1000
0010
1000
,
0001
0011
1010
0011
,
1001
0000
0000
0000
0000
0000
0000
0000
1000
0000
0000
0010
0000
0000
0100
0000
,
0001
1000
0100
1000
0001
1000
0100
0000
,
1000
0001
0100
0001
1000
0001
0100
0000
,
0010
1000
0001
1000
0010
1000
0001
0000
,
0010
0001
1000
0001
0010
0001
1000
0000
,
0001
0100
0001
0100
0010
1000
0001
0000
,
1000
0100
0010
0100
1000
0001
1000
0000
,
0001
0100
0010
0100
0001
1000
0001
0000
,
1000
0100
1000
0100
0010
0001
1000
0000
,
0001
0100
1000
0100
0010
1000
0001
0000
,
1000
0100
0010
0001
0010
0100
1000
0000
,
0010
0100
0001
1000
0100
0010
0001
1000
,
0010
0000
0100
0000
0001
0000
1000
0100
0010
0000
0001
0000
1000
0000
0001
1000
,
0001
0100
0010
0100
0001
0001
0001
0000
,
1000
0100
0010
0100
1000
0010
0001
0010
,
1000
0000
0010
0100
0001
0000
1000
0000
,
0100
0000
0010
0001
1000
0000
0001
0000
,
1000
0010
0100
0010
1000
1000
1000
0000
,
0001
0010
0100
0010
0001
0100
1000
0100
,
0001
0000
0100
0010
1000
0000
0001
0000
,
0010
0000
0100
1000
0001
0000
1000
0000
,
0010
0100
0001
1000
0100
0100
0100
0000
,
0010
0001
1000
0001
0010
0100
0010
0100
,
1000
0000
0001
0100
1000
0000
0100
0000
,
0001
0000
1000
0100
0010
0000
0001
0000
,
0100
0010
1000
0001
0010
0010
0010
0000
,
0100
1000
0001
1000
0100
0010
0100
0010
,
0001
0000
1000
0010
0001
0000
0010
0000
,
1000
0000
0001
0010
0100
0000
1000
0000
,
0001
0001
1000
1000
0010
0100
0001
1000
,
0100
0100
0010
0010
0001
0100
0010
1000
,
0001
0001
0010
0010
0100
1000
0001
1000
,
0100
0100
0010
0010
0001
0100
1000
0100
,
0001
0001
1000
1000
0100
0010
0001
1000
,
0010
0010
0100
0100
0001
0010
0100
1000
,
0001
0100
0010
1000
0100
0010
0001
1000
,
0010
0100
0001
0010
0100
1000
0001
1000
,
0002
0000
0000
0000
,
0003
0000
0000
0000
;

//---------------dance-single - ----------------
#NOTEDATA:;
#CHARTNAME:;
#STEPSTYPE:dance-single;
#DESCRIPTION:;
#CHARTSTYLE:;
#DIFFICULTY:Hard;
#METER:2;
#RADARVALUES:0.105712,0.135189,0.000000,0.047435,0.000000,78.000000,78.000000,0.000000,5.000000,0.000000,0.000000,0.000000,0.000000,0.000000,0.105712,0.135189,0.000000,0.047435,0.000000,78.000000,78.000000,0.000000,5.000000,0.000000,0.000000,0.000000,0.000000,0.000000;
#CREDIT:;
#NOTES:
0000
0000
0000
0000
,
0000
0000
0000
0000
,
0000
0000
0000
0000
,
0000
0000
0000
0000
,
0000
0000
0000
0000
,
0000
0000
0000
0000
,
0000
0000
0000
0000
,
0000
0000
0000
0000
,
2000
0000
0000
3000
,
0020
0000
0000
0030
,
0200
0000
0000
0300
,
0002
0000
0000
0003
,
1000
0000
0000
0000
,
1000
0000
0000
0000
,
0001
0000
0000
0000
,
0001
0000
0000
0000
,
1000
0000
0001
0000
,
1000
0000
0000
0000
,
0010
0000
0100
0000
,
0010
0000
0000
0000
,
1000
0000
0001
0000
,
1000
0000
0000
0000
,
0100
0000
0010
0000
,
0100
0000
0000
0000
,
1000
0000
1000
0000
,
1000
0000
0000
0000
,
0010
0000
0010
0000
,
0010
0000
0000
0000
,
0100
0000
0100
0000
,
0100
0000
0000
0000
,
0001
0000
1000
0000
,
0001
0000
1000
0000
,
0010
0000
0100
0000
,
0010
0000
0100
0000
,
0010
0000
0000
0000
,
0100
0000
0010
0000
,
1000
0000
0001
0000
,
1000
0000
0001
0000
,
1000
0000
0000
0000
,
0001
0000
1000
0000
,
0100
0000
0010
0000
,
0100
0000
0010
0000
,
0100
0000
0000
0000
,
0010
0000
0100
0000
,
1000
0000
0001
0000
,
1000
0000
0001
0000
,
1000
0000
0000
0000
,
0001
0000
1000
0000
,
0001
0000
0001
0000
,
0100
0000
0100
0000
,
0010
0000
0010
0000
,
1000
0000
1000
0000
,
0001
0000
0001
0000
,
0010
0000
0010
0000
,
0100
0000
0100
0000
,
1000
0000
1000
0000
,
0002
0000
0000
0000
,
0003
0000
0000
0000
;

//---------------dance-single - ----------------
#NOTEDATA:;
#CHARTNAME:;
#STEPSTYPE:dance-single;
#DESCRIPTION:;
#CHARTSTYLE:;
#DIFFICULTY:Medium;
#METER:1;
#RADARVALUES:0.105712,0.135189,0.000000,0.047435,0.000000,78.000000,78.000000,0.000000,5.000000,0.000000,0.000000,0.000000,0.000000,0.000000,0.105712,0.135189,0.000000,0.047435,0.000000,78.000000,78.000000,0.000000,5.000000,0.000000,0.000000,0.000000,0.000000,0.000000;
#CREDIT:;
#NOTES:
// measure 0
0000
0000
0000
0000
,  // measure 1
0000
0000
0000
0000
,  // measure 2
0000
0000
0000
0000
,  // measure 3
0000
0000
0000
0000
,  // measure 4
0000
0000
0000
0000
,  // measure 5
0000
0000
0000
0000
,  // measure 6
0000
0000
0000
0000
,  // measure 7
0000
0000
0000
0000
,  // measure 8
2000
0000
0000
3000
,  // measure 9
0002
0000
0000
0003
,  // measure 10
2000
0000
0000
3000
,  // measure 11
0002
0000
0000
0003
,  // measure 12
1000
0000
0000
0000
,  // measure 13
1000
0000
0000
0000
,  // measure 14
0001
0000
0000
0000
,  // measure 15
0001
0000
0000
0000
,  // measure 16
1000
0000
0001
0000
,  // measure 17
1000
0000
0000
0000
,  // measure 18
0001
0000
1000
0000
,  // measure 19
0001
0000
0000
0000
,  // measure 20
1000
0000
0001
0000
,  // measure 21
1000
0000
0000
0000
,  // measure 22
1000
0000
0001
0000
,  // measure 23
1000
0000
0000
0000
,  // measure 24
1000
0000
1000
0000
,  // measure 25
1000
0000
0000
0000
,  // measure 26
0001
0000
0001
0000
,  // measure 27
0001
0000
0000
0000
,  // measure 28
1000
0000
1000
0000
,  // measure 29
1000
0000
0000
0000
,  // measure 30
0001
0000
1000
0000
,  // measure 31
0001
0000
1000
0000
,  // measure 32
0001
0000
1000
0000
,  // measure 33
0001
0000
1000
0000
,  // measure 34
0001
0000
0000
0000
,  // measure 35
1000
0000
0001
0000
,  // measure 36
1000
0000
0001
0000
,  // measure 37
1000
0000
0001
0000
,  // measure 38
1000
0000
0000
0000
,  // measure 39
0001
0000
1000
0000
,  // measure 40
1000
0000
0001
0000
,  // measure 41
1000
0000
0001
0000
,  // measure 42
1000
0000
0000
0000
,  // measure 43
0001
0000
1000
0000
,  // measure 44
1000
0000
0001
0000
,  // measure 45
1000
0000
0001
0000
,  // measure 46
1000
0000
0000
0000
,  // measure 47
0001
0000
1000
0000
,  // measure 48
0001
0000
0001
0000
,  // measure 49
1000
0000
1000
0000
,  // measure 50
0001
0000
0001
0000
,  // measure 51
1000
0000
1000
0000
,  // measure 52
0001
0000
0001
0000
,  // measure 53
0001
0000
0001
0000
,  // measure 54
1000
0000
1000
0000
,  // measure 55
1000
0000
1000
0000
,  // measure 56
0002
0000
0000
0000
,  // measure 57
0003
0000
0000
0000
;
