#VERSION:0.83;
#TITLE:Let's Groove;
#SUBTITLE:;
#ARTIST:Earth, Wind & Fire;
#TITLETRANSLIT:;
#SUBTITLETRANSLIT:;
#ARTISTTRANSLIT:;
#GENRE:;
#ORIGIN:;
#CREDIT:BadWolf;
#BANNER:Let's Groove.png;
#BACKGROUND:Let's Groove-bg.png;
#PREVIEWVID:;
#JACKET:Let's Groove-jacket.png;
#CDIMAGE:;
#DISCIMAGE:;
#LYRICSPATH:;
#CDTITLE:;
#MUSIC:Let's Groove.ogg;
#OFFSET:-0.240000;
#SAMPLESTART:15.197045;
#SAMPLELENGTH:15.906732;
#SELECTABLE:YES;
#DISPLAYBPM:135.000000;
#BPMS:0.000=123.700,
32.000=124.500,
64.000=125.100,
96.000=125.300,
128.000=124.900,
160.000=125.000,
172.000=125.800,
192.000=124.500,
208.000=122.700,
224.000=124.700;
#STOPS:;
#DELAYS:;
#WARPS:;
#TIMESIGNATURES:0.000=4=4;
#TICKCOUNTS:0.000=4;
#COMBOS:0.000=1;
#SPEEDS:0.000=1.000=0.000=0;
#SCROLLS:0.000=1.000;
#FAKES:;
#LABELS:0.000=Song Start;
#BGCHANGES:-0.495=Let's Groove.mp4=1.000=0=0=1===CrossFade_Fastest==,
239.000=Let's Groove-bg.png=1.000=0=0=1===CrossFade_Fastest==,
99999=-nosongbg-=1.000=0=0=0 // don't automatically add -songbackground-
;
#KEYSOUNDS:;
#ATTACKS:
;

//---------------dance-single - ----------------
#NOTEDATA:;
#CHARTNAME:;
#STEPSTYPE:dance-single;
#DESCRIPTION:;
#CHARTSTYLE:;
#DIFFICULTY:Edit;
#METER:8;
#RADARVALUES:0.461550,0.535164,0.172773,0.069109,0.051832,374.000000,354.000000,20.000000,8.000000,0.000000,0.000000,0.000000,0.000000,0.000000,0.461550,0.535164,0.172773,0.069109,0.051832,374.000000,354.000000,20.000000,8.000000,0.000000,0.000000,0.000000,0.000000,0.000000;
#CREDIT:;
#DISPLAYBPM:135.000000;
#NOTES:
0000
0000
0000
0000
,
0000
0000
0000
0000
,
0000
0000
0000
0000
,
0000
0000
0000
0000
,
2000
0000
3100
0010
0001
0000
0101
0000
,
1100
0000
0001
0100
1000
0100
0001
1000
,
0002
0000
0013
0100
1000
0000
1010
0000
,
0011
0000
0000
0000
1000
0000
0010
0000
0100
0000
0001
1000
0001
0000
0000
0000
,
1000
0000
0010
0100
0010
0001
0010
1000
,
0001
0010
0100
1000
0010
0001
0010
1000
,
0001
0000
0010
0100
0010
1000
0010
0001
,
1000
0010
0100
0001
0010
1000
0010
0001
,
0100
0000
0010
0001
0010
0100
0010
1000
,
0001
0010
1000
0001
0100
1000
0001
1000
,
0100
0000
0010
1000
0010
0100
0010
0001
,
1000
0000
0010
0000
0001
0000
1000
0000
0100
0000
0001
0000
1000
0000
0001
1000
,
0001
0000
0011
0010
0100
0000
1000
0000
,
0010
0100
0010
0001
0010
1000
0100
0010
,
0001
0000
0100
0010
0100
0000
1001
0000
,
1000
0010
0001
0010
1000
0100
0010
0001
,
1000
0000
1010
0010
0100
0000
0001
0000
,
0010
0100
0010
1000
0010
0001
0100
0010
,
1000
0000
0100
0010
0100
0000
1001
0000
,
0001
0000
0010
0000
1000
0000
0010
0000
0001
0000
0100
0000
0010
0000
1000
0001
,
1000
0000
0001
0010
1000
0000
0011
0000
,
1000
0010
0100
0010
0001
0010
0100
0001
,
1000
0000
0100
0010
0001
0000
1001
0000
,
1000
0010
0001
1000
0100
0001
1000
0000
,
0001
0000
1000
0100
0001
0000
1100
0000
,
0001
0100
0010
0100
1000
0100
0010
1000
,
0001
0000
0010
0100
1000
0000
1001
0000
,
0001
0100
1000
0001
0010
1000
0001
0000
,
2000
0000
0010
0100
0001
0000
0100
0000
,
3001
0010
0100
1000
0000
1000
0001
1000
,
0002
0000
0100
0010
1000
0000
0010
0000
,
1003
0100
0010
0100
1000
0100
0001
0100
,
2000
0000
0010
0100
0001
0000
0100
0000
,
3001
0010
0100
1000
0000
1000
0001
1000
,
0002
0000
0100
0010
1000
0000
0010
0000
,
1003
0000
0100
0000
0010
0000
0100
0000
1000
0000
0001
0000
1000
0000
0001
1000
,
0001
0000
0101
0100
0010
0000
1000
0000
,
0100
0010
0100
0001
0100
1000
0010
0100
,
0001
0000
0010
0100
0010
0000
1001
0000
,
1000
0100
0001
0100
1000
0010
0100
0001
,
1000
0000
1100
0100
0010
0000
0001
0000
,
0100
0010
0100
1000
0100
0001
0010
0100
,
1000
0000
0010
0100
0010
0000
1001
0000
,
0001
0000
0100
0000
1000
0000
0100
0000
0001
0000
0010
0000
0100
0000
1000
0001
,
1000
0000
0000
0000
0010
0100
0010
0000
1000
0000
0100
0000
0010
0001
0010
0000
,
0001
0000
0100
0000
0010
1000
0010
0000
1000
0000
0100
0010
0001
0000
1000
0000
,
0001
0000
0000
0000
0100
0010
0100
0000
0001
0000
0010
0000
0100
1000
0100
0000
,
1000
0000
0010
0000
0100
0001
0100
0000
0001
0000
1000
0000
1001
0000
0000
0000
,
0001
0010
1000
0010
0100
1000
0001
0000
,
1000
0010
0100
1000
0100
0001
1000
0000
,
0001
0010
0001
0010
0100
1000
0100
1000
,
1001
1001
0000
0001
,
2002
0000
0000
0000
,
0000
0000
0000
0000
,
0000
0000
0000
0000
,
3003
0000
0000
0000
;

//---------------dance-single - ----------------
#NOTEDATA:;
#CHARTNAME:;
#STEPSTYPE:dance-single;
#DESCRIPTION:;
#CHARTSTYLE:;
#DIFFICULTY:Challenge;
#METER:7;
#RADARVALUES:0.375164,0.407744,0.112302,0.069109,0.000000,304.000000,291.000000,13.000000,8.000000,0.000000,0.000000,0.000000,0.000000,0.000000,0.375164,0.407744,0.112302,0.069109,0.000000,304.000000,291.000000,13.000000,8.000000,0.000000,0.000000,0.000000,0.000000,0.000000;
#CREDIT:;
#DISPLAYBPM:135.000000;
#NOTES:
0000
0000
0000
0000
,
0000
0000
0000
0000
,
0000
0000
0000
0000
,
0000
0000
0000
0000
,
2000
0000
3000
0001
1000
0000
0010
0000
,
0100
0000
0001
1000
0001
0000
0100
0000
,
0002
0000
0003
1000
0001
0000
0010
0000
,
0100
0000
1000
0001
1000
0000
1001
0000
,
0110
0000
0001
1000
0010
0000
1000
0000
,
0100
0010
0001
1000
0010
0000
1000
0001
,
1000
0000
0100
1000
0001
0000
1000
0000
,
0001
0100
0010
1000
0100
0000
1000
0001
,
1000
0100
0010
0001
1000
0000
0010
0000
,
1000
0001
0010
0100
1000
0000
0001
1000
,
0001
0000
1000
0001
0100
0000
0001
0000
,
0010
0100
1000
0001
0100
0000
0001
1000
,
0001
0000
1000
0010
0001
0000
0010
0000
,
1000
0100
0010
0100
1000
0001
0100
0000
,
0001
0000
0010
0100
1000
0000
1001
0000
,
0001
0100
1000
0100
0001
0000
1001
0000
,
1000
0000
0001
0010
1000
0000
0010
0000
,
0001
0100
0010
0100
0001
1000
0100
0000
,
1000
0000
0010
0100
0001
0000
1001
0000
,
1000
0100
0001
0100
1000
0000
1001
0000
,
0001
0000
0100
0010
0100
0000
0001
0000
,
0010
0100
1000
0001
0000
1000
0001
0000
,
1000
0000
0010
0100
0010
0000
1000
0000
,
0100
0010
0001
1000
0000
0001
1000
0001
,
1000
0000
0001
0100
0001
0000
1000
0000
,
0001
0010
0100
1000
0000
0010
0100
0001
,
1000
0000
0100
0010
0100
0000
1000
0000
,
0010
0100
0001
1000
0000
0001
1000
0001
,
2000
0100
0010
3001
,
0001
0010
0100
1000
0000
0010
0100
0000
,
0002
0010
0100
1003
,
1000
0100
0010
0001
0100
0010
1000
0001
,
2000
0010
0100
3001
,
0001
0100
0010
1000
0000
0100
0010
0000
,
0002
0100
0010
1000
,
1003
0010
0100
0001
0010
0100
1000
0000
,
0001
0000
1000
0010
0001
0000
0010
0000
,
1000
0100
0010
0100
1000
0001
0100
0000
,
0001
0000
0010
0100
1000
0000
1001
0000
,
0001
0100
1000
0100
0001
0000
1001
0000
,
1000
0000
0001
0010
1000
0000
0010
0000
,
0001
0100
0010
0100
0001
1000
0100
0000
,
1000
0000
0010
0100
0001
0000
1001
0000
,
1000
0100
0001
0100
1000
0000
1001
0000
,
0001
0000
0100
0010
1000
0000
0001
0000
,
0010
0000
0100
1000
1000
0000
0001
0000
,
1000
0000
0010
0100
0001
0000
1000
0000
,
0100
0000
0010
0001
0001
0000
1000
0000
,
0001
0000
1000
0010
1000
0000
0100
0000
,
0010
0000
0001
1000
1000
0000
0001
0000
,
1000
0010
1000
0010
0100
0001
0100
0001
,
1001
1001
0000
1000
,
2002
0000
0000
0000
,
0000
0000
0000
0000
,
0000
0000
0000
0000
,
3003
0000
0000
0000
;

//---------------dance-single - ----------------
#NOTEDATA:;
#CHARTNAME:;
#STEPSTYPE:dance-single;
#DESCRIPTION:;
#CHARTSTYLE:;
#DIFFICULTY:Hard;
#METER:5;
#RADARVALUES:0.290011,0.331292,0.025916,0.120941,0.000000,235.000000,232.000000,3.000000,14.000000,0.000000,0.000000,0.000000,0.000000,0.000000,0.290011,0.331292,0.025916,0.120941,0.000000,235.000000,232.000000,3.000000,14.000000,0.000000,0.000000,0.000000,0.000000,0.000000;
#CREDIT:;
#DISPLAYBPM:135.000000;
#NOTES:
0000
0000
0000
0000
,
0000
0000
0000
0000
,
0000
0000
0000
0000
,
0000
0000
0000
0000
,
1000
0000
0000
0001
1000
0000
0001
0000
,
0100
0000
0010
1000
0000
1000
0001
0000
,
1000
0000
0000
0001
1000
0000
0001
0000
,
0010
0000
0100
1000
0000
1000
0001
0000
,
1000
0000
0010
0100
0010
0000
1000
0000
,
0100
0010
0001
1000
,
0001
0000
0100
0010
0100
0000
0001
0000
,
0010
0100
1000
0001
,
1000
0000
0001
0100
0001
0000
1000
0000
,
0100
0010
0100
1000
,
0001
0000
1000
0010
1000
0000
0001
0000
,
0010
0100
0010
0001
,
1000
0000
0001
1000
0001
0000
0100
0000
,
0010
0000
1000
0001
0000
0001
2000
0000
,
3100
0002
0103
1000
,
0001
1000
0001
1000
0000
0100
0010
0000
,
0001
0000
1000
0001
1000
0000
0010
0000
,
0100
0000
0001
1000
0000
1000
0002
0000
,
0013
2000
3010
0001
,
1000
0001
1000
0001
0000
0010
0100
0000
,
1000
0010
1000
0001
,
0010
0100
1000
0001
,
1000
0010
0001
0010
,
1000
0100
0010
0001
,
0100
0010
0100
0001
,
0010
0100
1000
0001
,
0100
0010
1000
0100
,
0010
0001
1000
0001
,
2000
0010
0001
3100
,
0001
0010
0100
1000
,
0002
0100
1000
0013
,
1000
0100
0010
0001
,
2000
0100
0001
3010
,
0001
0100
0010
1000
,
0002
0010
1000
0103
,
1000
0010
0100
0001
,
1000
0000
0001
1000
0001
0000
0010
0000
,
0100
0000
1000
0001
0000
0001
2000
0000
,
3010
0002
0013
1000
,
0001
1000
0001
1000
0000
0010
0100
0000
,
0001
0000
1000
0001
1000
0000
0100
0000
,
0010
0000
0001
1000
0000
1000
0002
0000
,
0103
2000
3100
0001
,
1000
0001
1000
0001
0000
0100
0010
0000
,
1000
0100
0010
0001
,
1000
0010
0100
0001
,
0010
0100
1000
0001
,
0100
0010
1000
0001
,
1000
1000
0100
0010
,
0001
0001
0100
0010
,
1000
0001
1000
0000
0010
0100
0010
0000
,
1001
1001
0000
0001
,
2002
0000
0000
0000
,
0000
0000
0000
0000
,
0000
0000
0000
0000
,
3003
0000
0000
0000
;

//---------------dance-single - ----------------
#NOTEDATA:;
#CHARTNAME:;
#STEPSTYPE:dance-single;
#DESCRIPTION:;
#CHARTSTYLE:;
#DIFFICULTY:Medium;
#METER:2;
#RADARVALUES:0.185114,0.254840,0.025916,0.017277,0.000000,150.000000,147.000000,3.000000,2.000000,0.000000,0.000000,0.000000,0.000000,0.000000,0.185114,0.254840,0.025916,0.017277,0.000000,150.000000,147.000000,3.000000,2.000000,0.000000,0.000000,0.000000,0.000000,0.000000;
#CREDIT:;
#DISPLAYBPM:135.000000;
#NOTES:
0000
0000
0000
0000
,
0000
0000
0000
0000
,
0000
0000
0000
0000
,
0000
0000
0000
0000
,
1000
0000
0001
0000
,
1000
0000
0001
0000
,
0100
0000
0010
0000
,
0100
0000
0010
0000
,
1000
1000
0001
0001
,
1000
0001
1000
0000
,
0010
0010
0100
0100
,
0010
0100
0010
0000
,
1000
1000
0001
0001
,
1000
0001
1000
0000
,
0100
0100
0010
0010
,
0100
0010
0100
0000
,
1000
0001
0010
0001
,
1000
0001
0100
0001
,
1000
0001
0010
0001
,
1000
0001
1000
0000
,
0001
1000
0010
1000
,
0001
1000
0100
1000
,
0001
1000
0010
1000
,
0001
1000
0001
0000
,
1000
0000
0001
0000
,
1000
0000
0001
0000
,
0100
0000
0010
0000
,
0100
0000
0010
0000
,
1000
0000
0001
0000
,
1000
0000
0001
0000
,
0010
0000
0100
0000
,
0010
0000
0100
0000
,
1000
0000
0010
0000
,
0100
0000
0001
0000
,
1000
0000
0100
0000
,
0010
0000
0001
0000
,
0100
0000
0010
0000
,
1000
0000
0001
0000
,
0010
0000
0100
0000
,
1000
0000
0001
0000
,
1000
0001
0010
0001
,
1000
0001
0100
0001
,
1000
0001
0010
0001
,
1000
0001
1000
0000
,
0001
1000
0010
1000
,
0001
1000
0100
1000
,
0001
1000
0010
1000
,
0001
1000
0001
0000
,
1000
0000
0100
0000
,
0010
0000
0001
0000
,
0100
0000
0010
0000
,
1000
0000
0001
0000
,
0010
0000
0100
0000
,
1000
0000
0001
0000
,
0100
0100
0100
0100
,
1001
1001
0000
0000
,
2002
0000
0000
0000
,
0000
0000
0000
0000
,
0000
0000
0000
0000
,
3003
0000
0000
0000
;

//---------------dance-single - ----------------
#NOTEDATA:;
#CHARTNAME:;
#STEPSTYPE:dance-single;
#DESCRIPTION:;
#CHARTSTYLE:;
#DIFFICULTY:Easy;
#METER:1;
#RADARVALUES:0.113536,0.193505,0.008639,0.069109,0.000000,92.000000,91.000000,1.000000,8.000000,0.000000,0.000000,0.000000,0.000000,0.000000,0.113536,0.193505,0.008639,0.069109,0.000000,92.000000,91.000000,1.000000,8.000000,0.000000,0.000000,0.000000,0.000000,0.000000;
#CREDIT:;
#DISPLAYBPM:135.000000;
#NOTES:
0000
0000
0000
0000
,
0000
0000
0000
0000
,
0000
0000
0000
0000
,
0000
0000
0000
0000
,
2000
0000
3000
0000
,
0002
0000
0003
0000
,
0200
0000
0300
0000
,
0020
0000
0030
0000
,
1000
0000
0001
0000
,
1000
0000
0000
0000
,
0010
0000
0100
0000
,
0010
0000
0000
0000
,
1000
0000
0001
0000
,
1000
0000
0000
0000
,
0100
0000
0010
0000
,
0100
0000
0000
0000
,
1000
0000
1000
0000
,
1000
0000
1000
0000
,
0001
0000
0001
0000
,
0001
0000
0001
0000
,
0100
0000
0100
0000
,
0100
0000
0100
0000
,
0010
0000
0010
0000
,
0010
0000
0010
0000
,
1000
0000
1000
0000
,
0001
0000
0000
0000
,
1000
0000
0000
0000
,
0001
0000
0001
0000
,
0100
0000
0100
0000
,
0010
0000
0000
0000
,
0100
0000
0000
0000
,
0010
0000
0010
0000
,
2000
0000
0000
3000
,
0001
0000
1000
0000
,
0002
0000
0000
0003
,
1000
0000
0001
0000
,
0200
0000
0000
0300
,
0010
0000
0100
0000
,
0020
0000
0000
0030
,
0100
0000
0010
0000
,
1000
0000
1000
0000
,
1000
0000
1000
0000
,
0001
0000
0001
0000
,
0001
0000
0001
0000
,
0100
0000
0100
0000
,
0100
0000
0100
0000
,
0010
0000
0010
0000
,
0010
0000
0010
0000
,
1000
0000
1000
0000
,
0001
0000
0001
0000
,
0100
0000
0100
0000
,
0010
0000
0010
0000
,
1000
0000
0001
0000
,
1000
0000
0001
0000
,
0100
0100
0100
0100
,
0001
1000
0000
0000
,
1001
0000
0000
0000
;

//---------------dance-single - ----------------
#NOTEDATA:;
#CHARTNAME:;
#STEPSTYPE:dance-single;
#DESCRIPTION:;
#CHARTSTYLE:;
#DIFFICULTY:Beginner;
#METER:1;
#RADARVALUES:0.113536,0.193505,0.008639,0.069109,0.000000,92.000000,91.000000,1.000000,8.000000,0.000000,0.000000,0.000000,0.000000,0.000000,0.113536,0.193505,0.008639,0.069109,0.000000,92.000000,91.000000,1.000000,8.000000,0.000000,0.000000,0.000000,0.000000,0.000000;
#CREDIT:;
#DISPLAYBPM:135.000000;
#NOTES:
// measure 0
0000
0000
0000
0000
,  // measure 1
0000
0000
0000
0000
,  // measure 2
0000
0000
0000
0000
,  // measure 3
0000
0000
0000
0000
,  // measure 4
2000
0000
3000
0000
,  // measure 5
0002
0000
0003
0000
,  // measure 6
2000
0000
3000
0000
,  // measure 7
0002
0000
0003
0000
,  // measure 8
1000
0000
0001
0000
,  // measure 9
1000
0000
0000
0000
,  // measure 10
0001
0000
1000
0000
,  // measure 11
0001
0000
0000
0000
,  // measure 12
1000
0000
0001
0000
,  // measure 13
1000
0000
0000
0000
,  // measure 14
1000
0000
0001
0000
,  // measure 15
1000
0000
0000
0000
,  // measure 16
1000
0000
1000
0000
,  // measure 17
1000
0000
1000
0000
,  // measure 18
0001
0000
0001
0000
,  // measure 19
0001
0000
0001
0000
,  // measure 20
1000
0000
1000
0000
,  // measure 21
1000
0000
1000
0000
,  // measure 22
0001
0000
0001
0000
,  // measure 23
0001
0000
0001
0000
,  // measure 24
1000
0000
1000
0000
,  // measure 25
0001
0000
0000
0000
,  // measure 26
1000
0000
0000
0000
,  // measure 27
0001
0000
0001
0000
,  // measure 28
1000
0000
1000
0000
,  // measure 29
0001
0000
0000
0000
,  // measure 30
1000
0000
0000
0000
,  // measure 31
0001
0000
0001
0000
,  // measure 32
2000
0000
0000
3000
,  // measure 33
0001
0000
1000
0000
,  // measure 34
0002
0000
0000
0003
,  // measure 35
1000
0000
0001
0000
,  // measure 36
2000
0000
0000
3000
,  // measure 37
0001
0000
1000
0000
,  // measure 38
0002
0000
0000
0003
,  // measure 39
1000
0000
0001
0000
,  // measure 40
1000
0000
1000
0000
,  // measure 41
1000
0000
1000
0000
,  // measure 42
0001
0000
0001
0000
,  // measure 43
0001
0000
0001
0000
,  // measure 44
1000
0000
1000
0000
,  // measure 45
1000
0000
1000
0000
,  // measure 46
0001
0000
0001
0000
,  // measure 47
0001
0000
0001
0000
,  // measure 48
1000
0000
1000
0000
,  // measure 49
0001
0000
0001
0000
,  // measure 50
1000
0000
1000
0000
,  // measure 51
0001
0000
0001
0000
,  // measure 52
1000
0000
0001
0000
,  // measure 53
1000
0000
0001
0000
,  // measure 54
1000
1000
1000
1000
,  // measure 55
0001
1000
0000
0000
,  // measure 56
1001
0000
0000
0000
;
