#VERSION:0.83;
#TITLE:Irresistiblement;
#SUBTITLE:;
#ARTIST:Sylvie Vartan;
#TITLETRANSLIT:;
#SUBTITLETRANSLIT:;
#ARTISTTRANSLIT:;
#GENRE:;
#ORIGIN:;
#CREDIT:BadWolf;
#BANNER:Irresistiblement.png;
#BACKGROUND:Irresistiblement-bg.png;
#PREVIEWVID:;
#JACKET:Irresistiblement-jacket.png;
#CDIMAGE:;
#DISCIMAGE:;
#LYRICSPATH:;
#CDTITLE:cdtitle.png;
#MUSIC:Irresistiblement.ogg;
#OFFSET:-0.120000;
#SAMPLESTART:90.063660;
#SAMPLELENGTH:12.471176;
#SELECTABLE:YES;
#DISPLAYBPM:134.000000;
#BPMS:0.000=132.000,
16.000=130.000,
32.000=134.000,
44.000=130.000,
52.000=131.000,
56.000=134.000,
64.000=129.000,
68.000=134.000,
72.000=135.000,
76.000=134.000,
84.000=132.000,
92.000=134.000,
96.000=135.000,
100.000=136.000,
104.000=134.000,
107.000=133.000,
108.000=135.000,
116.000=133.000,
124.000=134.000,
136.000=136.000,
144.000=134.000,
148.000=133.000,
160.000=135.000,
176.000=133.000,
184.000=134.000,
188.000=136.000,
200.000=135.000,
204.000=134.000,
216.000=135.000,
224.000=136.000,
228.000=134.000,
244.000=135.000,
248.000=136.000;
#STOPS:;
#DELAYS:;
#WARPS:;
#TIMESIGNATURES:0.000=4=4;
#TICKCOUNTS:0.000=4;
#COMBOS:0.000=1;
#SPEEDS:0.000=1.000=0.000=0;
#SCROLLS:0.000=1.000;
#FAKES:;
#LABELS:0.000=Song Start;
#BGCHANGES:0.000=Irresistiblement.mp4=1.000=0=0=1===CrossFade_Fastest==,
263.000=Irresistiblement-bg.png=1.000=0=0=1===CrossFade_Faster==,
99999=-nosongbg-=1.000=0=0=0 // don't automatically add -songbackground-
;
#KEYSOUNDS:;
#ATTACKS:
;

//---------------dance-single - ----------------
#NOTEDATA:;
#CHARTNAME:;
#STEPSTYPE:dance-single;
#DESCRIPTION:;
#CHARTSTYLE:;
#DIFFICULTY:Edit;
#METER:8;
#RADARVALUES:0.542379,0.472574,0.177572,0.025367,0.000000,449.000000,428.000000,21.000000,3.000000,0.000000,0.000000,0.000000,0.000000,0.000000,0.542379,0.472574,0.177572,0.025367,0.000000,449.000000,428.000000,21.000000,3.000000,0.000000,0.000000,0.000000,0.000000,0.000000;
#CREDIT:;
#DISPLAYBPM:134.000000;
#NOTES:
0000
0000
0000
0000
,
0000
0000
0000
0000
,
0000
0000
0000
0000
,
0000
0000
0000
0000
,
1000
0100
1000
0100
0010
0001
0010
0001
,
0100
0010
0100
0010
1000
0001
1000
0001
,
1000
0010
1000
0010
0100
0001
0100
0001
,
0010
0100
0010
0100
1000
0001
1000
0001
,
1000
0100
0010
0001
1000
0001
0010
0100
,
1000
0010
0001
0010
1000
0001
1000
0000
,
0001
0100
1000
0100
0001
1000
0001
0000
,
1000
0010
1000
0010
0100
0001
0100
0001
,
0010
0100
0010
0100
1000
0001
1000
0001
,
1000
0100
1000
0100
0010
0001
0010
0001
,
0100
0010
0100
0010
1000
0001
1000
0001
,
1000
0010
0100
0001
1000
0001
0100
0010
,
1000
0100
0001
0100
1000
0001
1000
0000
,
0001
0010
1000
0010
0001
1000
0001
0000
,
1000
0100
0010
0100
1000
0010
1000
0001
,
1000
0100
0010
0001
1000
0000
1001
0000
,
0001
0010
0100
0010
0001
0100
0001
1000
,
0001
0010
0100
1000
0001
0000
1001
0000
,
1000
0010
0001
0010
1000
0100
0010
0001
,
0100
0010
1000
0001
1000
0000
1001
0000
,
0001
0010
1000
0010
0001
0100
0010
1000
,
0002
1003
0001
0011
,
1000
1010
1001
0110
,
1000
0000
1100
0000
0100
0010
0001
1000
,
0001
0000
0101
0000
0100
0010
1000
0001
,
1000
0000
1010
0000
0010
0100
0001
1000
,
0001
0000
0011
0000
0010
0100
1000
0001
,
1000
0000
1001
0000
0001
1000
0010
0100
,
0001
0010
1000
0010
0001
1000
0001
0000
,
1000
0100
0001
0100
1000
0001
1000
0000
,
0001
0000
0101
0000
0100
0010
1000
0001
,
1000
0000
1100
0000
0100
0010
0001
1000
,
0001
0000
0011
0000
0010
0100
1000
0001
,
1000
0000
1010
0000
0010
0100
0001
1000
,
0001
0000
1001
0000
1000
0001
0010
0100
,
1000
0010
0001
0010
1000
0001
1000
0000
,
0001
0100
1000
0100
0001
1000
0001
0000
,
1000
0100
0010
0100
1000
0010
1000
0001
,
1000
0100
0010
0001
1000
0000
1001
0000
,
0001
0010
0100
0010
0001
0100
0001
1000
,
0001
0010
0100
1000
0001
0000
1001
0000
,
1000
0010
0001
0010
1000
0100
0010
0001
,
0100
0010
1000
0001
1000
0000
1001
0000
,
0001
0010
1000
0010
0001
0100
0010
1000
,
0001
0010
0100
0010
0001
0010
0100
0010
,
0001
1000
0001
0000
1000
0010
0100
0001
,
1000
0100
1000
0100
0010
0001
0010
0001
,
0100
0010
0100
0010
1000
0001
1000
0001
,
1000
0010
1000
0010
0100
0001
0100
0001
,
0010
0100
0010
0100
1000
0001
1000
0001
,
1000
0100
0010
0001
1000
0001
0010
0100
,
1000
0010
0001
0010
1000
0001
1000
0000
,
0001
0100
1000
0100
0001
1000
0001
0000
,
1000
0010
1000
0010
0100
0001
0100
0001
,
0010
0100
0010
0100
1000
0001
1000
0001
,
1000
0100
1000
0100
0010
0001
0010
0001
,
0100
0010
0100
0010
1000
0001
1000
0001
,
1000
0010
0100
0001
1000
0001
0100
0010
,
1000
0100
0001
0100
1000
0001
1000
0000
,
0001
0010
1000
0010
0001
1000
0001
0000
,
2002
0000
0000
0000
,
0000
0000
0000
3003
;

//---------------dance-single - ----------------
#NOTEDATA:;
#CHARTNAME:;
#STEPSTYPE:dance-single;
#DESCRIPTION:;
#CHARTSTYLE:;
#DIFFICULTY:Challenge;
#METER:7;
#RADARVALUES:0.439702,0.444775,0.059191,0.152204,0.000000,364.000000,357.000000,7.000000,18.000000,0.000000,0.000000,0.000000,0.000000,0.000000,0.439702,0.444775,0.059191,0.152204,0.000000,364.000000,357.000000,7.000000,18.000000,0.000000,0.000000,0.000000,0.000000,0.000000;
#CREDIT:;
#DISPLAYBPM:134.000000;
#NOTES:
0000
0000
0000
0000
,
0000
0000
0000
0000
,
0000
0000
0000
0000
,
0000
0000
0000
0000
,
1000
0100
1000
0000
0010
0000
0100
0001
,
0010
0100
0010
0000
0001
0000
1000
0010
,
1000
0001
1000
0000
0100
0000
0010
0001
,
0100
0010
0100
0000
0001
0000
1000
0000
,
0001
0010
0100
0000
1000
0100
0010
0000
,
0001
1000
0001
1000
0010
0100
0010
0000
,
1000
0001
1000
0001
0100
0010
0100
0000
,
0001
0010
0001
0000
0100
0000
0010
1000
,
0100
0010
0100
0000
1000
0000
0001
0100
,
0001
1000
0001
0000
0010
0000
0100
1000
,
0010
0100
0010
0000
1000
0000
0001
0000
,
1000
0100
0010
0000
0001
0010
0100
0000
,
1000
0001
1000
0001
0100
0010
0100
0000
,
0001
1000
0001
1000
0010
0100
0010
0000
,
1000
0000
0100
0000
0010
0001
0010
0001
,
2000
3002
1003
1001
,
0001
0000
0100
0000
0010
1000
0010
1000
,
0002
2003
3001
1001
,
1000
0000
0010
0000
0100
0001
0100
0001
,
2000
3002
1003
1001
,
0001
0000
0010
0000
0100
1000
0100
1000
,
0002
0100
0010
1003
,
2000
0100
0010
3001
,
0001
0100
0001
0000
1000
0010
1000
0010
,
1000
0100
1000
0000
0001
0010
0001
0010
,
0001
1000
0001
0000
0100
0010
0100
0010
,
1000
0001
1000
0000
0100
0010
0100
0010
,
0001
0100
0001
0000
1000
0010
1000
0000
,
0001
1000
0001
1000
0010
0100
0010
0000
,
1000
0001
1000
0001
0100
0010
0100
0000
,
0001
0010
0001
0000
1000
0100
1000
0100
,
1000
0010
1000
0000
0001
0100
0001
0100
,
0001
1000
0001
0000
0010
0100
0010
0100
,
1000
0001
1000
0000
0010
0100
0010
0100
,
0001
0010
0001
0000
1000
0100
1000
0000
,
0001
1000
0001
1000
0100
0010
0100
0000
,
1000
0001
1000
0001
0010
0100
0010
0000
,
0001
0000
0100
0000
0010
1000
0010
1000
,
0002
2003
3001
1001
,
1000
0000
0100
0000
0010
0001
0010
0001
,
2000
3002
1003
1001
,
0001
0000
0010
0000
0100
1000
0100
1000
,
0002
2003
3001
1001
,
1000
0000
0010
0000
0100
0001
0100
0001
,
2000
0100
0010
3001
,
0002
0100
0010
1003
,
1000
0100
1000
0000
0010
0000
0100
0001
,
0010
0100
0010
0000
0001
0000
1000
0010
,
1000
0001
1000
0000
0100
0000
0010
0001
,
0100
0010
0100
0000
0001
0000
1000
0000
,
0001
0010
0100
0000
1000
0100
0010
0000
,
0001
1000
0001
1000
0010
0100
0010
0000
,
1000
0001
1000
0001
0100
0010
0100
0000
,
0001
0010
0001
0000
0100
0000
0010
1000
,
0100
0010
0100
0000
1000
0000
0001
0100
,
0001
1000
0001
0000
0010
0000
0100
1000
,
0010
0100
0010
0000
1000
0000
0001
0000
,
1000
0100
0010
0000
0001
0010
0100
0000
,
1000
0001
1000
0001
0100
0010
0100
0000
,
0001
1000
0001
1000
0010
0100
0010
0000
,
2002
0000
0000
0000
,
0000
0000
0000
3003
;

//---------------dance-single - ----------------
#NOTEDATA:;
#CHARTNAME:;
#STEPSTYPE:dance-single;
#DESCRIPTION:;
#CHARTSTYLE:;
#DIFFICULTY:Hard;
#METER:6;
#RADARVALUES:0.379303,0.389178,0.160660,0.202939,0.000000,314.000000,295.000000,19.000000,24.000000,0.000000,0.000000,0.000000,0.000000,0.000000,0.379303,0.389178,0.160660,0.202939,0.000000,314.000000,295.000000,19.000000,24.000000,0.000000,0.000000,0.000000,0.000000,0.000000;
#CREDIT:;
#DISPLAYBPM:134.000000;
#NOTES:
0000
0000
0000
0000
,
0000
0000
0000
0000
,
0000
0000
0000
0000
,
0000
0000
0000
0000
,
1000
0001
1000
0000
0100
0000
0010
0000
,
0001
1000
0001
0000
0010
0000
0100
0000
,
1000
0001
1000
0000
0010
0000
0100
0000
,
0001
1000
0001
0000
0100
0000
0010
0000
,
1000
0100
1000
0000
0001
0010
0001
0000
,
1000
0100
0010
0001
0000
0001
1000
0000
,
0001
0010
0100
1000
0000
1000
0001
0000
,
1000
0001
1000
0000
0010
0000
0100
0000
,
0001
1000
0001
0000
0100
0000
0010
0000
,
1000
0001
1000
0000
0100
0000
0010
0000
,
0001
1000
0001
0000
0010
0000
0100
0000
,
1000
0010
1000
0000
0001
0100
0001
0000
,
1000
0010
0100
0001
0000
0001
1000
0000
,
0001
0100
0010
1000
0000
1000
0001
0000
,
1000
0001
1000
0000
0100
0000
0010
0000
,
0110
1001
0110
0000
,
0001
1000
0001
0000
0010
0000
0100
0000
,
0110
1001
0110
0000
,
1000
0001
1000
0000
0010
0000
0100
0000
,
0110
1001
0110
0000
,
0001
1000
0001
0000
0100
0000
0010
0000
,
1000
1000
0001
0001
,
0010
0010
0100
0100
,
2000
0000
0100
0000
3010
0000
0001
1000
,
0002
0100
2003
0100
,
3001
0000
0020
0000
0230
0000
1300
0001
,
2000
3020
0230
0302
,
2003
0100
3002
0100
,
1003
0100
0010
0001
0000
0001
1000
0000
,
0001
0010
0100
1000
0000
1000
0001
0000
,
2000
0000
0010
0000
3100
0000
0001
1000
,
0002
0010
2003
0010
,
3001
0000
0200
0000
0320
0000
1030
0001
,
2000
3200
0320
0032
,
2003
0010
3002
0010
,
1003
0010
0100
0001
0000
0001
1000
0000
,
0001
0100
0010
1000
0000
1000
0001
0000
,
1000
0001
1000
0000
0100
0000
0010
0000
,
0110
1001
0110
0000
,
0001
1000
0001
0000
0010
0000
0100
0000
,
0110
1001
0110
0000
,
1000
0001
1000
0000
0010
0000
0100
0000
,
0110
1001
0110
0000
,
0001
1000
0001
0000
0100
0000
0010
0000
,
1000
1000
0001
0001
,
0010
0010
0100
0100
,
1000
0001
1000
0000
0010
0000
0100
0000
,
0001
1000
0001
0000
0100
0000
0010
0000
,
1000
0001
1000
0000
0100
0000
0010
0000
,
0001
1000
0001
0000
0010
0000
0100
0000
,
1000
0010
1000
0000
0001
0100
0001
0000
,
1000
0010
0100
0001
0000
0001
1000
0000
,
0001
0100
0010
1000
0000
1000
0001
0000
,
1000
0001
1000
0000
0100
0000
0010
0000
,
0001
1000
0001
0000
0010
0000
0100
0000
,
1000
0001
1000
0000
0010
0000
0100
0000
,
0001
1000
0001
0000
0100
0000
0010
0000
,
1000
0100
1000
0000
0001
0010
0001
0000
,
1000
0100
0010
0001
0000
0001
1000
0000
,
0001
0010
0100
1000
0000
1000
0001
0000
,
2002
0000
0000
0000
,
0000
0000
0000
3003
;

//---------------dance-single - ----------------
#NOTEDATA:;
#CHARTNAME:;
#STEPSTYPE:dance-single;
#DESCRIPTION:;
#CHARTSTYLE:;
#DIFFICULTY:Medium;
#METER:4;
#RADARVALUES:0.297161,0.333581,0.008456,0.219851,0.000000,246.000000,245.000000,1.000000,26.000000,0.000000,0.000000,0.000000,0.000000,0.000000,0.297161,0.333581,0.008456,0.219851,0.000000,246.000000,245.000000,1.000000,26.000000,0.000000,0.000000,0.000000,0.000000,0.000000;
#CREDIT:;
#DISPLAYBPM:134.000000;
#NOTES:
0000
0000
0000
0000
,
0000
0000
0000
0000
,
0000
0000
0000
0000
,
0000
0000
0000
0000
,
1000
0100
1000
0100
,
0010
0001
0010
0001
,
1000
0010
1000
0010
,
0100
0001
0100
0001
,
1000
0100
0010
0001
,
0100
0010
0100
0000
0001
0000
1000
0000
,
0010
0100
0010
0000
1000
0000
0001
0000
,
1000
0100
1000
0100
,
0010
0001
0010
0001
,
1000
0010
1000
0010
,
0100
0001
0100
0001
,
1000
0100
0010
0001
,
0100
0010
0100
0000
0001
0000
1000
0000
,
0010
0100
0010
0000
1000
0000
0001
0000
,
1000
1000
0001
0001
,
0100
0010
0100
0000
,
0001
0001
1000
1000
,
0010
0100
0010
0000
,
1000
1000
0001
0001
,
0010
0100
0010
0000
,
0001
0001
1000
1000
,
0001
0010
0100
1000
,
0001
0100
0010
1000
,
0002
0010
0100
0013
,
2000
0010
0100
3010
,
0001
0200
0320
2030
,
3002
0023
0230
2300
,
3002
0000
2003
3002
,
0103
0010
0100
0000
0001
0000
1000
0000
,
0010
0100
0010
0000
1000
0000
0001
0000
,
2000
0100
0010
3100
,
0002
0100
0010
0103
,
1000
0020
0230
0302
,
2003
3200
0320
0032
,
2003
0000
3002
2003
,
3010
0100
0010
0000
1000
0000
0001
0000
,
0100
0010
0100
0000
0001
0000
1000
0000
,
0001
0001
1000
1000
,
0100
0010
0100
0000
,
1000
1000
0001
0001
,
0010
0100
0010
0000
,
0001
0001
1000
1000
,
0010
0100
0010
0000
,
1000
1000
0001
0001
,
1000
0010
0100
0001
,
1000
0100
0010
0001
,
1000
0010
1000
0010
,
0100
0001
0100
0001
,
1000
0100
1000
0100
,
0010
0001
0010
0001
,
1000
0010
0100
0001
,
0010
0100
0010
0000
0001
0000
1000
0000
,
0100
0010
0100
0000
1000
0000
0001
0000
,
1000
0010
1000
0010
,
0100
0001
0100
0001
,
1000
0100
1000
0100
,
0010
0001
0010
0001
,
1000
0010
0100
0001
,
0010
0100
0010
0000
0001
0000
1000
0000
,
0100
0010
0100
0000
1000
0000
0001
0000
,
2002
0000
0000
0000
,
0000
0000
0000
3003
;

//---------------dance-single - ----------------
#NOTEDATA:;
#CHARTNAME:;
#STEPSTYPE:dance-single;
#DESCRIPTION:;
#CHARTSTYLE:;
#DIFFICULTY:Easy;
#METER:2;
#RADARVALUES:0.147373,0.222388,0.109925,0.152204,0.000000,122.000000,109.000000,13.000000,18.000000,0.000000,0.000000,0.000000,0.000000,0.000000,0.147373,0.222388,0.109925,0.152204,0.000000,122.000000,109.000000,13.000000,18.000000,0.000000,0.000000,0.000000,0.000000,0.000000;
#CREDIT:;
#DISPLAYBPM:134.000000;
#NOTES:
0000
0000
0000
0000
,
0000
0000
0000
0000
,
0000
0000
0000
0000
,
0000
0000
0000
0000
,
2000
0000
0000
3000
,
0002
0003
2000
3000
,
0010
0010
0010
0000
,
0100
0100
0100
0000
,
0001
1000
0001
0000
,
1001
0000
0000
0000
,
0110
0000
0000
0000
,
0002
0000
0000
0003
,
2000
3000
0002
0003
,
0100
0100
0100
0000
,
0010
0010
0010
0000
,
1000
0001
1000
0000
,
1001
0000
0000
0000
,
0110
0000
0000
0000
,
1000
0000
0001
0000
,
1000
0000
0000
0000
,
0010
0000
0100
0000
,
0010
0000
0000
0000
,
1000
0000
0001
0000
,
1000
0000
0000
0000
,
0100
0000
0010
0000
,
0100
0000
0000
0000
,
1000
0000
0001
0000
,
1000
0000
0001
0000
,
1000
0000
0001
0000
,
0100
0000
0010
0000
,
0100
0000
0010
0000
,
2000
3000
0002
0003
,
1001
0000
0000
0000
,
0110
0000
0000
0000
,
0001
0000
1000
0000
,
0001
0000
1000
0000
,
0010
0000
0100
0000
,
0010
0000
0100
0000
,
0002
0003
2000
3000
,
1001
0000
0000
0000
,
0110
0000
0000
0000
,
1000
0000
0001
0000
,
1000
0000
0000
0000
,
0010
0000
0100
0000
,
0010
0000
0000
0000
,
1000
0000
0001
0000
,
1000
0000
0000
0000
,
0100
0000
0010
0000
,
0100
0000
0000
0000
,
1000
0000
0001
0000
,
2000
0000
0000
3000
,
0002
0003
2000
3000
,
0010
0010
0010
0000
,
0100
0100
0100
0000
,
0001
1000
0001
0000
,
1001
0000
0000
0000
,
0110
0000
0000
0000
,
0002
0000
0000
0003
,
2000
3000
0002
0003
,
0100
0100
0100
0000
,
0010
0010
0010
0000
,
1000
0001
1000
0000
,
1001
0000
0000
0000
,
0110
0000
0000
0000
,
2002
0000
0000
0000
,
0000
0000
0000
3003
;

//---------------dance-single - ----------------
#NOTEDATA:;
#CHARTNAME:;
#STEPSTYPE:dance-single;
#DESCRIPTION:;
#CHARTSTYLE:;
#DIFFICULTY:Beginner;
#METER:1;
#RADARVALUES:0.147373,0.222388,0.109925,0.152204,0.000000,122.000000,109.000000,13.000000,18.000000,0.000000,0.000000,0.000000,0.000000,0.000000,0.147373,0.222388,0.109925,0.152204,0.000000,122.000000,109.000000,13.000000,18.000000,0.000000,0.000000,0.000000,0.000000,0.000000;
#CREDIT:;
#DISPLAYBPM:134.000000;
#NOTES:
// measure 0
0000
0000
0000
0000
,  // measure 1
0000
0000
0000
0000
,  // measure 2
0000
0000
0000
0000
,  // measure 3
0000
0000
0000
0000
,  // measure 4
2000
0000
0000
3000
,  // measure 5
0002
0003
2000
3000
,  // measure 6
0001
0001
0001
0000
,  // measure 7
1000
1000
1000
0000
,  // measure 8
0001
1000
0001
0000
,  // measure 9
1001
0000
0000
0000
,  // measure 10
1001
0000
0000
0000
,  // measure 11
0002
0000
0000
0003
,  // measure 12
2000
3000
0002
0003
,  // measure 13
1000
1000
1000
0000
,  // measure 14
0001
0001
0001
0000
,  // measure 15
1000
0001
1000
0000
,  // measure 16
1001
0000
0000
0000
,  // measure 17
1001
0000
0000
0000
,  // measure 18
1000
0000
0001
0000
,  // measure 19
1000
0000
0000
0000
,  // measure 20
0001
0000
1000
0000
,  // measure 21
0001
0000
0000
0000
,  // measure 22
1000
0000
0001
0000
,  // measure 23
1000
0000
0000
0000
,  // measure 24
1000
0000
0001
0000
,  // measure 25
1000
0000
0000
0000
,  // measure 26
1000
0000
0001
0000
,  // measure 27
1000
0000
0001
0000
,  // measure 28
1000
0000
0001
0000
,  // measure 29
1000
0000
0001
0000
,  // measure 30
1000
0000
0001
0000
,  // measure 31
2000
3000
0002
0003
,  // measure 32
1001
0000
0000
0000
,  // measure 33
1001
0000
0000
0000
,  // measure 34
0001
0000
1000
0000
,  // measure 35
0001
0000
1000
0000
,  // measure 36
0001
0000
1000
0000
,  // measure 37
0001
0000
1000
0000
,  // measure 38
0002
0003
2000
3000
,  // measure 39
1001
0000
0000
0000
,  // measure 40
1001
0000
0000
0000
,  // measure 41
1000
0000
0001
0000
,  // measure 42
1000
0000
0000
0000
,  // measure 43
0001
0000
1000
0000
,  // measure 44
0001
0000
0000
0000
,  // measure 45
1000
0000
0001
0000
,  // measure 46
1000
0000
0000
0000
,  // measure 47
1000
0000
0001
0000
,  // measure 48
1000
0000
0000
0000
,  // measure 49
1000
0000
0001
0000
,  // measure 50
2000
0000
0000
3000
,  // measure 51
0002
0003
2000
3000
,  // measure 52
0001
0001
0001
0000
,  // measure 53
1000
1000
1000
0000
,  // measure 54
0001
1000
0001
0000
,  // measure 55
1001
0000
0000
0000
,  // measure 56
1001
0000
0000
0000
,  // measure 57
0002
0000
0000
0003
,  // measure 58
2000
3000
0002
0003
,  // measure 59
1000
1000
1000
0000
,  // measure 60
0001
0001
0001
0000
,  // measure 61
1000
0001
1000
0000
,  // measure 62
1001
0000
0000
0000
,  // measure 63
1001
0000
0000
0000
,  // measure 64
2002
0000
0000
0000
,  // measure 65
0000
0000
0000
3003
;
