#TITLE:I Should Be So Lucky;
#SUBTITLE:;
#ARTIST:Kylie Minogue;
#TITLETRANSLIT:;
#SUBTITLETRANSLIT:;
#ARTISTTRANSLIT:;
#CREDIT:BadWolf;
#BANNER:I Should Be So Lucky.png;
#BACKGROUND:I Should Be So Lucky-bg.png;
#LYRICSPATH:;
#CDTITLE:cdtitle.png;
#MUSIC:I Should Be So Lucky.ogg;
#OFFSET:-0.900;
#SAMPLESTART:50.249;
#SAMPLELENGTH:16.540;
#SELECTABLE:YES;
#BPMS:0.000=116.080;
#STOPS:;
#BGCHANGES:;

//---------------dance-single - ----------------
#NOTES:
     dance-single:
     :
     Edit:
     9:
     0.581,0.590,0.017,0.008,0.327:
0000
0000
0000
0000
,
0000
0000
0000
0000
,
0000
0000
0000
0000
,
0000
0000
0000
0000
0000
0000
0000
0001
,
1000
0000
0100
0010
0100
0000
1000
0000
0010
0000
0100
0000
0001
0000
1000
0000
,
0001
0000
0010
0100
0010
0000
0001
0000
0100
0000
0010
0000
1000
0000
0100
0000
,
0100
0000
0010
0001
1000
0000
0010
0000
0001
0000
0010
0000
0100
0000
0001
0000
,
1000
0000
0001
0000
0001
0000
0010
0100
0010
0100
1000
0000
0001
0000
1000
0001
,
1000
0000
0010
0100
0010
0000
1000
0000
0001
0000
1000
0000
0100
0000
0010
0000
,
0001
0000
0100
0010
0100
0000
0001
0000
1000
0000
0100
0000
0010
0000
0000
0000
,
0001
0100
1000
0100
0010
1000
0001
1000
,
0100
0000
0010
0001
0010
0000
0001
1000
0001
0000
0100
0010
0100
0000
0001
0000
,
0001
0000
0010
0100
0010
0000
0001
0000
1000
0000
0001
0000
0100
0000
0010
0000
,
1000
0000
0100
0010
0100
0000
1000
0000
0001
0000
0100
0000
0010
0000
0000
0000
,
1000
0100
0001
0100
0010
0001
1000
0001
,
0100
0000
0010
1000
0010
0000
1000
0001
1000
0000
0100
0010
0100
0000
1000
0000
,
1000
0000
0010
0000
0001
0000
0010
0000
0100
0000
0010
0000
1000
0000
0001
1000
,
0001
0010
0100
0001
0100
1000
0001
1000
,
0010
0000
0001
0000
1000
0000
0100
0000
0001
0000
1000
0000
0001
0000
1000
0001
,
1000
0000
0100
0010
0001
0000
0100
0010
1000
0000
0010
0000
0010
0000
1000
0000
,
1001
0000
0001
0000
0010
0000
1000
0000
0010
0000
0001
0000
0100
0000
0010
1000
,
0001
0000
1000
0000
0010
0000
0001
0000
0010
0000
1000
0000
0100
0000
0010
0001
,
1000
0010
0001
1000
0100
0001
1000
0001
,
0010
0000
0100
0000
1000
0000
0010
0100
0010
0100
0001
0000
1000
0000
0001
1000
,
0001
0010
1000
0010
0100
1000
0001
1000
,
0010
0000
0001
0000
0010
0000
1000
0000
0100
0000
0010
0000
0001
0000
1000
0001
,
1000
0010
0001
0010
0100
0001
1000
0001
,
0010
0000
0100
0000
1000
0000
0010
0100
0010
0100
0001
0000
1000
0000
0100
0010
,
0001
0100
1000
0100
0010
1000
0001
1000
,
0100
0000
0001
0000
0100
0000
1000
0000
0010
0000
0100
0000
0001
0000
1000
0001
,
1000
0100
0001
0100
0010
0001
1000
0001
,
0100
0000
0010
0000
1000
0000
0100
0010
0100
0010
0001
0000
1000
0000
0010
0100
,
0001
0000
1000
0001
1000
0000
0100
0000
0010
0000
0001
0000
1000
0000
0001
0000
,
1000
0000
0001
1000
0100
0000
0010
0001
1000
0000
0010
0100
0001
0000
1000
0000
,
1000
0000
0001
1000
0001
0000
0010
0000
0100
0000
1000
0000
0001
0000
1000
0010
,
0000
0010
0001
0000
0010
0000
1000
0100
0000
0010
0001
0000
1000
0000
0001
0000
,
0001
0100
0001
0000
0100
0010
0000
0010
1000
0000
0100
0010
0001
0000
1000
0010
,
0100
0010
1000
0000
0010
0100
0000
0100
0001
0000
0010
0100
1000
0000
0001
1000
,
0010
1000
0001
0000
1000
0100
0000
0100
0010
0000
0001
1000
0001
0000
1000
0001
,
0100
0001
1000
0000
0001
0100
0000
0100
0010
1000
0000
0001
1000
0000
0001
0000
,
0001
0000
0010
0000
1000
0000
0010
0000
0100
0000
0010
0000
0001
0000
1000
0001
,
1000
0010
0100
1000
0100
0001
1000
0001
,
0010
0000
1000
0000
0001
0000
0100
0000
1000
0000
0001
0000
1000
0000
0001
1000
,
0001
0000
0100
0010
1000
0000
0100
0010
0001
0000
0010
0000
0010
0000
0001
0000
,
1001
0000
1000
0000
0010
0000
0001
0000
0010
0000
1000
0000
0100
0000
0010
0001
,
1000
0000
0001
0000
0010
0000
1000
0000
0010
0000
0001
0000
0100
0000
0010
1000
,
0001
0010
1000
0001
0100
1000
0001
1000
,
0010
0000
0100
0000
0001
0000
0010
0100
0010
0100
1000
0000
0001
0000
1000
0001
,
1000
0010
0001
0010
0100
0001
1000
0001
,
0010
0000
1000
0000
0010
0000
0001
0000
0100
0000
0010
0000
1000
0000
0001
1000
,
0001
0010
1000
0010
0100
1000
0001
1000
,
0010
0000
0100
0000
0001
0000
0010
0100
0010
0100
1000
0000
0001
0000
0100
0010
,
1000
0100
0001
0100
0010
0001
1000
0001
,
0100
0000
1000
0000
0100
0000
0001
0000
0010
0000
0100
0000
1000
0000
0001
1000
,
0001
0100
1000
0100
0010
1000
0001
1000
,
0100
0000
0010
0000
0001
0000
0100
0010
0100
0010
1000
0000
0001
0000
0010
0100
,
2000
0000
0000
0000
,
3000
0000
0000
0000
;

//---------------dance-single - ----------------
#NOTES:
     dance-single:
     :
     Challenge:
     7:
     0.474,0.448,0.033,0.240,0.087:
0000
0000
0000
0000
,
0000
0000
0000
0000
,
0000
0000
0000
0000
,
0000
0000
0000
0000
0000
0000
0000
0001
,
1000
0010
0001
0010
1000
0001
0000
1000
,
0100
0010
0001
0010
0100
1000
0000
0010
,
1000
0010
0100
0010
0001
0010
0000
1000
,
0100
0000
0010
0000
0001
0000
0000
0000
1000
0001
1000
0000
0001
0000
0100
0000
,
0010
0100
0001
1000
0100
0010
0001
2000
,
0000
3010
0100
1000
0100
0001
0000
1000
,
0100
0001
0100
1000
0001
0100
0002
0000
,
1003
0000
1100
0000
0100
0010
0001
1000
,
0010
0001
0010
1000
0001
0010
0100
2000
,
0000
3010
0100
0010
1000
0002
0000
0003
,
1000
0100
0001
1000
0010
0001
1000
0000
,
0001
0000
0100
0000
0010
0000
0000
0000
1000
0001
0000
0000
1001
0000
0001
0000
,
0100
0010
1000
0001
0010
0100
1000
0002
,
0000
0103
0010
0001
0010
1000
0000
0001
,
0010
1000
0010
0001
1000
0020
0000
0230
,
0000
0301
1000
0100
0010
0001
0001
1000
,
1000
0010
0100
0001
1000
0100
0010
0000
,
0001
0100
0010
1000
0001
0010
0100
1000
,
0010
0001
0010
1000
0001
0000
0010
0100
,
0010
0000
0001
0000
1000
0000
0001
1000
0001
0000
1000
0000
1000
0000
0001
0000
,
0001
0010
1000
0001
0100
2000
0000
3020
,
0000
1030
0100
0001
0100
1000
0000
0002
,
0000
0103
0010
0001
0010
2000
0000
3200
,
0000
0000
0310
0000
0001
0000
0000
0000
1000
0001
1000
0000
0001
0000
1000
0000
,
1000
0010
0001
1000
0100
0002
0000
0023
,
0000
0031
0100
1000
0100
0002
0000
2003
,
0000
3100
0010
1000
0010
0001
1000
0001
,
0100
0000
0010
0000
1000
0000
0000
0000
0001
1000
0001
0000
1000
0000
0001
0000
,
0001
0100
0010
1000
,
0001
0000
0010
0000
0100
0000
1000
0001
,
0001
0000
0000
0000
0101
0000
0000
0000
1000
0000
0000
0000
0100
0000
0010
0001
,
0000
0001
1000
0000
0010
0000
0100
0001
0000
0100
0001
0000
1000
0000
0001
0000
,
0001
0000
0010
0000
0100
1000
0000
1000
0001
0000
0000
0000
0100
0000
0010
0000
,
1000
0000
0100
0000
0010
0001
0000
0001
1000
0000
0000
0000
0010
0000
0100
0000
,
0010
0000
1000
0000
0001
0010
0000
0010
0100
0000
0000
0000
1000
0000
0001
0000
,
0100
0000
0001
0000
1000
0100
0000
0100
0010
0001
0000
0000
1001
0000
1000
0000
,
0010
0100
0001
1000
0100
0010
0001
2000
,
0000
3010
0100
1000
0100
0001
0000
1000
,
0100
0001
0100
1000
0001
0200
0000
0320
,
0000
1030
0001
0010
0100
1000
1000
0001
,
0001
0100
0010
1000
0001
0010
0100
0000
,
1000
0010
0100
0001
1000
0100
0010
0001
,
0100
1000
0100
0001
1000
0000
0100
0010
,
0100
0000
1000
0000
0001
0000
1000
0001
1000
0000
0001
0000
0001
0000
1000
0000
,
1000
0100
0001
1000
0010
0002
0000
0203
,
0000
0301
0010
1000
0010
0001
0000
2000
,
0000
3010
0100
1000
0100
0002
0000
0023
,
0000
0000
0130
0000
1000
0000
0000
0000
0001
1000
0001
0000
1000
0000
0001
0000
,
0001
0100
1000
0001
0010
2000
0000
3200
,
0000
1300
0010
0001
0010
2000
0000
3002
,
0000
0013
0100
0001
0100
1000
0001
1000
,
0010
0000
0100
0000
0001
0000
0000
0000
1000
0001
1000
0000
0001
0000
1000
0000
,
0002
0000
0000
0000
,
0003
0000
0000
0000
;

//---------------dance-single - ----------------
#NOTES:
     dance-single:
     :
     Hard:
     5:
     0.325,0.330,0.083,0.008,0.004:
0000
0000
0000
0000
,
0000
0000
0000
0000
,
0000
0000
0000
0000
,
0000
0000
0000
0000
,
1000
0000
0100
0000
0010
0001
1000
0000
,
0001
0000
0100
0000
0010
1000
0001
0000
,
0010
0000
0100
0000
1000
0001
1000
0000
,
0010
0000
0100
0000
0010
0000
0000
0000
1000
0000
0000
0001
0000
0000
0000
0000
,
1000
1100
0100
0010
,
0001
0000
0100
0010
0100
0000
0001
0000
,
1000
0100
0010
0000
0010
0100
1000
0000
,
0001
0000
0101
0000
1000
0000
0001
1000
,
0001
0011
0010
0100
,
1000
0000
0010
0100
0010
0000
1000
0000
,
0001
0010
0100
0000
0100
0010
0001
0000
,
1000
0000
1010
0000
0001
0000
1000
0001
,
1000
0010
0001
0010
,
1000
0000
0100
0000
0010
0001
0010
0000
,
0001
0101
1000
1100
,
0001
0000
1000
0000
0001
0010
0100
1000
,
0001
0000
1000
0010
1000
0000
0001
0000
,
1000
0000
0001
0010
0001
0000
1000
0000
,
0010
0100
0010
0000
1000
0100
0010
0000
,
0001
0100
0010
1000
0001
0000
1000
0001
,
1000
0000
0100
0000
0010
0001
1000
0000
,
0010
0000
0100
0000
0001
1000
0100
0000
,
0010
0000
0100
0000
1000
0001
0100
0000
,
0001
0000
0010
0000
0100
1000
0001
1000
,
0001
0000
0100
0000
0010
1000
0001
0000
,
0010
0000
0100
0000
1000
0001
0100
0000
,
0010
0000
0100
0000
0001
1000
0100
0000
,
1000
0000
0010
0000
0100
0001
1000
0001
,
1000
1000
0010
0010
,
0100
0100
0001
0001
,
1000
1100
0001
0101
,
1000
0000
0100
0000
0010
0001
1000
0001
,
1000
0010
0001
0010
,
1000
0100
0001
0100
,
1000
0010
0100
0001
,
1000
0000
0100
0000
0010
0000
0001
1000
,
0001
0100
1000
0100
,
0001
0000
0010
0000
0100
1000
0100
0000
,
1000
1010
0001
0011
,
1000
0000
0001
0000
1000
0100
0010
0001
,
1000
0000
0001
0100
0001
0000
1000
0000
,
0001
0000
1000
0100
1000
0000
0001
0000
,
0100
0010
0100
0000
0001
0010
0100
0000
,
1000
0010
0100
0001
1000
0000
0001
1000
,
0001
0000
0010
0000
0100
1000
0001
0000
,
0100
0000
0010
0000
1000
0001
0010
0000
,
0100
0000
0010
0000
0001
1000
0010
0000
,
1000
0000
0100
0000
0010
0001
1000
0001
,
1000
0000
0010
0000
0100
0001
1000
0000
,
0100
0000
0010
0000
0001
1000
0010
0000
,
0100
0000
0010
0000
1000
0001
0010
0000
,
0001
0000
0100
0000
0010
1000
0001
1000
,
0002
0000
0000
0000
,
0003
0000
0000
0000
;

//---------------dance-single - ----------------
#NOTES:
     dance-single:
     :
     Medium:
     3:
     0.262,0.307,0.083,0.157,0.000:
0000
0000
0000
0000
,
0000
0000
0000
0000
,
0000
0000
0000
0000
,
0000
0000
0000
0000
,
2000
3001
0010
0100
,
0010
0001
1000
1001
,
0002
1003
0010
0100
,
0010
1000
0001
1001
,
1000
0100
1000
0100
,
0010
0001
1000
0000
,
0010
0100
0001
1000
,
0100
0010
0001
1000
,
0001
0100
0001
0100
,
0010
1000
0001
0000
,
0010
0100
1000
0001
,
0100
0010
1000
0001
,
1000
0100
0010
0001
,
0010
0100
1000
0000
,
0001
0100
0010
1000
,
0001
0010
0100
1000
,
0010
0010
0100
0100
,
0001
0001
1000
1000
,
0200
0320
0230
0300
,
2000
3002
2003
3000
,
0001
0101
0100
0010
,
1000
0100
0010
0001
,
1000
1010
0010
0100
,
0001
0010
0100
1000
,
0010
0110
0100
0001
,
1000
0100
0010
0001
,
0100
0110
0010
1000
,
0001
0010
0100
1000
,
0002
0000
2003
0000
,
3020
0000
0230
0000
,
0301
0001
1000
0010
,
1000
1000
0001
0010
,
0100
1000
0001
0000
,
0100
0001
1000
0000
,
0001
0010
0100
0000
,
1000
0010
0100
0000
,
0001
0010
0100
1000
,
0100
0010
0001
0000
,
1000
0010
0100
0001
,
1000
0100
0010
0001
,
0100
0100
0010
0010
,
1000
1000
0001
0001
,
0020
0230
0320
0030
,
0002
2003
3002
0003
,
1000
1010
0010
0100
,
0001
0010
0100
1000
,
0001
0101
0100
0010
,
1000
0100
0010
0001
,
0100
0110
0010
1000
,
0001
0010
0100
1000
,
0010
0110
0100
0001
,
1000
0100
0010
0001
,
2000
0000
0000
0000
,
3000
0000
0000
0000
;

//---------------dance-single - ----------------
#NOTES:
     dance-single:
     :
     Easy:
     1:
     0.097,0.118,0.000,0.008,0.000:
0000
0000
0000
0000
,
0000
0000
0000
0000
,
0000
0000
0000
0000
,
0000
0000
0000
0000
,
1000
0000
0000
0000
,
0001
0000
0000
0000
,
1000
0000
0000
0000
,
0001
0000
0000
0000
,
1000
0000
0001
0000
,
1000
0000
0000
0000
,
0010
0000
0100
0000
,
0010
0000
0000
0000
,
1000
0000
0001
0000
,
1000
0000
0000
0000
,
0100
0000
0010
0000
,
0100
0000
0000
0000
,
1000
0000
0010
0000
,
1000
0000
0000
0000
,
0001
0000
0100
0000
,
0001
0000
0000
0000
,
1000
0000
0100
0000
,
1000
0000
0000
0000
,
0001
0000
0010
0000
,
0001
0000
0000
0000
,
1000
0000
1000
0000
,
0001
0000
0001
0000
,
0100
0000
0100
0000
,
0010
0000
0010
0000
,
1000
0000
1000
0000
,
0001
0000
0001
0000
,
0010
0000
0010
0000
,
0100
0000
0100
0000
,
1000
0000
0000
0000
,
0001
0000
0000
0000
,
0100
0000
0000
0000
,
0010
0000
0000
0000
,
1000
0000
0000
0000
,
0001
0000
0000
0000
,
0010
0000
0000
0000
,
0100
0000
0000
0000
,
1000
0000
0010
0000
,
1000
0000
0000
0000
,
0001
0000
0100
0000
,
0001
0000
0000
0000
,
1000
0000
0100
0000
,
1000
0000
0000
0000
,
0001
0000
0010
0000
,
0001
0000
0000
0000
,
1000
0000
1000
0000
,
0001
0000
0001
0000
,
0100
0000
0100
0000
,
0010
0000
0010
0000
,
1000
0000
1000
0000
,
0001
0000
0001
0000
,
0010
0000
0010
0000
,
0100
0000
0100
0000
,
2000
0000
0000
0000
,
3000
0000
0000
0000
;

//---------------dance-single - Copied from----------------
#NOTES:
     dance-single:
     Copied from:
     Beginner:
     1:
     0.097,0.118,0.000,0.008,0.000: // measure 1
0000
0000
0000
0000
,  // measure 2
0000
0000
0000
0000
,  // measure 3
0000
0000
0000
0000
,  // measure 4
0000
0000
0000
0000
,  // measure 5
1000
0000
0000
0000
,  // measure 6
0001
0000
0000
0000
,  // measure 7
1000
0000
0000
0000
,  // measure 8
0001
0000
0000
0000
,  // measure 9
1000
0000
0001
0000
,  // measure 10
1000
0000
0000
0000
,  // measure 11
0001
0000
1000
0000
,  // measure 12
0001
0000
0000
0000
,  // measure 13
1000
0000
0001
0000
,  // measure 14
1000
0000
0000
0000
,  // measure 15
1000
0000
0001
0000
,  // measure 16
1000
0000
0000
0000
,  // measure 17
1000
0000
0001
0000
,  // measure 18
1000
0000
0000
0000
,  // measure 19
0001
0000
1000
0000
,  // measure 20
0001
0000
0000
0000
,  // measure 21
1000
0000
1000
0000
,  // measure 22
1000
0000
0000
0000
,  // measure 23
0001
0000
0001
0000
,  // measure 24
0001
0000
0000
0000
,  // measure 25
1000
0000
1000
0000
,  // measure 26
0001
0000
0001
0000
,  // measure 27
1000
0000
1000
0000
,  // measure 28
0001
0000
0001
0000
,  // measure 29
1000
0000
1000
0000
,  // measure 30
0001
0000
0001
0000
,  // measure 31
0001
0000
0001
0000
,  // measure 32
1000
0000
1000
0000
,  // measure 33
1000
0000
0000
0000
,  // measure 34
0001
0000
0000
0000
,  // measure 35
1000
0000
0000
0000
,  // measure 36
0001
0000
0000
0000
,  // measure 37
1000
0000
0000
0000
,  // measure 38
0001
0000
0000
0000
,  // measure 39
0001
0000
0000
0000
,  // measure 40
1000
0000
0000
0000
,  // measure 41
1000
0000
0001
0000
,  // measure 42
1000
0000
0000
0000
,  // measure 43
0001
0000
1000
0000
,  // measure 44
0001
0000
0000
0000
,  // measure 45
1000
0000
1000
0000
,  // measure 46
1000
0000
0000
0000
,  // measure 47
0001
0000
0001
0000
,  // measure 48
0001
0000
0000
0000
,  // measure 49
1000
0000
1000
0000
,  // measure 50
0001
0000
0001
0000
,  // measure 51
1000
0000
1000
0000
,  // measure 52
0001
0000
0001
0000
,  // measure 53
1000
0000
1000
0000
,  // measure 54
0001
0000
0001
0000
,  // measure 55
0001
0000
0001
0000
,  // measure 56
1000
0000
1000
0000
,  // measure 57
2000
0000
0000
0000
,  // measure 58
3000
0000
0000
0000
;
