#VERSION:0.83;
#TITLE:Hung Up;
#SUBTITLE:;
#ARTIST:Madonna;
#TITLETRANSLIT:;
#SUBTITLETRANSLIT:;
#ARTISTTRANSLIT:;
#GENRE:;
#ORIGIN:;
#CREDIT:BadWolf;
#BANNER:Hung Up.png;
#BACKGROUND:Hung Up-bg.png;
#PREVIEWVID:;
#JACKET:Hung Up-jacket.png;
#CDIMAGE:;
#DISCIMAGE:;
#LYRICSPATH:;
#CDTITLE:cdtitle.png;
#MUSIC:Hung Up.ogg;
#OFFSET:0.220000;
#SAMPLESTART:0.734016;
#SAMPLELENGTH:15.359998;
#SELECTABLE:YES;
#BPMS:0.000=125.000;
#STOPS:;
#DELAYS:;
#WARPS:;
#TIMESIGNATURES:0.000=4=4;
#TICKCOUNTS:0.000=4;
#COMBOS:0.000=1;
#SPEEDS:0.000=1.000=0.000=0;
#SCROLLS:0.000=1.000;
#FAKES:;
#LABELS:0.000=Song Start;
#BGCHANGES:0.458=CONFESSIONS_ON_A_DANCE_FLOOR.avi=1.000=0=0=1===CrossFade_Fastest==,
92.000=Hung Up-bg.png=1.000=0=0=1===CrossFade_Fastest==,
99999=-nosongbg-=1.000=0=0=0 // don't automatically add -songbackground-
;
#KEYSOUNDS:;
#ATTACKS:
;

//---------------dance-single - ----------------
#NOTEDATA:;
#CHARTNAME:;
#STEPSTYPE:dance-single;
#DESCRIPTION:;
#CHARTSTYLE:;
#DIFFICULTY:Challenge;
#METER:9;
#RADARVALUES:0.544135,0.549954,0.000000,0.000000,0.285161,187.000000,187.000000,0.000000,0.000000,0.000000,0.000000,0.000000,0.000000,0.000000,0.544135,0.549954,0.000000,0.000000,0.285161,187.000000,187.000000,0.000000,0.000000,0.000000,0.000000,0.000000,0.000000,0.000000;
#CREDIT:;
#NOTES:
0000
0000
0000
0000
1000
0010
0001
0010
,
1000
0000
0100
0010
0001
0010
0100
1000
,
0000
0000
0010
0000
0100
0000
0001
0000
1000
0000
0100
1000
0100
0000
1000
0010
,
1000
0000
0010
0100
0010
0000
0100
0001
0100
0000
0001
0010
0001
0000
0010
0100
,
0010
0000
0100
1000
0100
0000
1000
0000
0001
0000
0100
0000
1000
0000
0100
0000
,
0001
0000
0010
0100
1000
0100
0010
0001
,
0000
0000
0100
0000
0010
0000
1000
0000
0001
0000
0010
0001
0010
0000
0001
0100
,
0001
0000
0100
0010
0100
0000
0010
1000
0010
0000
1000
0100
1000
0000
0100
0010
,
0100
0000
0010
0001
0010
0000
0001
0000
1000
0000
0010
0000
0100
0000
0010
0000
,
0001
0000
0010
0100
0001
1000
0100
0010
,
0000
0000
0001
0000
0100
0000
1000
0000
0100
0000
0010
1000
0010
0000
0100
0001
,
0100
0000
0010
1000
0010
0000
1000
0100
1000
0000
0001
0010
0001
0000
1000
0010
,
1000
0000
0001
0100
0001
0000
1000
0000
0001
0000
0010
0000
0100
0000
0010
0000
,
1000
0000
0010
0100
1000
0001
0100
0010
,
0000
0000
1000
0000
0100
0000
0001
0000
0100
0000
0010
0001
0010
0000
0100
1000
,
0100
0000
0010
0001
0010
0000
0001
0100
0001
0000
1000
0010
1000
0000
0001
0010
,
0001
0000
1000
0100
1000
0000
0001
0000
1000
0000
0010
0000
0001
0000
0010
0000
,
1000
0000
0001
0100
1000
0100
0001
0000
,
1000
0100
0010
0001
1000
0000
0010
0000
,
0001
0010
1000
0000
0001
0000
0100
0000
,
1000
0100
0001
0000
1000
0100
0010
0100
,
1000
0000
0001
0100
0010
0100
0001
0000
,
1000
0100
0010
0001
1000
0000
0000
0000
;

//---------------dance-single - ----------------
#NOTEDATA:;
#CHARTNAME:;
#STEPSTYPE:dance-single;
#DESCRIPTION:;
#CHARTSTYLE:;
#DIFFICULTY:Hard;
#METER:4;
#RADARVALUES:0.270612,0.229148,0.081475,0.000000,0.000000,93.000000,89.000000,4.000000,0.000000,0.000000,0.000000,0.000000,0.000000,0.000000,0.270612,0.229148,0.081475,0.000000,0.000000,93.000000,89.000000,4.000000,0.000000,0.000000,0.000000,0.000000,0.000000,0.000000;
#CREDIT:;
#NOTES:
0000
0000
1000
0001
,
0100
0001
1000
0100
,
0010
0001
0100
0001
,
1000
0001
0010
0100
,
1000
1001
0001
1000
,
0010
1000
0001
0010
,
0100
1000
0010
1000
,
0001
1000
0100
0010
,
0001
1001
1000
0010
,
0001
0010
1000
0100
,
0010
0100
0001
0100
,
0010
0100
1000
0001
,
1000
1001
0001
0100
,
1000
0100
0001
0010
,
0100
0010
1000
0010
,
0100
0010
0001
1000
,
0001
1001
1000
0100
,
0010
0010
0100
1000
,
0001
0100
0001
1000
,
0100
0010
0001
1000
,
0010
0100
0001
0010
,
0100
0100
0010
0001
,
1000
0001
1000
0000
;

//---------------dance-single - ----------------
#NOTEDATA:;
#CHARTNAME:;
#STEPSTYPE:dance-single;
#DESCRIPTION:;
#CHARTSTYLE:;
#DIFFICULTY:Medium;
#METER:1;
#RADARVALUES:0.270612,0.229148,0.081475,0.000000,0.000000,93.000000,89.000000,4.000000,0.000000,0.000000,0.000000,0.000000,0.000000,0.000000,0.270612,0.229148,0.081475,0.000000,0.000000,93.000000,89.000000,4.000000,0.000000,0.000000,0.000000,0.000000,0.000000,0.000000;
#CREDIT:;
#NOTES:
// measure 0
0000
0000
1000
0001
,  // measure 1
1000
0001
1000
1000
,  // measure 2
0001
0001
1000
0001
,  // measure 3
1000
0001
0001
1000
,  // measure 4
1000
1001
0001
1000
,  // measure 5
0001
1000
0001
0001
,  // measure 6
1000
1000
0001
1000
,  // measure 7
0001
1000
1000
0001
,  // measure 8
0001
1001
1000
0001
,  // measure 9
0001
0001
1000
1000
,  // measure 10
0001
1000
0001
1000
,  // measure 11
0001
1000
1000
0001
,  // measure 12
1000
1001
0001
1000
,  // measure 13
1000
1000
0001
0001
,  // measure 14
1000
0001
1000
0001
,  // measure 15
1000
0001
0001
1000
,  // measure 16
0001
1001
1000
1000
,  // measure 17
0001
0001
1000
1000
,  // measure 18
0001
1000
0001
1000
,  // measure 19
1000
0001
0001
1000
,  // measure 20
0001
1000
0001
0001
,  // measure 21
1000
1000
0001
0001
,  // measure 22
1000
0001
1000
0000
;
